osu file format v14

[General]
AudioFilename: audio.ogg
AudioLeadIn: 0
PreviewTime: 97054
Countdown: 0
SampleSet: Normal
StackLeniency: 0.7
Mode: 1
LetterboxInBreaks: 0
WidescreenStoryboard: 1

[Editor]
Bookmarks: 74975
DistanceSpacing: 2.3
BeatDivisor: 2
GridSize: 32
TimelineZoom: 1.000001

[Metadata]
Title:Blackest Luxury Car
TitleUnicode:Blackest Luxury Car
Artist:Chicala Lpis
ArtistUnicode:力ルピス
Creator:Burak
Version:Kantan
Source:Muse Dash
Tags:Lactic Acid Bacteria instrumental electronic video game GroundbreakinG 2017 dnb d&b d'n'b drum n 'n' & and bass BOFU2017 THE BMS OF FIGHTERS ULTIMATE cytus 2 II rhythm doctor dr. ron [r] skolodojko justburak
BeatmapID:3135231
BeatmapSetID:1533080

[Difficulty]
HPDrainRate:8
CircleSize:5
OverallDifficulty:3
ApproachRate:5
SliderMultiplier:1.4
SliderTickRate:1

[Events]
//Background and Video events
0,0,"related bg.jpg",0,120
//Break Periods
2,65569,73607
//Storyboard Layer 0 (Background)
//Storyboard Layer 1 (Fail)
//Storyboard Layer 2 (Pass)
//Storyboard Layer 3 (Foreground)
//Storyboard Layer 4 (Overlay)
//Storyboard Sound Samples

[TimingPoints]
650,337.078651685393,4,1,0,70,1,0
650,-111.111111111111,4,1,0,70,0,0
11436,-111.111111111111,4,1,0,75,0,0
76155,-111.111111111111,4,1,0,85,0,1
95032,-111.111111111111,4,1,0,85,0,0
95200,-111.111111111111,4,1,0,80,0,0
97728,-111.111111111111,4,1,0,80,0,1
121998,-111.111111111111,4,1,0,80,0,0
132784,-111.111111111111,4,1,0,70,0,0

[HitObjects]
174,238,650,5,4,1:0:0:0:
174,238,1324,1,8,1:0:0:0:
174,238,1998,1,8,1:0:0:0:
174,238,2672,1,0,1:0:0:0:
172,232,3346,1,8,1:0:0:0:
172,232,4020,1,8,1:0:0:0:
172,232,4694,1,8,1:0:0:0:
172,231,6043,1,0,1:0:0:0:
172,231,6717,1,8,1:0:0:0:
172,231,7391,1,8,1:0:0:0:
172,231,8065,1,0,1:0:0:0:
172,231,8739,1,8,1:0:0:0:
172,231,9414,1,8,1:0:0:0:
138,165,10088,1,4,1:0:0:0:
138,165,11436,5,4,1:0:0:0:
138,165,11773,1,8,1:0:0:0:
138,165,12447,1,8,1:0:0:0:
138,127,12784,1,0,1:0:0:0:
154,60,13290,1,8,1:0:0:0:
121,131,13964,1,0,1:0:0:0:
163,172,14470,1,8,1:0:0:0:
163,172,15144,1,8,1:0:0:0:
163,172,15481,1,0,1:0:0:0:
139,166,15987,1,8,1:0:0:0:
116,167,16829,1,0,1:0:0:0:
141,213,17841,1,8,1:0:0:0:
141,213,18178,1,0,1:0:0:0:
137,218,18683,1,8,1:0:0:0:
137,218,19357,1,0,1:0:0:0:
142,206,19863,1,8,1:0:0:0:
139,204,20537,1,8,1:0:0:0:
139,204,20874,1,4,1:0:0:0:
138,165,22223,5,4,1:0:0:0:
138,165,22897,1,8,1:0:0:0:
138,127,23571,1,8,1:0:0:0:
154,60,24076,1,8,1:0:0:0:
121,131,24414,1,0,1:0:0:0:
121,131,24751,1,0,1:0:0:0:
163,172,25256,1,8,1:0:0:0:
163,172,25930,1,8,1:0:0:0:
163,172,26267,1,0,1:0:0:0:
139,166,26773,1,8,1:0:0:0:
128,165,27279,1,8,1:0:0:0:
189,244,28290,5,4,1:0:0:0:
141,213,28964,1,8,1:0:0:0:
137,218,29470,1,8,1:0:0:0:
137,218,29807,1,0,1:0:0:0:
137,218,30144,1,0,1:0:0:0:
153,208,30649,1,8,1:0:0:0:
153,208,31324,1,8,1:0:0:0:
139,204,31661,1,4,1:0:0:0:
172,182,33009,5,4,1:0:0:0:
234,235,33346,1,0,0:0:0:0:
172,182,33683,1,8,1:0:0:0:
170,188,34189,1,0,1:0:0:0:
172,182,34694,1,8,1:0:0:0:
167,180,35032,1,8,1:0:0:0:
172,182,35706,1,8,1:0:0:0:
164,161,36211,1,0,1:0:0:0:
162,179,36717,1,0,1:0:0:0:
165,168,37054,1,8,1:0:0:0:
227,266,37560,1,0,0:0:0:0:
156,219,38402,5,0,1:0:0:0:
105,272,39076,1,8,1:0:0:0:
142,218,39414,1,0,1:0:0:0:
114,277,39751,1,0,1:0:0:0:
205,226,40256,1,0,0:0:0:0:
161,189,40762,1,8,1:0:0:0:
137,207,41267,1,8,1:0:0:0:
161,195,41773,1,8,1:0:0:0:
169,206,42279,1,0,1:0:0:0:
164,211,42953,1,0,1:0:0:0:
165,175,44133,1,12,1:0:0:0:
180,183,44470,1,0,1:0:0:0:
194,257,44975,1,8,0:0:0:0:
179,182,45481,1,0,1:0:0:0:
185,182,45818,1,8,1:0:0:0:
178,182,46492,1,8,1:0:0:0:
202,246,46998,1,0,0:0:0:0:
172,160,47503,1,0,1:0:0:0:
172,165,47841,1,8,1:0:0:0:
164,179,48346,1,0,1:0:0:0:
156,219,49189,5,0,1:0:0:0:
105,272,49863,1,8,1:0:0:0:
142,218,50200,1,0,1:0:0:0:
114,277,50537,1,0,1:0:0:0:
205,226,51043,1,0,0:0:0:0:
161,189,51548,1,8,1:0:0:0:
137,207,52054,1,8,1:0:0:0:
161,195,52560,5,8,1:0:0:0:
169,206,53065,1,0,1:0:0:0:
164,211,53739,1,0,1:0:0:0:
143,186,54582,1,12,1:0:0:0:
164,155,55256,1,0,1:0:0:0:
161,204,55593,1,0,1:0:0:0:
166,202,55930,1,8,1:0:0:0:
166,193,56942,5,8,1:0:0:0:
175,220,57279,1,8,1:0:0:0:
148,214,57953,1,0,1:0:0:0:
137,203,58627,1,8,1:0:0:0:
140,206,59133,1,0,1:0:0:0:
137,203,59638,1,0,1:0:0:0:
131,200,59975,1,8,1:0:0:0:
195,213,60649,1,0,0:0:0:0:
128,201,60987,1,0,1:0:0:0:
131,200,61324,1,8,1:0:0:0:
138,204,62335,1,8,1:0:0:0:
138,204,62672,1,0,1:0:0:0:
151,231,63346,1,0,0:0:0:0:
181,209,64020,1,12,1:0:0:0:
109,201,65369,1,4,1:0:0:0:
174,178,74807,5,8,1:0:0:0:
174,178,75481,1,0,1:0:0:0:
168,178,75818,1,0,1:0:0:0:
167,179,76155,1,12,1:0:0:0:
161,182,76829,1,8,1:0:0:0:
153,181,77503,1,8,1:0:0:0:
157,181,78009,1,0,1:0:0:0:
166,173,78515,1,0,1:0:0:0:
186,178,78852,1,8,1:0:0:0:
186,175,79526,1,8,1:0:0:0:
243,238,79863,1,0,1:0:0:0:
182,169,80200,1,8,1:0:0:0:
159,171,81211,5,0,1:0:0:0:
159,171,81548,1,12,1:0:0:0:
157,151,82223,1,8,1:0:0:0:
154,158,82897,1,8,1:0:0:0:
154,158,83402,1,0,1:0:0:0:
154,158,83908,1,0,1:0:0:0:
154,158,84245,1,8,1:0:0:0:
166,139,84919,1,8,1:0:0:0:
242,250,85256,1,8,1:0:0:0:
166,139,85593,1,4,1:0:0:0:
194,237,86605,1,8,1:0:0:0:
194,228,86942,1,0,1:0:0:0:
167,179,87616,1,12,1:0:0:0:
161,182,88290,1,8,1:0:0:0:
153,181,88796,1,0,1:0:0:0:
157,181,89301,1,0,1:0:0:0:
161,229,89638,1,8,1:0:0:0:
186,178,90312,1,8,1:0:0:0:
186,175,90987,1,8,1:0:0:0:
182,169,91492,1,8,1:0:0:0:
188,262,91998,1,0,1:0:0:0:
184,256,92335,1,12,1:0:0:0:
156,149,93346,1,8,1:0:0:0:
156,149,93683,1,8,1:0:0:0:
221,281,94189,1,0,1:0:0:0:
146,244,94694,1,0,1:0:0:0:
157,217,95032,1,4,1:0:0:0:
256,192,95200,12,12,97054,1:0:0:0:
183,205,97728,5,4,1:0:0:0:
183,205,98065,1,8,1:0:0:0:
183,205,98571,1,8,1:0:0:0:
183,205,99076,1,0,1:0:0:0:
183,205,99414,1,8,1:0:0:0:
183,205,99751,1,0,1:0:0:0:
186,198,100425,1,0,1:0:0:0:
187,197,100762,1,8,1:0:0:0:
186,198,101099,1,8,1:0:0:0:
187,197,101773,1,8,1:0:0:0:
189,210,102279,1,0,1:0:0:0:
174,211,103121,1,0,1:0:0:0:
201,200,103458,1,8,1:0:0:0:
187,197,103964,1,8,1:0:0:0:
170,235,104470,1,8,1:0:0:0:
31,236,104807,1,0,1:0:0:0:
179,235,105144,1,0,1:0:0:0:
159,248,105818,1,12,1:0:0:0:
167,249,106324,1,4,1:0:0:0:
159,248,106829,1,12,1:0:0:0:
167,249,107335,1,12,1:0:0:0:
159,248,107841,1,4,1:0:0:0:
183,205,108515,5,4,1:0:0:0:
183,205,108852,1,8,1:0:0:0:
183,205,109357,1,8,1:0:0:0:
183,205,109863,1,0,1:0:0:0:
183,205,110200,1,8,1:0:0:0:
183,205,110537,1,0,1:0:0:0:
186,198,111211,1,0,1:0:0:0:
187,197,111548,1,8,1:0:0:0:
186,198,111885,1,8,1:0:0:0:
187,197,112560,1,8,1:0:0:0:
189,210,113065,1,0,1:0:0:0:
174,211,113908,1,0,1:0:0:0:
201,200,114245,1,8,1:0:0:0:
187,197,114751,1,8,1:0:0:0:
170,235,115256,1,8,1:0:0:0:
31,236,115593,5,0,1:0:0:0:
179,235,115930,1,0,1:0:0:0:
159,248,116605,5,12,1:0:0:0:
167,249,117110,1,4,1:0:0:0:
159,248,117616,1,12,1:0:0:0:
167,249,118121,1,4,1:0:0:0:
162,231,119301,1,12,1:0:0:0:
195,240,119807,1,4,1:0:0:0:
139,231,120312,1,12,1:0:0:0:
139,231,120818,1,4,1:0:0:0:
139,231,121324,1,12,1:0:0:0:
139,231,121998,1,4,1:0:0:0:
145,232,123346,1,4,1:0:0:0:
96,266,124020,1,8,1:0:0:0:
179,229,124357,1,0,1:0:0:0:
163,191,124694,1,8,1:0:0:0:
163,191,125200,1,8,1:0:0:0:
166,195,125537,1,8,1:0:0:0:
122,240,125874,1,0,1:0:0:0:
187,262,126380,1,0,1:0:0:0:
187,262,126717,1,8,1:0:0:0:
149,221,127391,1,8,1:0:0:0:
144,224,128402,1,0,1:0:0:0:
216,233,128739,1,8,1:0:0:0:
196,247,129414,1,8,1:0:0:0:
166,180,129751,1,0,1:0:0:0:
140,184,130088,1,8,1:0:0:0:
140,184,130593,1,8,1:0:0:0:
148,175,131267,1,0,1:0:0:0:
146,175,131773,1,0,1:0:0:0:
134,182,132110,1,8,1:0:0:0:
134,182,132784,1,12,1:0:0:0:
