osu file format v14

[General]
AudioFilename: audio.mp3
AudioLeadIn: 0
PreviewTime: 75786
Countdown: 0
SampleSet: Normal
StackLeniency: 0.7
Mode: 1
LetterboxInBreaks: 0
WidescreenStoryboard: 1

[Editor]
Bookmarks: 11186,36786,62386,79986,105586,118386,131186,148786
DistanceSpacing: 1
BeatDivisor: 4
GridSize: 32
TimelineZoom: 2.899999

[Metadata]
Title:GOMIKASU -Original Mix-
TitleUnicode:GOMIKASU -Original Mix-
Artist:ChibaNyan vs. Otogibara Era
ArtistUnicode:チバニャン vs. 御伽原江良
Creator:Eyenine
Version:Kantan
Source:
Tags:novelty instrumental gibara nijisanji にじさんじ 2434 vtuber virtual youtuber しょぼんのアクション shobon action cat mario Cheetahmen 2 two II main theme nes 52 japanese electronic バーチャルyoutuber
BeatmapID:2500702
BeatmapSetID:1200809

[Difficulty]
HPDrainRate:7.5
CircleSize:5
OverallDifficulty:3
ApproachRate:5
SliderMultiplier:1.4
SliderTickRate:1

[Events]
//Background and Video events
0,0,"hayate black bar.jpeg",0,0
//Break Periods
//Storyboard Layer 0 (Background)
//Storyboard Layer 1 (Fail)
//Storyboard Layer 2 (Pass)
//Storyboard Layer 3 (Foreground)
//Storyboard Layer 4 (Overlay)
//Storyboard Sound Samples

[TimingPoints]
-14,400,4,1,0,10,1,0
1586,-100,4,1,0,15,0,0
3186,-100,4,1,0,20,0,0
4786,-100,4,1,0,25,0,0
6386,-10,4,1,0,30,0,0
7986,-10,4,1,0,35,0,0
9586,-10,4,1,0,40,0,0
10386,-100,4,1,0,10,0,0
11136,-100,4,1,0,90,0,0
11186,400,4,1,0,90,1,0
36836,-100,4,1,0,70,0,0
49536,-100,4,1,0,90,0,0
73636,-100,4,1,0,40,0,0
75836,-100,4,1,0,80,0,0
77386,-100,4,1,0,40,0,0
78336,-100,4,1,0,70,0,0
79936,-100,4,1,0,90,0,0
79986,400,4,1,0,90,1,0
86386,-100,4,1,0,90,0,1
92786,-100,4,1,0,90,0,0
99186,-100,4,1,0,90,0,1
105586,-100,4,1,0,90,0,0
142436,-100,4,1,0,40,0,0
144636,-100,4,1,0,80,0,0
146136,-100,4,1,0,40,0,0
147136,-100,4,1,0,70,0,0
148736,-100,4,1,0,90,0,0
148786,400,4,1,0,90,1,0
155186,-100,4,1,0,90,0,1
161586,-100,4,1,0,90,0,0
167986,-100,4,1,0,90,0,1
174386,-100,4,1,0,90,0,0

[HitObjects]
256,192,386,12,0,10386,0:0:0:0:
160,256,11186,5,4,0:0:0:0:
160,128,12786,1,0,0:0:0:0:
160,128,13186,1,0,0:0:0:0:
352,128,13586,1,8,0:0:0:0:
352,128,14386,1,8,0:0:0:0:
160,128,15186,1,0,0:0:0:0:
352,128,15986,1,8,0:0:0:0:
352,128,16386,1,8,0:0:0:0:
160,128,16786,1,0,0:0:0:0:
352,128,17186,1,8,0:0:0:0:
160,256,17586,1,4,0:0:0:0:
160,128,19186,1,0,0:0:0:0:
160,128,19586,1,0,0:0:0:0:
352,128,19986,1,8,0:0:0:0:
352,128,20786,1,8,0:0:0:0:
160,128,21586,1,0,0:0:0:0:
160,128,22386,1,0,0:0:0:0:
160,128,22786,1,0,0:0:0:0:
352,128,23186,1,8,0:0:0:0:
160,256,23986,1,4,0:0:0:0:
352,128,24786,1,8,0:0:0:0:
352,128,26386,1,8,0:0:0:0:
160,128,26786,1,0,0:0:0:0:
352,128,27186,1,8,0:0:0:0:
160,128,27986,1,0,0:0:0:0:
160,128,28386,1,0,0:0:0:0:
352,128,28786,1,8,0:0:0:0:
352,128,29586,1,8,0:0:0:0:
352,128,29986,1,8,0:0:0:0:
160,128,30386,1,0,0:0:0:0:
352,128,31186,1,8,0:0:0:0:
352,128,32786,1,8,0:0:0:0:
160,128,33186,1,0,0:0:0:0:
352,128,33586,1,8,0:0:0:0:
160,128,34386,1,0,0:0:0:0:
160,128,34786,1,0,0:0:0:0:
352,256,35186,1,12,0:0:0:0:
352,128,35586,1,8,0:0:0:0:
352,128,35986,1,8,0:0:0:0:
160,256,36786,1,4,0:0:0:0:
352,128,38386,1,8,0:0:0:0:
160,128,39186,1,0,0:0:0:0:
352,128,39986,1,8,0:0:0:0:
160,128,41586,1,0,0:0:0:0:
352,128,42386,1,8,0:0:0:0:
160,128,43186,1,0,0:0:0:0:
352,128,44786,1,8,0:0:0:0:
160,128,45586,1,0,0:0:0:0:
352,128,46386,1,8,0:0:0:0:
352,128,47186,1,8,0:0:0:0:
160,128,47986,1,0,0:0:0:0:
160,128,48386,1,0,0:0:0:0:
352,128,48786,1,8,0:0:0:0:
160,256,49586,1,4,0:0:0:0:
160,128,51186,1,0,0:0:0:0:
352,128,51586,1,8,0:0:0:0:
160,128,51986,1,0,0:0:0:0:
352,256,52386,1,12,0:0:0:0:
160,128,52786,1,0,0:0:0:0:
352,128,53586,1,8,0:0:0:0:
160,128,54386,1,0,0:0:0:0:
160,128,54786,1,0,0:0:0:0:
352,128,55186,1,8,0:0:0:0:
352,256,55586,1,12,0:0:0:0:
160,128,55986,1,0,0:0:0:0:
160,128,57586,1,0,0:0:0:0:
352,128,57986,1,8,0:0:0:0:
160,128,58386,1,0,0:0:0:0:
352,256,58786,1,12,0:0:0:0:
160,128,59186,1,0,0:0:0:0:
352,128,59986,1,8,0:0:0:0:
160,128,60786,1,0,0:0:0:0:
160,128,61186,1,0,0:0:0:0:
352,128,61586,1,8,0:0:0:0:
352,128,61986,1,8,0:0:0:0:
352,256,62386,1,12,0:0:0:0:
352,128,63186,1,8,0:0:0:0:
160,128,63986,1,0,0:0:0:0:
352,128,64786,1,8,0:0:0:0:
352,128,65186,1,8,0:0:0:0:
160,128,65586,1,0,0:0:0:0:
160,128,66386,1,0,0:0:0:0:
352,128,66786,1,8,0:0:0:0:
160,128,67186,1,0,0:0:0:0:
352,128,67986,1,8,0:0:0:0:
352,256,68786,1,12,0:0:0:0:
160,128,69586,1,0,0:0:0:0:
352,128,70386,1,8,0:0:0:0:
160,128,71186,1,0,0:0:0:0:
352,128,71986,1,8,0:0:0:0:
352,128,72386,1,8,0:0:0:0:
352,128,72786,1,8,0:0:0:0:
352,128,73186,1,8,0:0:0:0:
160,128,73586,1,0,0:0:0:0:
256,192,75886,12,0,77286,0:0:0:0:
352,128,78386,5,8,0:0:0:0:
352,128,78786,1,8,0:0:0:0:
352,128,79186,1,8,0:0:0:0:
160,256,79586,1,4,0:0:0:0:
352,256,79986,1,12,0:0:0:0:
160,128,81186,1,0,0:0:0:0:
352,128,81586,1,8,0:0:0:0:
160,128,82186,1,0,0:0:0:0:
160,128,82786,1,0,0:0:0:0:
352,128,83186,1,8,0:0:0:0:
160,128,84386,1,0,0:0:0:0:
352,128,84786,1,8,0:0:0:0:
160,128,85386,1,0,0:0:0:0:
160,128,85986,1,0,0:0:0:0:
352,256,86386,1,12,0:0:0:0:
352,128,86986,5,8,0:0:0:0:
160,128,87586,1,0,0:0:0:0:
352,128,87986,1,8,0:0:0:0:
352,128,88586,1,8,0:0:0:0:
160,128,89186,1,0,0:0:0:0:
352,128,89586,1,8,0:0:0:0:
352,128,90186,1,8,0:0:0:0:
160,128,90786,1,0,0:0:0:0:
352,256,91186,1,12,0:0:0:0:
160,256,92786,1,4,0:0:0:0:
352,128,93586,1,8,0:0:0:0:
160,128,93986,1,0,0:0:0:0:
160,128,94786,1,0,0:0:0:0:
352,128,95186,1,8,0:0:0:0:
160,128,95586,1,0,0:0:0:0:
160,128,95986,1,0,0:0:0:0:
352,128,96786,1,8,0:0:0:0:
160,128,97186,1,0,0:0:0:0:
160,128,97986,1,0,0:0:0:0:
352,128,98386,1,8,0:0:0:0:
160,128,98786,1,0,0:0:0:0:
352,256,99186,1,12,0:0:0:0:
352,128,99986,1,8,0:0:0:0:
352,128,100386,1,8,0:0:0:0:
160,128,100786,1,0,0:0:0:0:
352,128,101586,1,8,0:0:0:0:
352,128,101986,1,8,0:0:0:0:
160,128,102386,1,0,0:0:0:0:
352,128,103186,1,8,0:0:0:0:
352,128,103586,1,8,0:0:0:0:
160,128,103986,1,0,0:0:0:0:
352,128,104386,1,8,0:0:0:0:
160,128,104786,1,0,0:0:0:0:
160,256,105586,1,4,0:0:0:0:
352,128,105986,1,8,0:0:0:0:
160,128,107186,1,0,0:0:0:0:
352,128,107986,1,8,0:0:0:0:
352,128,108386,1,8,0:0:0:0:
160,128,108786,1,0,0:0:0:0:
352,128,109186,1,8,0:0:0:0:
352,128,110386,1,8,0:0:0:0:
352,128,110786,1,8,0:0:0:0:
352,128,111186,1,8,0:0:0:0:
160,128,111986,1,0,0:0:0:0:
352,128,112386,1,8,0:0:0:0:
160,128,113586,1,0,0:0:0:0:
352,128,114386,1,8,0:0:0:0:
352,128,114786,1,8,0:0:0:0:
160,128,115186,1,0,0:0:0:0:
352,128,115586,1,8,0:0:0:0:
352,256,116786,1,12,0:0:0:0:
352,128,117186,1,8,0:0:0:0:
352,128,117586,1,8,0:0:0:0:
352,128,117986,1,8,0:0:0:0:
160,256,118386,1,4,0:0:0:0:
160,128,119986,1,0,0:0:0:0:
352,128,120386,1,8,0:0:0:0:
160,128,120786,1,0,0:0:0:0:
352,256,121186,1,12,0:0:0:0:
160,128,121586,1,0,0:0:0:0:
352,128,122386,1,8,0:0:0:0:
160,128,123186,1,0,0:0:0:0:
160,128,123586,1,0,0:0:0:0:
352,128,123986,1,8,0:0:0:0:
352,256,124386,1,12,0:0:0:0:
160,128,124786,1,0,0:0:0:0:
160,128,126386,1,0,0:0:0:0:
352,128,126786,1,8,0:0:0:0:
160,128,127186,1,0,0:0:0:0:
352,256,127586,1,12,0:0:0:0:
160,128,127986,1,0,0:0:0:0:
352,128,128786,1,8,0:0:0:0:
160,128,129586,1,0,0:0:0:0:
160,128,129986,1,0,0:0:0:0:
352,128,130386,1,8,0:0:0:0:
352,128,130786,1,8,0:0:0:0:
352,256,131186,1,12,0:0:0:0:
352,128,131986,1,8,0:0:0:0:
352,128,132786,1,8,0:0:0:0:
352,128,133186,1,8,0:0:0:0:
160,128,133586,1,0,0:0:0:0:
352,128,134386,1,8,0:0:0:0:
160,128,134786,1,0,0:0:0:0:
352,128,135186,1,8,0:0:0:0:
352,128,135586,1,8,0:0:0:0:
160,128,135986,1,0,0:0:0:0:
352,128,136786,1,8,0:0:0:0:
352,128,137186,1,8,0:0:0:0:
352,256,137586,1,12,0:0:0:0:
160,128,138386,1,0,0:0:0:0:
352,128,139186,1,8,0:0:0:0:
160,128,139986,1,0,0:0:0:0:
352,128,140786,1,8,0:0:0:0:
352,128,141186,1,8,0:0:0:0:
352,128,141586,1,8,0:0:0:0:
352,128,141986,1,8,0:0:0:0:
160,128,142386,1,0,0:0:0:0:
256,192,144686,12,0,146086,0:0:0:0:
352,128,147186,5,8,0:0:0:0:
352,128,147586,1,8,0:0:0:0:
352,128,147986,1,8,0:0:0:0:
160,256,148386,1,4,0:0:0:0:
352,256,148786,1,12,0:0:0:0:
160,128,149986,1,0,0:0:0:0:
352,128,150386,1,8,0:0:0:0:
160,128,150986,1,0,0:0:0:0:
160,128,151586,1,0,0:0:0:0:
352,128,151986,1,8,0:0:0:0:
160,128,153186,1,0,0:0:0:0:
352,128,153586,1,8,0:0:0:0:
160,128,154186,1,0,0:0:0:0:
160,128,154786,1,0,0:0:0:0:
352,256,155186,1,12,0:0:0:0:
352,128,155786,1,8,0:0:0:0:
160,128,156386,1,0,0:0:0:0:
352,128,156786,1,8,0:0:0:0:
352,128,157386,1,8,0:0:0:0:
160,128,157986,1,0,0:0:0:0:
352,128,158386,1,8,0:0:0:0:
352,128,158986,1,8,0:0:0:0:
160,128,159586,1,0,0:0:0:0:
352,256,159986,1,12,0:0:0:0:
160,256,161586,1,4,0:0:0:0:
352,128,162386,1,8,0:0:0:0:
160,128,162786,1,0,0:0:0:0:
160,128,163586,1,0,0:0:0:0:
352,128,163986,1,8,0:0:0:0:
160,128,164386,1,0,0:0:0:0:
160,128,164786,1,0,0:0:0:0:
352,128,165586,1,8,0:0:0:0:
160,128,165986,1,0,0:0:0:0:
160,128,166786,1,0,0:0:0:0:
352,128,167186,1,8,0:0:0:0:
160,128,167586,1,0,0:0:0:0:
352,256,167986,1,12,0:0:0:0:
352,128,168786,1,8,0:0:0:0:
352,128,169186,1,8,0:0:0:0:
160,128,169586,1,0,0:0:0:0:
352,128,170386,1,8,0:0:0:0:
352,128,170786,1,8,0:0:0:0:
160,128,171186,1,0,0:0:0:0:
352,128,171986,1,8,0:0:0:0:
352,128,172386,1,8,0:0:0:0:
160,128,172786,1,0,0:0:0:0:
352,128,173186,1,8,0:0:0:0:
160,128,173586,1,0,0:0:0:0:
160,256,174386,1,4,0:0:0:0:
256,192,174586,12,0,176386,0:0:0:0:
