osu file format v14

[General]
AudioFilename: audio.mp3
AudioLeadIn: 0
PreviewTime: 75786
Countdown: 0
SampleSet: Normal
StackLeniency: 0.7
Mode: 1
LetterboxInBreaks: 0
WidescreenStoryboard: 0

[Editor]
Bookmarks: 11186,36786,62386,79986,105586,118386,131186,148786
DistanceSpacing: 1
BeatDivisor: 4
GridSize: 32
TimelineZoom: 2.5

[Metadata]
Title:GOMIKASU -Original Mix-
TitleUnicode:GOMIKASU -Original Mix-
Artist:ChibaNyan vs. Otogibara Era
ArtistUnicode:チバニャン vs. 御伽原江良
Creator:Eyenine
Version:Inner Gomi
Source:
Tags:novelty instrumental gibara nijisanji にじさんじ 2434 vtuber virtual youtuber しょぼんのアクション shobon action cat mario Cheetahmen 2 two II main theme nes 52 japanese electronic バーチャルyoutuber
BeatmapID:2500701
BeatmapSetID:1200809

[Difficulty]
HPDrainRate:6
CircleSize:5
OverallDifficulty:7
ApproachRate:5
SliderMultiplier:1.4
SliderTickRate:1

[Events]
//Background and Video events
0,0,"harambe censored.jpg",0,0
//Break Periods
//Storyboard Layer 0 (Background)
//Storyboard Layer 1 (Fail)
//Storyboard Layer 2 (Pass)
//Storyboard Layer 3 (Foreground)
//Storyboard Layer 4 (Overlay)
//Storyboard Sound Samples

[TimingPoints]
-14,400,4,1,0,10,1,0
1586,-100,4,1,0,15,0,0
3186,-100,4,1,0,20,0,0
4786,-100,4,1,0,25,0,0
6386,-10,4,1,0,30,0,0
7986,-10,4,1,0,35,0,0
9586,-10,4,1,0,40,0,0
10386,-100,4,1,0,10,0,0
11136,-100,4,1,0,90,0,0
11186,400,4,1,0,90,1,0
36836,-105.263157894737,4,1,0,70,0,0
37536,-111.111111111111,4,1,0,70,0,0
37736,-114.285714285714,4,1,0,70,0,0
37936,-117.647058823529,4,1,0,70,0,0
38136,-121.212121212121,4,1,0,70,0,0
38336,-125,4,1,0,70,0,0
39436,-66.6666666666667,4,1,0,70,0,0
39786,-125,4,1,0,70,0,0
42736,-100,4,1,0,70,0,0
42836,-97.5609756097561,4,1,0,70,0,0
42936,-95.2380952380952,4,1,0,70,0,0
43036,-93.0232558139535,4,1,0,70,0,0
43136,-90.9090909090909,4,1,0,70,0,0
43286,-125,4,1,0,70,0,0
45936,-66.6666666666667,4,1,0,70,0,0
46086,-125,4,1,0,70,0,0
46386,-125,4,1,0,70,0,0
46586,-120.68971759813,4,1,0,70,0,0
46786,-116.666647222225,4,1,0,70,0,0
46986,-113.636363636364,4,1,0,70,0,0
47186,-109.374965820323,4,1,0,70,0,0
47319,-107.142895408177,4,1,0,70,0,0
47452,-104.99999475,4,1,0,70,0,0
47586,-102.941131055383,4,1,0,70,0,0
47786,-100,4,1,0,70,0,0
47986,-97.2222627314984,4,1,0,70,0,0
48086,-95.8904148996061,4,1,0,70,0,0
48186,-94.594581811543,4,1,0,70,0,0
48386,-92.1052873961283,4,1,0,70,0,0
48586,-89.7435667324188,4,1,0,70,0,0
48786,-87.5000109375014,4,1,0,70,0,0
48986,-85.3658224271381,4,1,0,70,0,0
49186,-83.3333333333333,4,1,0,70,0,0
49536,-58.8235294117647,4,1,0,90,0,0
49636,-100,4,1,0,90,0,0
52236,-40,4,1,0,90,0,0
52586,-100,4,1,0,90,0,0
55386,-40,4,1,0,90,0,0
55786,-100,4,1,0,90,0,0
58636,-40,4,1,0,90,0,0
58886,-100,4,1,0,90,0,0
68786,-100,4,1,0,90,0,0
68986,-97.9626703448384,4,1,0,90,0,0
69086,-96.9747749215474,4,1,0,90,0,0
69186,-96.0066974272125,4,1,0,90,0,0
69386,-94.1272148133646,4,1,0,90,0,0
69586,-92.3199921712647,4,1,0,90,0,0
69686,-91.4421153121651,4,1,0,90,0,0
69786,-90.5808588152386,4,1,0,90,0,0
69986,-88.9060378757502,4,1,0,90,0,0
70186,-87.2919505473642,4,1,0,90,0,0
70386,-85.7354991263553,4,1,0,90,0,0
70486,-84.9779397268469,4,1,0,90,0,0
70586,-84.233579716554,4,1,0,90,0,0
70686,-83.5021468401953,4,1,0,90,0,0
70786,-82.7833757736106,4,1,0,90,0,0
70986,-81.3822614340043,4,1,0,90,0,0
71186,-80.0277216027632,4,1,0,90,0,0
71286,-79.3672840118575,4,1,0,90,0,0
71386,-78.7175959016471,4,1,0,90,0,0
71586,-77.4496751373376,4,1,0,90,0,0
71786,-76.2219522271292,4,1,0,90,0,0
71986,-75.0324890677663,4,1,0,90,0,0
72086,-74.4516265446851,4,1,0,90,0,0
72186,-73.8796338229829,4,1,0,90,0,0
72286,-73.3164167920988,4,1,0,90,0,0
72386,-72.7616691526904,4,1,0,90,0,0
72486,-72.2152534502643,4,1,0,90,0,0
72586,-71.6770347497432,4,1,0,90,0,0
72686,-71.1467287445591,4,1,0,90,0,0
72786,-70.6242120986338,4,1,0,90,0,0
72852,-70.2801436807257,4,1,0,90,0,0
72919,-69.9394114878281,4,1,0,90,0,0
72986,-69.6019187856971,4,1,0,90,0,0
73052,-69.2677155645942,4,1,0,90,0,0
73119,-68.9366589296756,4,1,0,90,0,0
73186,-68.6087988040114,4,1,0,90,0,0
73252,-68.2840424972567,4,1,0,90,0,0
73319,-67.9622999529701,4,1,0,90,0,0
73386,-67.6436209359713,4,1,0,90,0,0
73452,-67.3278712475653,4,1,0,90,0,0
73519,-67.0151005125985,4,1,0,90,0,0
73586,-66.7052222851475,4,1,0,90,0,0
73636,-133.333333333333,4,1,0,40,0,0
75836,-12.5,4,1,0,80,0,0
77386,-133.333333333333,4,1,0,40,0,0
78336,-111.111111111111,4,1,0,70,0,0
79536,-50,4,1,0,70,0,0
79936,-100,4,1,0,90,0,0
79986,400,4,1,0,90,1,0
84786,-100,4,1,0,90,0,0
84886,-98.4693917742609,4,1,0,90,0,0
85086,-95.5445658072751,4,1,0,90,0,0
85186,-94.1463561594312,4,1,0,90,0,0
85286,-92.7884793823999,4,1,0,90,0,0
85386,-91.4692151209589,4,1,0,90,0,0
85586,-88.9401183970856,4,1,0,90,0,0
85686,-87.7273014380259,4,1,0,90,0,0
85786,-86.5471162500865,4,1,0,90,0,0
85886,-85.3982633409167,4,1,0,90,0,0
85986,-84.2795113136816,4,1,0,90,0,0
86086,-83.1896232591532,4,1,0,90,0,0
86186,-82.1276312666462,4,1,0,90,0,0
86236,-81.6067387580597,4,1,0,90,0,0
86286,-81.0924121019072,4,1,0,90,0,0
86336,-80.5845279318062,4,1,0,90,0,0
86386,-80.082965952727,4,1,0,90,0,1
91186,-74.0740740740741,4,1,0,90,0,1
91286,-73.2308882027968,4,1,0,90,0,1
91386,-72.4066822678931,4,1,0,90,0,1
91486,-71.6008225502494,4,1,0,90,0,1
91586,-70.8127032324583,4,1,0,90,0,1
91686,-70.0417448799484,4,1,0,90,0,1
91786,-69.2873930202652,4,1,0,90,0,1
91886,-68.549116813179,4,1,0,90,0,1
91986,-67.8264078049204,4,1,0,90,0,1
92052,-67.3529936721862,4,1,0,90,0,1
92119,-66.8861423952463,4,1,0,90,0,1
92186,-66.4257625677543,4,1,0,90,0,1
92252,-65.9716335170204,4,1,0,90,0,1
92319,-65.5236717368884,4,1,0,90,0,1
92386,-65.0817947997043,4,1,0,90,0,1
92486,-64.4299591578489,4,1,0,90,0,1
92586,-63.7910918291904,4,1,0,90,0,1
92686,-63.1647697233573,4,1,0,90,0,1
92786,-62.5,4,1,0,90,0,0
92986,-100,4,1,0,90,0,0
97586,-100,4,1,0,90,0,0
97886,-95.5445658072751,4,1,0,90,0,0
97986,-94.1463561594312,4,1,0,90,0,0
98186,-91.4692151209589,4,1,0,90,0,0
98386,-88.9401183970856,4,1,0,90,0,0
98586,-86.5471162500865,4,1,0,90,0,0
98686,-85.3982633409167,4,1,0,90,0,0
98786,-84.2795113136816,4,1,0,90,0,0
98886,-83.1896232591532,4,1,0,90,0,0
98986,-82.1276312666462,4,1,0,90,0,0
99036,-81.6067387580597,4,1,0,90,0,0
99086,-81.0924121019072,4,1,0,90,0,0
99136,-80.5845279318062,4,1,0,90,0,0
99186,-80.082965952727,4,1,0,90,0,1
103986,-80,4,1,0,90,0,1
104186,-79.2119990336136,4,1,0,90,0,1
104286,-78.8237603190155,4,1,0,90,0,1
104386,-78.4393702887353,4,1,0,90,0,1
104586,-77.6816079471392,4,1,0,90,0,1
104786,-76.9384054207723,4,1,0,90,0,1
104886,-76.5720822782339,4,1,0,90,0,1
104986,-76.2092889978174,4,1,0,90,0,1
105086,-75.8498597536093,4,1,0,90,0,1
105186,-75.4938619715524,4,1,0,90,0,1
105286,-75.1411338346249,4,1,0,90,0,1
105386,-74.7916864553004,4,1,0,90,0,1
105486,-74.4455296948329,4,1,0,90,0,1
105586,-74.1025074806481,4,1,0,90,0,0
105686,-100,4,1,0,90,0,0
121086,-40,4,1,0,90,0,0
121336,-100,4,1,0,90,0,0
124186,-40,4,1,0,90,0,0
124536,-100,4,1,0,90,0,0
127386,-40,4,1,0,90,0,0
127686,-100,4,1,0,90,0,0
137586,-100,4,1,0,90,0,0
137686,-98.9690395153684,4,1,0,90,0,0
137786,-97.959215660152,4,1,0,90,0,0
137886,-96.969696969697,4,1,0,90,0,0
137986,-95.9999692800098,4,1,0,90,0,0
138186,-94.1176470588235,4,1,0,90,0,0
138386,-92.3077207100679,4,1,0,90,0,0
138486,-91.4285714285714,4,1,0,90,0,0
138586,-90.5660103951667,4,1,0,90,0,0
138786,-88.8888888888889,4,1,0,90,0,0
138986,-87.2727526611644,4,1,0,90,0,0
139186,-85.7142612244968,4,1,0,90,0,0
139286,-84.9557522364476,4,1,0,90,0,0
139386,-84.2105263157895,4,1,0,90,0,0
139486,-83.4782376408382,4,1,0,90,0,0
139586,-82.7586435196258,4,1,0,90,0,0
139686,-82.0512820512821,4,1,0,90,0,0
139786,-81.3559101407701,4,1,0,90,0,0
139986,-80,4,1,0,90,0,0
140086,-79.3388219930388,4,1,0,90,0,0
140186,-78.6885452297823,4,1,0,90,0,0
140386,-77.4193348595265,4,1,0,90,0,0
140586,-76.1904761904762,4,1,0,90,0,0
140786,-75.0000187500047,4,1,0,90,0,0
140886,-74.4186046511628,4,1,0,90,0,0
140986,-73.8461356686435,4,1,0,90,0,0
141086,-73.2824606491507,4,1,0,90,0,0
141186,-72.7272727272727,4,1,0,90,0,0
141286,-72.1804337610987,4,1,0,90,0,0
141386,-71.6418081532676,4,1,0,90,0,0
141486,-71.1111111111111,4,1,0,90,0,0
141586,-70.588218685125,4,1,0,90,0,0
141652,-70.2439079214757,4,1,0,90,0,0
141719,-69.9028909039562,4,1,0,90,0,0
141786,-69.5652173913043,4,1,0,90,0,0
141852,-69.2307905325509,4,1,0,90,0,0
141919,-68.8995162564964,4,1,0,90,0,0
141986,-68.5714442449015,4,1,0,90,0,0
142052,-68.2464351474601,4,1,0,90,0,0
142119,-67.9245385546473,4,1,0,90,0,0
142186,-67.6056185677479,4,1,0,90,0,0
142252,-67.2897246571757,4,1,0,90,0,0
142319,-66.9767242487891,4,1,0,90,0,0
142386,-66.6666666666667,4,1,0,90,0,0
142436,-133.333333333333,4,1,0,40,0,0
144636,-12.5,4,1,0,80,0,0
146186,-133.333333333333,4,1,0,40,0,0
147136,-111.111111111111,4,1,0,70,0,0
148336,-40,4,1,0,70,0,0
148736,-100,4,1,0,90,0,0
148786,400,4,1,0,90,1,0
153886,-100,4,1,0,90,0,0
153986,-98.1131853328637,4,1,0,90,0,0
154086,-96.2962534979614,4,1,0,90,0,0
154186,-94.5454820495948,4,1,0,90,0,0
154386,-91.2280573715007,4,1,0,90,0,0
154486,-89.6551414982271,4,1,0,90,0,0
154586,-88.1356230968214,4,1,0,90,0,0
154686,-86.6666782222238,4,1,0,90,0,0
154786,-85.2458960494494,4,1,0,90,0,0
154886,-83.8709460978204,4,1,0,90,0,0
154986,-82.5397139833831,4,1,0,90,0,0
155036,-81.8897534627082,4,1,0,90,0,0
155086,-81.2500152343779,4,1,0,90,0,0
155136,-80.6201300402698,4,1,0,90,0,0
155186,-80,4,1,0,90,0,1
159986,-74.0740740740741,4,1,0,90,0,1
160086,-73.2265446224256,4,1,0,90,0,1
160186,-72.3981900452489,4,1,0,90,0,1
160286,-71.5883668903803,4,1,0,90,0,1
160386,-70.7964601769911,4,1,0,90,0,1
160486,-70.0218818380744,4,1,0,90,0,1
160586,-69.2640692640693,4,1,0,90,0,1
160686,-68.5224839400428,4,1,0,90,0,1
160786,-67.7966101694915,4,1,0,90,0,1
160852,-67.3211630134838,4,1,0,90,0,1
160919,-66.8523825854892,4,1,0,90,0,1
160986,-66.3900414937759,4,1,0,90,0,1
161052,-65.9340514430656,4,1,0,90,0,1
161119,-65.4843253444639,4,1,0,90,0,1
161186,-65.0406504065041,4,1,0,90,0,1
161286,-64.3863179074447,4,1,0,90,0,1
161386,-63.7450199203187,4,1,0,90,0,1
161486,-63.1163708086785,4,1,0,90,0,1
161586,-62.5,4,1,0,90,0,0
161786,-100,4,1,0,90,0,0
166386,-100,4,1,0,90,0,0
166586,-96.969696969697,4,1,0,90,0,0
166686,-95.5223880597015,4,1,0,90,0,0
166786,-94.1176470588235,4,1,0,90,0,0
166986,-91.4285714285714,4,1,0,90,0,0
167186,-88.8888888888889,4,1,0,90,0,0
167386,-86.4864864864865,4,1,0,90,0,0
167486,-85.3333333333333,4,1,0,90,0,0
167586,-84.2105263157895,4,1,0,90,0,0
167686,-83.1168831168831,4,1,0,90,0,0
167786,-82.0512820512821,4,1,0,90,0,0
167836,-81.5286956550097,4,1,0,90,0,0
167886,-81.0126582278481,4,1,0,90,0,0
167936,-80.5031122503196,4,1,0,90,0,0
167986,-80,4,1,0,90,0,1
172786,-80,4,1,0,90,0,1
172986,-78.8177339901478,4,1,0,90,0,1
173086,-78.239608801956,4,1,0,90,0,1
173186,-77.6699029126214,4,1,0,90,0,1
173386,-76.555023923445,4,1,0,90,0,1
173586,-75.4716981132076,4,1,0,90,0,1
173686,-74.9414519906323,4,1,0,90,0,1
173786,-74.4186046511628,4,1,0,90,0,1
173886,-73.9030023094688,4,1,0,90,0,1
173986,-73.394495412844,4,1,0,90,0,1
174086,-72.8929384965831,4,1,0,90,0,1
174186,-72.3981900452489,4,1,0,90,0,1
174286,-71.9101123595506,4,1,0,90,0,1
174386,-71.4285714285714,4,1,0,90,0,0
174486,-12.5,4,1,0,90,0,0

[HitObjects]
256,192,386,12,0,10386,0:0:0:0:
160,256,11186,5,4,0:0:0:0:
352,128,11486,1,8,0:0:0:0:
160,128,11586,1,0,0:0:0:0:
352,128,11786,1,8,0:0:0:0:
160,128,11986,1,0,0:0:0:0:
160,128,12086,1,0,0:0:0:0:
352,128,12286,1,8,0:0:0:0:
160,128,12386,1,0,0:0:0:0:
352,128,12586,1,8,0:0:0:0:
160,128,12786,1,0,0:0:0:0:
160,128,12886,1,0,0:0:0:0:
352,128,12986,1,8,0:0:0:0:
160,128,13086,1,0,0:0:0:0:
160,128,13286,1,0,0:0:0:0:
352,128,13386,1,8,0:0:0:0:
160,128,13586,1,0,0:0:0:0:
352,128,13686,1,8,0:0:0:0:
160,128,13786,1,0,0:0:0:0:
352,128,13886,1,8,0:0:0:0:
160,128,13986,1,0,0:0:0:0:
352,128,14186,1,8,0:0:0:0:
352,128,14386,1,8,0:0:0:0:
352,128,14486,1,8,0:0:0:0:
352,128,14686,1,8,0:0:0:0:
160,128,14786,1,0,0:0:0:0:
352,128,14986,1,8,0:0:0:0:
160,128,15186,1,0,0:0:0:0:
160,128,15286,1,0,0:0:0:0:
352,128,15486,1,8,0:0:0:0:
160,128,15586,1,0,0:0:0:0:
352,128,15786,1,8,0:0:0:0:
160,128,15986,1,0,0:0:0:0:
352,128,16086,1,8,0:0:0:0:
352,128,16186,1,8,0:0:0:0:
352,128,16286,1,8,0:0:0:0:
160,128,16386,1,0,0:0:0:0:
352,128,16586,1,8,0:0:0:0:
160,128,16786,1,0,0:0:0:0:
352,128,16886,1,8,0:0:0:0:
160,128,16986,1,0,0:0:0:0:
352,128,17086,1,8,0:0:0:0:
352,128,17186,1,8,0:0:0:0:
352,128,17386,1,8,0:0:0:0:
160,256,17586,1,4,0:0:0:0:
352,128,17886,1,8,0:0:0:0:
160,128,17986,1,0,0:0:0:0:
352,128,18186,1,8,0:0:0:0:
160,128,18386,1,0,0:0:0:0:
160,128,18486,1,0,0:0:0:0:
352,128,18686,1,8,0:0:0:0:
160,128,18786,1,0,0:0:0:0:
352,128,18986,1,8,0:0:0:0:
160,128,19186,1,0,0:0:0:0:
160,128,19286,1,0,0:0:0:0:
352,128,19386,1,8,0:0:0:0:
160,128,19486,1,0,0:0:0:0:
160,128,19686,1,0,0:0:0:0:
352,128,19786,1,8,0:0:0:0:
160,128,19986,1,0,0:0:0:0:
352,128,20086,1,8,0:0:0:0:
160,128,20186,1,0,0:0:0:0:
352,128,20286,1,8,0:0:0:0:
160,128,20386,1,0,0:0:0:0:
352,128,20586,1,8,0:0:0:0:
352,128,20786,1,8,0:0:0:0:
352,128,20886,1,8,0:0:0:0:
352,128,21086,1,8,0:0:0:0:
160,128,21186,1,0,0:0:0:0:
352,128,21386,1,8,0:0:0:0:
160,128,21586,1,0,0:0:0:0:
160,128,21686,1,0,0:0:0:0:
352,128,21886,1,8,0:0:0:0:
160,128,21986,1,0,0:0:0:0:
352,128,22186,1,8,0:0:0:0:
160,128,22386,1,0,0:0:0:0:
160,128,22486,1,0,0:0:0:0:
352,128,22586,1,8,0:0:0:0:
160,128,22686,1,0,0:0:0:0:
160,128,22786,1,0,0:0:0:0:
160,128,22886,1,0,0:0:0:0:
352,128,22986,1,8,0:0:0:0:
352,128,23186,1,8,0:0:0:0:
160,128,23286,1,0,0:0:0:0:
352,128,23386,1,8,0:0:0:0:
352,128,23486,1,8,0:0:0:0:
160,128,23586,1,0,0:0:0:0:
352,128,23786,1,8,0:0:0:0:
160,256,23986,1,4,0:0:0:0:
352,128,24186,1,8,0:0:0:0:
352,128,24286,1,8,0:0:0:0:
160,128,24486,1,0,0:0:0:0:
352,128,24586,1,8,0:0:0:0:
352,128,24686,1,8,0:0:0:0:
160,128,24786,1,0,0:0:0:0:
352,128,24986,1,8,0:0:0:0:
352,128,25086,1,8,0:0:0:0:
160,128,25186,1,0,0:0:0:0:
352,128,25386,1,8,0:0:0:0:
160,128,25586,1,0,0:0:0:0:
352,128,25786,1,8,0:0:0:0:
160,128,25886,1,0,0:0:0:0:
352,128,25986,1,8,0:0:0:0:
352,128,26186,1,8,0:0:0:0:
160,128,26386,1,0,0:0:0:0:
160,128,26486,1,0,0:0:0:0:
352,128,26586,1,8,0:0:0:0:
160,128,26686,1,0,0:0:0:0:
352,128,26786,1,8,0:0:0:0:
352,128,26986,1,8,0:0:0:0:
352,128,27086,1,8,0:0:0:0:
160,128,27186,1,0,0:0:0:0:
352,128,27386,1,8,0:0:0:0:
352,128,27486,1,8,0:0:0:0:
160,128,27686,1,0,0:0:0:0:
352,128,27786,1,8,0:0:0:0:
352,128,27886,1,8,0:0:0:0:
160,128,27986,1,0,0:0:0:0:
352,128,28186,1,8,0:0:0:0:
352,128,28286,1,8,0:0:0:0:
160,128,28386,1,0,0:0:0:0:
352,128,28586,1,8,0:0:0:0:
160,128,28786,1,0,0:0:0:0:
352,128,28886,1,8,0:0:0:0:
352,128,28986,1,8,0:0:0:0:
160,128,29086,1,0,0:0:0:0:
352,128,29186,1,8,0:0:0:0:
160,128,29386,1,0,0:0:0:0:
352,128,29486,1,8,0:0:0:0:
352,128,29586,1,8,0:0:0:0:
160,128,29686,1,0,0:0:0:0:
352,128,29786,1,8,0:0:0:0:
352,128,29886,1,8,0:0:0:0:
160,128,29986,1,0,0:0:0:0:
160,128,30086,1,0,0:0:0:0:
352,128,30186,1,8,0:0:0:0:
352,128,30286,1,8,0:0:0:0:
160,128,30386,1,0,0:0:0:0:
352,128,30586,1,8,0:0:0:0:
352,128,30686,1,8,0:0:0:0:
160,128,30886,1,0,0:0:0:0:
352,128,30986,1,8,0:0:0:0:
352,128,31086,1,8,0:0:0:0:
160,128,31186,1,0,0:0:0:0:
352,128,31386,1,8,0:0:0:0:
352,128,31486,1,8,0:0:0:0:
160,128,31586,1,0,0:0:0:0:
352,128,31786,1,8,0:0:0:0:
160,128,31986,1,0,0:0:0:0:
352,128,32186,1,8,0:0:0:0:
160,128,32286,1,0,0:0:0:0:
352,128,32386,1,8,0:0:0:0:
352,128,32586,1,8,0:0:0:0:
160,128,32786,1,0,0:0:0:0:
160,128,32886,1,0,0:0:0:0:
352,128,32986,1,8,0:0:0:0:
160,128,33086,1,0,0:0:0:0:
352,128,33186,1,8,0:0:0:0:
352,128,33386,1,8,0:0:0:0:
352,128,33486,1,8,0:0:0:0:
160,128,33586,1,0,0:0:0:0:
352,128,33786,1,8,0:0:0:0:
352,128,33886,1,8,0:0:0:0:
160,128,34086,1,0,0:0:0:0:
352,128,34186,1,8,0:0:0:0:
352,128,34286,1,8,0:0:0:0:
160,128,34386,1,0,0:0:0:0:
352,128,34586,1,8,0:0:0:0:
352,128,34686,1,8,0:0:0:0:
160,128,34786,1,0,0:0:0:0:
352,128,34986,1,8,0:0:0:0:
352,256,35186,1,12,0:0:0:0:
160,128,35386,1,0,0:0:0:0:
352,128,35486,1,8,0:0:0:0:
352,128,35586,1,8,0:0:0:0:
160,128,35786,1,0,0:0:0:0:
352,128,35886,1,8,0:0:0:0:
160,128,35986,1,0,0:0:0:0:
352,128,36086,1,8,0:0:0:0:
352,128,36186,1,8,0:0:0:0:
160,128,36286,1,0,0:0:0:0:
160,128,36386,1,0,0:0:0:0:
352,128,36486,1,8,0:0:0:0:
352,128,36586,1,8,0:0:0:0:
352,128,36686,1,8,0:0:0:0:
160,256,36786,1,4,0:0:0:0:
352,128,37186,1,8,0:0:0:0:
352,128,37586,1,8,0:0:0:0:
160,128,37786,1,0,0:0:0:0:
352,128,37986,1,8,0:0:0:0:
352,128,38186,1,8,0:0:0:0:
160,128,38386,1,0,0:0:0:0:
160,128,38486,1,0,0:0:0:0:
160,128,38586,1,0,0:0:0:0:
352,128,38786,1,8,0:0:0:0:
352,128,38986,1,8,0:0:0:0:
160,128,39186,1,0,0:0:0:0:
352,128,39586,1,8,0:0:0:0:
160,128,39986,1,0,0:0:0:0:
352,128,40186,1,8,0:0:0:0:
352,128,40386,1,8,0:0:0:0:
160,128,40786,1,0,0:0:0:0:
352,128,40919,1,8,0:0:0:0:
352,128,41052,1,8,0:0:0:0:
352,128,41186,1,8,0:0:0:0:
352,128,41386,1,8,0:0:0:0:
160,128,41586,1,0,0:0:0:0:
160,128,41686,1,0,0:0:0:0:
160,128,41786,1,0,0:0:0:0:
352,128,41986,1,8,0:0:0:0:
160,128,42186,1,0,0:0:0:0:
352,128,42386,1,8,0:0:0:0:
352,128,42786,1,8,0:0:0:0:
352,128,42886,1,8,0:0:0:0:
352,128,42986,1,8,0:0:0:0:
352,128,43086,1,8,0:0:0:0:
160,128,43186,1,0,0:0:0:0:
352,128,43586,1,8,0:0:0:0:
352,128,43986,1,8,0:0:0:0:
160,128,44186,1,0,0:0:0:0:
352,128,44386,1,8,0:0:0:0:
352,128,44586,1,8,0:0:0:0:
160,128,44786,1,0,0:0:0:0:
160,128,44886,1,0,0:0:0:0:
160,128,44986,1,0,0:0:0:0:
352,128,45186,1,8,0:0:0:0:
352,128,45386,1,8,0:0:0:0:
160,128,45586,1,0,0:0:0:0:
352,128,45986,1,8,0:0:0:0:
160,128,46386,1,0,0:0:0:0:
352,128,46586,1,8,0:0:0:0:
352,128,46786,1,8,0:0:0:0:
352,128,46986,1,8,0:0:0:0:
160,128,47186,1,0,0:0:0:0:
352,128,47319,1,8,0:0:0:0:
352,128,47452,1,8,0:0:0:0:
352,128,47586,1,8,0:0:0:0:
352,128,47786,1,8,0:0:0:0:
160,128,47986,1,0,0:0:0:0:
160,128,48086,1,0,0:0:0:0:
160,128,48186,1,0,0:0:0:0:
352,128,48386,1,8,0:0:0:0:
160,128,48586,5,0,0:0:0:0:
352,128,48786,1,8,0:0:0:0:
160,128,48986,1,0,0:0:0:0:
352,128,49186,1,8,0:0:0:0:
160,256,49586,1,4,0:0:0:0:
352,128,49986,1,8,0:0:0:0:
352,128,50386,1,8,0:0:0:0:
160,128,50586,1,0,0:0:0:0:
352,128,50786,1,8,0:0:0:0:
352,128,50986,1,8,0:0:0:0:
160,128,51186,1,0,0:0:0:0:
160,128,51286,1,0,0:0:0:0:
160,128,51386,1,0,0:0:0:0:
352,128,51586,1,8,0:0:0:0:
352,128,51786,1,8,0:0:0:0:
160,128,51986,1,0,0:0:0:0:
352,256,52386,1,12,0:0:0:0:
160,128,52786,1,0,0:0:0:0:
160,128,52986,1,0,0:0:0:0:
352,128,53186,1,8,0:0:0:0:
160,128,53586,1,0,0:0:0:0:
160,128,53719,1,0,0:0:0:0:
160,128,53852,1,0,0:0:0:0:
352,128,53986,1,8,0:0:0:0:
160,128,54386,1,0,0:0:0:0:
160,128,54486,1,0,0:0:0:0:
160,128,54586,1,0,0:0:0:0:
352,128,54786,1,8,0:0:0:0:
352,128,54986,1,8,0:0:0:0:
160,128,55186,1,0,0:0:0:0:
352,256,55586,1,12,0:0:0:0:
160,128,55986,5,0,0:0:0:0:
352,128,56386,1,8,0:0:0:0:
352,128,56786,1,8,0:0:0:0:
160,128,56986,1,0,0:0:0:0:
352,128,57186,1,8,0:0:0:0:
352,128,57386,1,8,0:0:0:0:
160,128,57586,1,0,0:0:0:0:
160,128,57686,1,0,0:0:0:0:
160,128,57786,1,0,0:0:0:0:
352,128,57986,1,8,0:0:0:0:
352,128,58186,1,8,0:0:0:0:
160,128,58386,1,0,0:0:0:0:
352,256,58786,1,12,0:0:0:0:
160,128,59186,1,0,0:0:0:0:
160,128,59386,1,0,0:0:0:0:
352,128,59586,1,8,0:0:0:0:
160,128,59986,1,0,0:0:0:0:
160,128,60119,1,0,0:0:0:0:
160,128,60252,1,0,0:0:0:0:
352,128,60386,1,8,0:0:0:0:
160,128,60786,1,0,0:0:0:0:
160,128,60886,1,0,0:0:0:0:
160,128,60986,1,0,0:0:0:0:
352,128,61186,1,8,0:0:0:0:
352,128,61386,1,8,0:0:0:0:
160,128,61586,1,0,0:0:0:0:
160,128,61786,1,0,0:0:0:0:
352,128,61986,1,8,0:0:0:0:
352,128,62086,1,8,0:0:0:0:
352,128,62186,1,8,0:0:0:0:
160,128,62286,1,0,0:0:0:0:
352,256,62386,1,12,0:0:0:0:
352,128,62686,1,8,0:0:0:0:
160,128,62786,1,0,0:0:0:0:
352,128,62986,1,8,0:0:0:0:
160,128,63186,1,0,0:0:0:0:
352,128,63386,1,8,0:0:0:0:
352,128,63586,1,8,0:0:0:0:
352,128,63786,1,8,0:0:0:0:
352,128,63886,1,8,0:0:0:0:
160,128,63986,1,0,0:0:0:0:
352,128,64286,1,8,0:0:0:0:
160,128,64386,1,0,0:0:0:0:
352,128,64586,1,8,0:0:0:0:
352,128,64786,1,8,0:0:0:0:
160,128,64886,1,0,0:0:0:0:
352,128,64986,1,8,0:0:0:0:
352,128,65086,1,8,0:0:0:0:
352,128,65186,1,8,0:0:0:0:
160,128,65386,1,0,0:0:0:0:
160,128,65486,1,0,0:0:0:0:
352,128,65586,1,8,0:0:0:0:
160,128,65686,1,0,0:0:0:0:
352,128,65786,1,8,0:0:0:0:
352,128,65986,1,8,0:0:0:0:
352,128,66186,1,8,0:0:0:0:
160,128,66286,1,0,0:0:0:0:
352,128,66386,1,8,0:0:0:0:
352,128,66586,1,8,0:0:0:0:
160,128,66786,1,0,0:0:0:0:
160,128,66886,1,0,0:0:0:0:
352,128,66986,1,8,0:0:0:0:
352,128,67086,1,8,0:0:0:0:
160,128,67186,1,0,0:0:0:0:
352,128,67486,1,8,0:0:0:0:
160,128,67586,1,0,0:0:0:0:
160,128,67786,1,0,0:0:0:0:
352,128,67986,1,8,0:0:0:0:
352,128,68086,1,8,0:0:0:0:
352,128,68186,1,8,0:0:0:0:
160,128,68386,1,0,0:0:0:0:
160,128,68586,1,0,0:0:0:0:
160,128,68686,1,0,0:0:0:0:
352,256,68786,1,12,0:0:0:0:
160,128,68986,1,0,0:0:0:0:
352,128,69086,1,8,0:0:0:0:
352,128,69186,1,8,0:0:0:0:
160,128,69386,1,0,0:0:0:0:
352,128,69586,1,8,0:0:0:0:
352,128,69686,1,8,0:0:0:0:
160,128,69786,1,0,0:0:0:0:
160,128,69986,1,0,0:0:0:0:
160,128,70186,1,0,0:0:0:0:
352,128,70386,1,8,0:0:0:0:
352,128,70486,1,8,0:0:0:0:
160,128,70586,1,0,0:0:0:0:
352,128,70686,1,8,0:0:0:0:
160,128,70786,1,0,0:0:0:0:
352,128,70986,1,8,0:0:0:0:
352,128,71186,1,8,0:0:0:0:
352,128,71286,1,8,0:0:0:0:
160,128,71386,1,0,0:0:0:0:
352,128,71586,1,8,0:0:0:0:
160,128,71786,1,0,0:0:0:0:
352,128,71986,1,8,0:0:0:0:
352,128,72086,1,8,0:0:0:0:
352,128,72186,1,8,0:0:0:0:
160,128,72286,1,0,0:0:0:0:
352,128,72386,1,8,0:0:0:0:
352,128,72486,1,8,0:0:0:0:
160,128,72586,1,0,0:0:0:0:
352,128,72686,1,8,0:0:0:0:
160,128,72786,1,0,0:0:0:0:
160,128,72852,1,0,0:0:0:0:
352,128,72919,1,8,0:0:0:0:
160,128,72986,1,0,0:0:0:0:
352,128,73052,1,8,0:0:0:0:
352,128,73119,1,8,0:0:0:0:
160,128,73186,1,0,0:0:0:0:
160,128,73252,1,0,0:0:0:0:
160,128,73319,1,0,0:0:0:0:
352,128,73386,1,8,0:0:0:0:
352,128,73452,1,8,0:0:0:0:
352,128,73519,1,8,0:0:0:0:
160,128,73586,1,0,0:0:0:0:
256,128,75886,2,4,L|256:280,28,140
352,128,78386,1,8,0:0:0:0:
352,128,78786,1,8,0:0:0:0:
352,128,79186,1,8,0:0:0:0:
160,256,79586,1,4,0:0:0:0:
352,128,79986,1,8,0:0:0:0:
352,128,80086,1,8,0:0:0:0:
352,128,80286,1,8,0:0:0:0:
160,128,80386,1,0,0:0:0:0:
352,128,80586,1,8,0:0:0:0:
160,128,80786,1,0,0:0:0:0:
352,128,80986,1,8,0:0:0:0:
160,128,81086,1,0,0:0:0:0:
352,128,81186,1,8,0:0:0:0:
160,128,81386,1,0,0:0:0:0:
352,128,81586,1,8,0:0:0:0:
352,128,81686,1,8,0:0:0:0:
352,128,81886,1,8,0:0:0:0:
160,128,81986,1,0,0:0:0:0:
160,128,82086,1,0,0:0:0:0:
352,128,82186,1,8,0:0:0:0:
160,128,82386,1,0,0:0:0:0:
352,128,82486,1,8,0:0:0:0:
160,128,82586,1,0,0:0:0:0:
352,128,82686,1,8,0:0:0:0:
352,128,82786,1,8,0:0:0:0:
160,128,82986,1,0,0:0:0:0:
160,128,83036,1,0,0:0:0:0:
160,128,83086,1,0,0:0:0:0:
160,128,83136,1,0,0:0:0:0:
352,128,83186,1,8,0:0:0:0:
352,128,83286,1,8,0:0:0:0:
352,128,83486,1,8,0:0:0:0:
160,128,83586,1,0,0:0:0:0:
352,128,83786,1,8,0:0:0:0:
160,128,83986,1,0,0:0:0:0:
352,128,84186,1,8,0:0:0:0:
160,128,84286,1,0,0:0:0:0:
352,128,84386,1,8,0:0:0:0:
160,128,84586,1,0,0:0:0:0:
352,128,84786,1,8,0:0:0:0:
352,128,84886,1,8,0:0:0:0:
352,128,85086,1,8,0:0:0:0:
160,128,85186,1,0,0:0:0:0:
160,128,85286,1,0,0:0:0:0:
352,128,85386,1,8,0:0:0:0:
160,128,85586,1,0,0:0:0:0:
352,128,85686,1,8,0:0:0:0:
352,128,85786,1,8,0:0:0:0:
160,128,85886,1,0,0:0:0:0:
352,128,85986,1,8,0:0:0:0:
352,128,86086,1,8,0:0:0:0:
160,128,86186,1,0,0:0:0:0:
160,128,86236,1,0,0:0:0:0:
160,128,86286,1,0,0:0:0:0:
160,128,86336,1,0,0:0:0:0:
352,128,86386,1,8,0:0:0:0:
352,128,86486,1,8,0:0:0:0:
352,128,86686,1,8,0:0:0:0:
160,128,86786,1,0,0:0:0:0:
352,128,86986,1,8,0:0:0:0:
352,128,87086,1,8,0:0:0:0:
160,128,87186,1,0,0:0:0:0:
352,128,87386,1,8,0:0:0:0:
352,128,87486,1,8,0:0:0:0:
160,128,87586,1,0,0:0:0:0:
352,128,87686,1,8,0:0:0:0:
160,128,87786,1,0,0:0:0:0:
352,128,87986,1,8,0:0:0:0:
352,128,88086,1,8,0:0:0:0:
160,128,88186,1,0,0:0:0:0:
352,128,88286,1,8,0:0:0:0:
352,128,88386,1,8,0:0:0:0:
352,128,88586,1,8,0:0:0:0:
352,128,88686,1,8,0:0:0:0:
160,128,88786,1,0,0:0:0:0:
352,128,88886,1,8,0:0:0:0:
352,128,89086,1,8,0:0:0:0:
160,128,89186,1,0,0:0:0:0:
352,128,89386,1,8,0:0:0:0:
352,128,89436,1,8,0:0:0:0:
160,128,89486,1,0,0:0:0:0:
160,128,89536,1,0,0:0:0:0:
352,128,89586,1,8,0:0:0:0:
352,128,89686,1,8,0:0:0:0:
352,128,89886,1,8,0:0:0:0:
160,128,89986,1,0,0:0:0:0:
352,128,90186,1,8,0:0:0:0:
352,128,90286,1,8,0:0:0:0:
160,128,90386,1,0,0:0:0:0:
352,128,90586,1,8,0:0:0:0:
352,128,90686,1,8,0:0:0:0:
160,128,90786,1,0,0:0:0:0:
352,128,90886,1,8,0:0:0:0:
160,128,90986,1,0,0:0:0:0:
352,128,91186,1,8,0:0:0:0:
352,128,91286,1,8,0:0:0:0:
160,128,91386,1,0,0:0:0:0:
160,128,91486,1,0,0:0:0:0:
352,128,91586,1,8,0:0:0:0:
352,128,91686,1,8,0:0:0:0:
160,128,91786,1,0,0:0:0:0:
160,128,91886,1,0,0:0:0:0:
352,128,91986,1,8,0:0:0:0:
352,128,92052,1,8,0:0:0:0:
352,128,92119,1,8,0:0:0:0:
352,128,92186,1,8,0:0:0:0:
352,128,92252,1,8,0:0:0:0:
352,128,92319,1,8,0:0:0:0:
160,128,92386,1,0,0:0:0:0:
352,128,92486,1,8,0:0:0:0:
352,128,92586,1,8,0:0:0:0:
352,128,92686,1,8,0:0:0:0:
160,256,92786,1,4,0:0:0:0:
160,128,93086,1,0,0:0:0:0:
160,128,93386,1,0,0:0:0:0:
352,128,93586,1,8,0:0:0:0:
352,128,93786,1,8,0:0:0:0:
160,128,93986,1,0,0:0:0:0:
352,128,94186,1,8,0:0:0:0:
160,128,94386,1,0,0:0:0:0:
160,128,94686,1,0,0:0:0:0:
160,128,94786,1,0,0:0:0:0:
160,128,94986,1,0,0:0:0:0:
352,128,95186,1,8,0:0:0:0:
160,128,95386,1,0,0:0:0:0:
352,128,95486,1,8,0:0:0:0:
160,128,95586,1,0,0:0:0:0:
352,128,95686,1,8,0:0:0:0:
160,128,95786,1,0,0:0:0:0:
160,128,95836,1,0,0:0:0:0:
352,128,95886,1,8,0:0:0:0:
352,128,95936,1,8,0:0:0:0:
160,128,95986,1,0,0:0:0:0:
160,128,96286,1,0,0:0:0:0:
160,128,96586,1,0,0:0:0:0:
352,128,96786,1,8,0:0:0:0:
352,128,96986,1,8,0:0:0:0:
160,128,97186,1,0,0:0:0:0:
160,128,97386,1,0,0:0:0:0:
352,128,97586,1,8,0:0:0:0:
352,128,97886,1,8,0:0:0:0:
160,128,97986,1,0,0:0:0:0:
160,128,98186,1,0,0:0:0:0:
352,128,98386,1,8,0:0:0:0:
352,128,98586,1,8,0:0:0:0:
352,128,98686,1,8,0:0:0:0:
160,128,98786,1,0,0:0:0:0:
352,128,98886,1,8,0:0:0:0:
160,128,98986,1,0,0:0:0:0:
160,128,99036,1,0,0:0:0:0:
160,128,99086,1,0,0:0:0:0:
160,128,99136,1,0,0:0:0:0:
352,128,99186,1,8,0:0:0:0:
160,128,99386,1,0,0:0:0:0:
160,128,99486,1,0,0:0:0:0:
352,128,99586,1,8,0:0:0:0:
160,128,99786,1,0,0:0:0:0:
352,128,99986,1,8,0:0:0:0:
160,128,100086,1,0,0:0:0:0:
160,128,100186,1,0,0:0:0:0:
352,128,100286,1,8,0:0:0:0:
160,128,100386,1,0,0:0:0:0:
160,128,100486,1,0,0:0:0:0:
352,128,100586,1,8,0:0:0:0:
160,128,100686,1,0,0:0:0:0:
352,128,100786,1,8,0:0:0:0:
160,128,100986,1,0,0:0:0:0:
160,128,101086,1,0,0:0:0:0:
352,128,101186,1,8,0:0:0:0:
160,128,101386,1,0,0:0:0:0:
352,128,101586,1,8,0:0:0:0:
160,128,101686,1,0,0:0:0:0:
160,128,101786,1,0,0:0:0:0:
352,128,101886,1,8,0:0:0:0:
352,128,101986,1,8,0:0:0:0:
160,128,102086,1,0,0:0:0:0:
352,128,102186,1,8,0:0:0:0:
160,128,102286,1,0,0:0:0:0:
352,128,102386,1,8,0:0:0:0:
160,128,102586,1,0,0:0:0:0:
352,128,102686,1,8,0:0:0:0:
352,128,102786,1,8,0:0:0:0:
160,128,102986,1,0,0:0:0:0:
352,128,103186,1,8,0:0:0:0:
352,128,103286,1,8,0:0:0:0:
160,128,103386,1,0,0:0:0:0:
352,128,103486,1,8,0:0:0:0:
352,128,103586,1,8,0:0:0:0:
160,128,103686,1,0,0:0:0:0:
352,128,103786,1,8,0:0:0:0:
352,128,103886,1,8,0:0:0:0:
160,128,103986,1,0,0:0:0:0:
160,128,104186,1,0,0:0:0:0:
160,128,104286,1,0,0:0:0:0:
352,128,104386,1,8,0:0:0:0:
352,128,104586,1,8,0:0:0:0:
160,128,104786,1,0,0:0:0:0:
352,128,104886,1,8,0:0:0:0:
352,128,104986,1,8,0:0:0:0:
160,128,105086,1,0,0:0:0:0:
352,128,105186,1,8,0:0:0:0:
160,128,105286,1,0,0:0:0:0:
352,128,105386,1,8,0:0:0:0:
352,128,105486,1,8,0:0:0:0:
160,256,105586,1,4,0:0:0:0:
352,128,105986,1,8,0:0:0:0:
352,128,106186,1,8,0:0:0:0:
160,128,106386,1,0,0:0:0:0:
352,128,106586,1,8,0:0:0:0:
352,128,106686,1,8,0:0:0:0:
352,128,106786,1,8,0:0:0:0:
352,128,106986,1,8,0:0:0:0:
160,128,107186,1,0,0:0:0:0:
160,128,107386,1,0,0:0:0:0:
352,128,107586,1,8,0:0:0:0:
352,128,107786,1,8,0:0:0:0:
160,128,107986,1,0,0:0:0:0:
160,128,108086,1,0,0:0:0:0:
352,128,108186,1,8,0:0:0:0:
352,128,108286,1,8,0:0:0:0:
352,128,108386,1,8,0:0:0:0:
352,128,108586,1,8,0:0:0:0:
160,128,108786,1,0,0:0:0:0:
160,128,108986,1,0,0:0:0:0:
352,128,109186,1,8,0:0:0:0:
352,128,109386,1,8,0:0:0:0:
160,128,109586,1,0,0:0:0:0:
352,128,109786,1,8,0:0:0:0:
352,128,109886,1,8,0:0:0:0:
352,128,109986,1,8,0:0:0:0:
160,128,110186,1,0,0:0:0:0:
352,128,110386,1,8,0:0:0:0:
352,128,110486,1,8,0:0:0:0:
352,128,110586,1,8,0:0:0:0:
160,128,110786,1,0,0:0:0:0:
160,128,110886,1,0,0:0:0:0:
160,128,110986,1,0,0:0:0:0:
352,128,111186,1,8,0:0:0:0:
352,128,111286,1,8,0:0:0:0:
160,128,111386,1,0,0:0:0:0:
160,128,111486,1,0,0:0:0:0:
352,128,111586,1,8,0:0:0:0:
352,128,111786,1,8,0:0:0:0:
160,128,111986,1,0,0:0:0:0:
160,128,112186,1,0,0:0:0:0:
352,128,112386,1,8,0:0:0:0:
352,128,112586,1,8,0:0:0:0:
160,128,112786,1,0,0:0:0:0:
352,128,112986,1,8,0:0:0:0:
352,128,113086,1,8,0:0:0:0:
352,128,113186,1,8,0:0:0:0:
352,128,113386,1,8,0:0:0:0:
160,128,113586,1,0,0:0:0:0:
160,128,113786,1,0,0:0:0:0:
352,128,113986,1,8,0:0:0:0:
352,128,114186,1,8,0:0:0:0:
160,128,114386,1,0,0:0:0:0:
160,128,114486,1,0,0:0:0:0:
352,128,114586,1,8,0:0:0:0:
352,128,114686,1,8,0:0:0:0:
352,128,114786,1,8,0:0:0:0:
352,128,114986,1,8,0:0:0:0:
160,128,115186,1,0,0:0:0:0:
160,128,115386,1,0,0:0:0:0:
352,128,115586,1,8,0:0:0:0:
352,128,115786,1,8,0:0:0:0:
160,128,115986,1,0,0:0:0:0:
352,128,116186,1,8,0:0:0:0:
352,128,116286,1,8,0:0:0:0:
352,128,116386,1,8,0:0:0:0:
160,128,116586,1,0,0:0:0:0:
352,128,116786,1,8,0:0:0:0:
352,128,116886,1,8,0:0:0:0:
160,128,116986,1,0,0:0:0:0:
352,128,117086,1,8,0:0:0:0:
160,128,117186,1,0,0:0:0:0:
352,128,117386,1,8,0:0:0:0:
160,128,117486,1,0,0:0:0:0:
352,128,117586,1,8,0:0:0:0:
352,128,117686,1,8,0:0:0:0:
160,128,117786,1,0,0:0:0:0:
160,128,117886,1,0,0:0:0:0:
352,128,117986,1,8,0:0:0:0:
352,128,118086,1,8,0:0:0:0:
352,128,118186,1,8,0:0:0:0:
352,128,118286,1,8,0:0:0:0:
160,256,118386,1,4,0:0:0:0:
352,128,118786,1,8,0:0:0:0:
352,128,119186,1,8,0:0:0:0:
160,128,119386,1,0,0:0:0:0:
352,128,119586,1,8,0:0:0:0:
352,128,119786,1,8,0:0:0:0:
160,128,119986,1,0,0:0:0:0:
160,128,120086,1,0,0:0:0:0:
160,128,120186,1,0,0:0:0:0:
352,128,120386,1,8,0:0:0:0:
352,128,120586,1,8,0:0:0:0:
160,128,120786,1,0,0:0:0:0:
352,256,121186,1,12,0:0:0:0:
160,128,121586,1,0,0:0:0:0:
160,128,121786,1,0,0:0:0:0:
352,128,121986,1,8,0:0:0:0:
160,128,122386,1,0,0:0:0:0:
160,128,122519,1,0,0:0:0:0:
160,128,122652,1,0,0:0:0:0:
352,128,122786,1,8,0:0:0:0:
160,128,123186,1,0,0:0:0:0:
160,128,123286,1,0,0:0:0:0:
160,128,123386,1,0,0:0:0:0:
352,128,123586,1,8,0:0:0:0:
352,128,123786,1,8,0:0:0:0:
160,128,123986,1,0,0:0:0:0:
352,256,124386,1,12,0:0:0:0:
160,128,124786,5,0,0:0:0:0:
352,128,125186,1,8,0:0:0:0:
352,128,125586,1,8,0:0:0:0:
160,128,125786,1,0,0:0:0:0:
352,128,125986,1,8,0:0:0:0:
352,128,126186,1,8,0:0:0:0:
160,128,126386,1,0,0:0:0:0:
160,128,126486,1,0,0:0:0:0:
160,128,126586,1,0,0:0:0:0:
352,128,126786,1,8,0:0:0:0:
352,128,126986,1,8,0:0:0:0:
160,128,127186,1,0,0:0:0:0:
352,256,127586,1,12,0:0:0:0:
160,128,127986,1,0,0:0:0:0:
160,128,128186,1,0,0:0:0:0:
352,128,128386,1,8,0:0:0:0:
160,128,128786,1,0,0:0:0:0:
160,128,128919,1,0,0:0:0:0:
160,128,129052,1,0,0:0:0:0:
352,128,129186,1,8,0:0:0:0:
160,128,129586,1,0,0:0:0:0:
160,128,129686,1,0,0:0:0:0:
160,128,129786,1,0,0:0:0:0:
352,128,129986,1,8,0:0:0:0:
352,128,130186,1,8,0:0:0:0:
160,128,130386,1,0,0:0:0:0:
160,128,130586,1,0,0:0:0:0:
352,128,130786,1,8,0:0:0:0:
352,128,130886,1,8,0:0:0:0:
352,128,130986,1,8,0:0:0:0:
160,128,131086,1,0,0:0:0:0:
352,256,131186,1,12,0:0:0:0:
352,128,131486,1,8,0:0:0:0:
160,128,131586,1,0,0:0:0:0:
352,128,131786,1,8,0:0:0:0:
160,128,131986,1,0,0:0:0:0:
352,128,132186,1,8,0:0:0:0:
352,128,132286,1,8,0:0:0:0:
352,128,132386,1,0,0:0:0:0:
352,128,132486,1,8,0:0:0:0:
352,128,132586,1,8,0:0:0:0:
352,128,132686,1,8,0:0:0:0:
160,128,132786,1,0,0:0:0:0:
160,128,132986,1,0,0:0:0:0:
352,128,133086,1,8,0:0:0:0:
160,128,133186,1,0,0:0:0:0:
352,128,133386,1,8,0:0:0:0:
352,128,133586,1,8,0:0:0:0:
160,128,133686,1,0,0:0:0:0:
160,128,133786,1,0,0:0:0:0:
352,128,133886,1,8,0:0:0:0:
352,128,133986,1,8,0:0:0:0:
160,128,134186,1,0,0:0:0:0:
160,128,134286,1,0,0:0:0:0:
352,128,134386,1,8,0:0:0:0:
160,128,134586,1,0,0:0:0:0:
352,128,134686,1,8,0:0:0:0:
160,128,134786,1,0,0:0:0:0:
352,128,134886,1,8,0:0:0:0:
352,128,134986,1,8,0:0:0:0:
352,128,135086,1,8,0:0:0:0:
160,128,135186,1,0,0:0:0:0:
352,128,135386,1,8,0:0:0:0:
352,128,135586,1,8,0:0:0:0:
160,128,135686,1,0,0:0:0:0:
352,128,135786,1,8,0:0:0:0:
352,128,135886,1,8,0:0:0:0:
160,128,135986,1,0,0:0:0:0:
352,128,136086,1,8,0:0:0:0:
160,128,136186,1,0,0:0:0:0:
352,128,136286,1,8,0:0:0:0:
352,128,136386,1,8,0:0:0:0:
160,128,136586,1,0,0:0:0:0:
352,128,136786,1,8,0:0:0:0:
352,128,136886,1,8,0:0:0:0:
160,128,136986,1,0,0:0:0:0:
352,128,137052,1,8,0:0:0:0:
352,128,137119,1,8,0:0:0:0:
352,128,137186,1,8,0:0:0:0:
160,128,137386,1,0,0:0:0:0:
160,128,137486,1,0,0:0:0:0:
352,128,137586,1,8,0:0:0:0:
160,128,137686,1,0,0:0:0:0:
160,128,137786,1,0,0:0:0:0:
352,128,137886,1,8,0:0:0:0:
352,128,137986,1,8,0:0:0:0:
160,128,138186,1,0,0:0:0:0:
352,128,138386,1,8,0:0:0:0:
352,128,138486,1,8,0:0:0:0:
160,128,138586,1,0,0:0:0:0:
160,128,138786,1,0,0:0:0:0:
160,128,138986,1,0,0:0:0:0:
352,128,139186,1,8,0:0:0:0:
160,128,139286,1,0,0:0:0:0:
352,128,139386,1,8,0:0:0:0:
160,128,139486,1,0,0:0:0:0:
352,128,139586,1,8,0:0:0:0:
352,128,139686,1,8,0:0:0:0:
160,128,139786,1,0,0:0:0:0:
352,128,139986,1,8,0:0:0:0:
352,128,140086,1,8,0:0:0:0:
160,128,140186,1,0,0:0:0:0:
352,128,140386,1,8,0:0:0:0:
160,128,140586,1,0,0:0:0:0:
352,128,140786,1,8,0:0:0:0:
352,128,140886,1,8,0:0:0:0:
160,128,140986,1,0,0:0:0:0:
352,128,141086,1,8,0:0:0:0:
160,128,141186,1,8,0:0:0:0:
160,128,141286,1,0,0:0:0:0:
352,128,141386,1,8,0:0:0:0:
352,128,141486,1,8,0:0:0:0:
160,128,141586,1,0,0:0:0:0:
352,128,141652,1,0,0:0:0:0:
352,128,141719,1,8,0:0:0:0:
160,128,141786,1,0,0:0:0:0:
352,128,141852,1,8,0:0:0:0:
160,128,141919,1,8,0:0:0:0:
160,128,141986,1,0,0:0:0:0:
160,128,142052,1,0,0:0:0:0:
160,128,142119,1,0,0:0:0:0:
352,128,142186,1,8,0:0:0:0:
352,128,142252,1,8,0:0:0:0:
352,128,142319,1,8,0:0:0:0:
160,128,142386,1,0,0:0:0:0:
256,128,144686,2,4,L|256:280,28,140
352,128,147186,1,8,0:0:0:0:
352,128,147586,1,8,0:0:0:0:
352,128,147986,1,8,0:0:0:0:
160,256,148386,1,4,0:0:0:0:
352,128,148786,1,8,0:0:0:0:
352,128,148886,1,8,0:0:0:0:
352,128,149086,1,8,0:0:0:0:
160,128,149186,1,0,0:0:0:0:
352,128,149386,1,8,0:0:0:0:
160,128,149586,1,0,0:0:0:0:
352,128,149786,1,8,0:0:0:0:
160,128,149886,1,0,0:0:0:0:
352,128,149986,1,8,0:0:0:0:
160,128,150186,1,0,0:0:0:0:
352,128,150386,1,8,0:0:0:0:
352,128,150486,1,8,0:0:0:0:
352,128,150686,1,8,0:0:0:0:
160,128,150786,1,0,0:0:0:0:
160,128,150886,1,0,0:0:0:0:
352,128,150986,1,8,0:0:0:0:
160,128,151186,1,0,0:0:0:0:
352,128,151286,1,8,0:0:0:0:
160,128,151386,1,0,0:0:0:0:
352,128,151486,1,8,0:0:0:0:
352,128,151586,1,8,0:0:0:0:
160,128,151786,1,0,0:0:0:0:
160,128,151836,1,0,0:0:0:0:
160,128,151886,1,0,0:0:0:0:
160,128,151936,1,0,0:0:0:0:
352,128,151986,1,8,0:0:0:0:
352,128,152086,1,8,0:0:0:0:
352,128,152286,1,8,0:0:0:0:
160,128,152386,1,0,0:0:0:0:
352,128,152586,1,8,0:0:0:0:
160,128,152786,1,0,0:0:0:0:
352,128,152986,1,8,0:0:0:0:
160,128,153086,1,0,0:0:0:0:
352,128,153186,1,8,0:0:0:0:
160,128,153386,1,0,0:0:0:0:
352,128,153586,1,8,0:0:0:0:
352,128,153686,1,8,0:0:0:0:
352,128,153886,1,8,0:0:0:0:
160,128,153986,1,0,0:0:0:0:
160,128,154086,1,0,0:0:0:0:
352,128,154186,1,8,0:0:0:0:
160,128,154386,1,0,0:0:0:0:
352,128,154486,1,8,0:0:0:0:
352,128,154586,1,8,0:0:0:0:
160,128,154686,1,0,0:0:0:0:
352,128,154786,1,8,0:0:0:0:
352,128,154886,1,8,0:0:0:0:
160,128,154986,1,0,0:0:0:0:
160,128,155036,1,0,0:0:0:0:
160,128,155086,1,0,0:0:0:0:
160,128,155136,1,0,0:0:0:0:
352,128,155186,1,8,0:0:0:0:
352,128,155286,1,8,0:0:0:0:
352,128,155486,1,8,0:0:0:0:
160,128,155586,1,0,0:0:0:0:
352,128,155786,1,8,0:0:0:0:
352,128,155886,1,8,0:0:0:0:
160,128,155986,1,0,0:0:0:0:
352,128,156186,1,8,0:0:0:0:
352,128,156286,1,8,0:0:0:0:
160,128,156386,1,0,0:0:0:0:
352,128,156486,1,8,0:0:0:0:
160,128,156586,1,0,0:0:0:0:
352,128,156786,1,8,0:0:0:0:
352,128,156886,1,8,0:0:0:0:
160,128,156986,1,0,0:0:0:0:
352,128,157086,1,8,0:0:0:0:
352,128,157186,1,8,0:0:0:0:
352,128,157386,1,8,0:0:0:0:
352,128,157486,1,8,0:0:0:0:
160,128,157586,1,0,0:0:0:0:
352,128,157686,1,8,0:0:0:0:
352,128,157886,1,8,0:0:0:0:
160,128,157986,1,0,0:0:0:0:
160,128,158086,1,0,0:0:0:0:
352,128,158186,1,8,0:0:0:0:
352,128,158236,1,8,0:0:0:0:
160,128,158286,1,0,0:0:0:0:
160,128,158336,1,0,0:0:0:0:
352,128,158386,1,8,0:0:0:0:
352,128,158486,1,8,0:0:0:0:
352,128,158686,1,8,0:0:0:0:
160,128,158786,1,0,0:0:0:0:
352,128,158986,1,8,0:0:0:0:
352,128,159086,1,8,0:0:0:0:
160,128,159186,1,0,0:0:0:0:
352,128,159386,1,8,0:0:0:0:
352,128,159486,1,8,0:0:0:0:
160,128,159586,1,0,0:0:0:0:
352,128,159686,1,8,0:0:0:0:
160,128,159786,1,0,0:0:0:0:
352,128,159986,1,8,0:0:0:0:
352,128,160086,1,8,0:0:0:0:
160,128,160186,1,0,0:0:0:0:
160,128,160286,1,0,0:0:0:0:
352,128,160386,1,8,0:0:0:0:
352,128,160486,1,8,0:0:0:0:
160,128,160586,1,0,0:0:0:0:
160,128,160686,1,0,0:0:0:0:
352,128,160786,1,8,0:0:0:0:
352,128,160852,1,8,0:0:0:0:
352,128,160919,1,8,0:0:0:0:
352,128,160986,1,8,0:0:0:0:
352,128,161052,1,8,0:0:0:0:
352,128,161119,1,8,0:0:0:0:
160,128,161186,1,0,0:0:0:0:
352,128,161286,1,8,0:0:0:0:
352,128,161386,1,8,0:0:0:0:
352,128,161486,1,8,0:0:0:0:
160,256,161586,1,4,0:0:0:0:
160,128,161886,1,0,0:0:0:0:
352,128,161986,1,8,0:0:0:0:
352,128,162186,1,8,0:0:0:0:
160,128,162286,1,0,0:0:0:0:
352,128,162386,1,8,0:0:0:0:
352,128,162586,1,8,0:0:0:0:
352,128,162686,1,8,0:0:0:0:
160,128,162786,1,0,0:0:0:0:
352,128,162986,1,8,0:0:0:0:
160,128,163086,1,0,0:0:0:0:
352,128,163186,1,8,0:0:0:0:
352,128,163386,1,8,0:0:0:0:
160,128,163586,1,0,0:0:0:0:
352,128,163786,1,8,0:0:0:0:
352,128,163986,1,8,0:0:0:0:
160,128,164186,1,0,0:0:0:0:
352,128,164286,1,8,0:0:0:0:
160,128,164386,1,0,0:0:0:0:
352,128,164486,1,8,0:0:0:0:
352,128,164586,1,8,0:0:0:0:
352,128,164686,1,8,0:0:0:0:
160,128,164786,1,0,0:0:0:0:
160,128,165086,1,0,0:0:0:0:
352,128,165186,1,8,0:0:0:0:
352,128,165386,1,8,0:0:0:0:
160,128,165486,1,0,0:0:0:0:
352,128,165586,1,8,0:0:0:0:
352,128,165786,1,8,0:0:0:0:
352,128,165886,1,8,0:0:0:0:
160,128,165986,1,0,0:0:0:0:
160,128,166186,1,0,0:0:0:0:
160,128,166286,1,0,0:0:0:0:
352,128,166386,1,8,0:0:0:0:
352,128,166586,1,8,0:0:0:0:
352,128,166686,1,8,0:0:0:0:
160,128,166786,1,0,0:0:0:0:
352,128,166986,5,8,0:0:0:0:
352,128,167186,1,8,0:0:0:0:
352,128,167386,1,8,0:0:0:0:
352,128,167486,1,8,0:0:0:0:
160,128,167586,1,0,0:0:0:0:
352,128,167686,1,8,0:0:0:0:
160,128,167786,1,0,0:0:0:0:
160,128,167836,1,0,0:0:0:0:
160,128,167886,1,0,0:0:0:0:
160,128,167936,1,0,0:0:0:0:
352,128,167986,1,8,0:0:0:0:
160,128,168186,1,0,0:0:0:0:
160,128,168286,1,0,0:0:0:0:
352,128,168386,1,8,0:0:0:0:
160,128,168586,1,0,0:0:0:0:
352,128,168786,1,8,0:0:0:0:
160,128,168886,1,0,0:0:0:0:
160,128,168986,1,0,0:0:0:0:
352,128,169086,1,8,0:0:0:0:
160,128,169186,1,0,0:0:0:0:
160,128,169286,1,0,0:0:0:0:
352,128,169386,1,8,0:0:0:0:
160,128,169486,1,0,0:0:0:0:
352,128,169586,1,8,0:0:0:0:
160,128,169786,1,0,0:0:0:0:
160,128,169886,1,0,0:0:0:0:
352,128,169986,1,8,0:0:0:0:
160,128,170186,1,0,0:0:0:0:
352,128,170386,1,8,0:0:0:0:
160,128,170486,1,0,0:0:0:0:
160,128,170586,1,0,0:0:0:0:
352,128,170686,1,8,0:0:0:0:
352,128,170786,1,8,0:0:0:0:
160,128,170886,1,0,0:0:0:0:
352,128,170986,1,8,0:0:0:0:
160,128,171086,1,0,0:0:0:0:
352,128,171186,1,8,0:0:0:0:
160,128,171386,1,0,0:0:0:0:
352,128,171486,1,8,0:0:0:0:
352,128,171586,1,8,0:0:0:0:
160,128,171786,1,0,0:0:0:0:
352,128,171986,1,8,0:0:0:0:
352,128,172086,1,8,0:0:0:0:
160,128,172186,1,0,0:0:0:0:
352,128,172286,1,8,0:0:0:0:
352,128,172386,1,8,0:0:0:0:
160,128,172486,1,0,0:0:0:0:
352,128,172586,1,8,0:0:0:0:
352,128,172686,1,8,0:0:0:0:
160,128,172786,1,0,0:0:0:0:
160,128,172986,1,0,0:0:0:0:
160,128,173086,1,0,0:0:0:0:
352,128,173186,1,8,0:0:0:0:
352,128,173386,1,8,0:0:0:0:
160,128,173586,1,0,0:0:0:0:
352,128,173686,1,8,0:0:0:0:
352,128,173786,1,8,0:0:0:0:
160,128,173886,1,0,0:0:0:0:
352,128,173986,1,8,0:0:0:0:
160,128,174086,1,0,0:0:0:0:
352,128,174186,1,8,0:0:0:0:
352,128,174286,1,8,0:0:0:0:
160,256,174386,1,4,0:0:0:0:
256,192,174586,12,0,176386,0:0:0:0:
