osu file format v14

[General]
AudioFilename: audio.mp3
AudioLeadIn: 0
PreviewTime: 75786
Countdown: 0
SampleSet: Normal
StackLeniency: 0.7
Mode: 1
LetterboxInBreaks: 0
WidescreenStoryboard: 1

[Editor]
Bookmarks: 11186,36786,62386,79986,105586,118386,131186,148786
DistanceSpacing: 1
BeatDivisor: 4
GridSize: 32
TimelineZoom: 1.5

[Metadata]
Title:GOMIKASU -Original Mix-
TitleUnicode:GOMIKASU -Original Mix-
Artist:ChibaNyan vs. Otogibara Era
ArtistUnicode:チバニャン vs. 御伽原江良
Creator:Eyenine
Version:Futsuu
Source:
Tags:novelty instrumental gibara nijisanji にじさんじ 2434 vtuber virtual youtuber しょぼんのアクション shobon action cat mario Cheetahmen 2 two II main theme nes 52 japanese electronic バーチャルyoutuber
BeatmapID:2500700
BeatmapSetID:1200809

[Difficulty]
HPDrainRate:6.5
CircleSize:5
OverallDifficulty:4
ApproachRate:5
SliderMultiplier:1.4
SliderTickRate:1

[Events]
//Background and Video events
0,0,"okane.jpg",0,0
//Break Periods
//Storyboard Layer 0 (Background)
//Storyboard Layer 1 (Fail)
//Storyboard Layer 2 (Pass)
//Storyboard Layer 3 (Foreground)
//Storyboard Layer 4 (Overlay)
//Storyboard Sound Samples

[TimingPoints]
-14,400,4,1,0,10,1,0
1586,-100,4,1,0,15,0,0
3186,-100,4,1,0,20,0,0
4786,-100,4,1,0,25,0,0
6386,-10,4,1,0,30,0,0
7986,-10,4,1,0,35,0,0
9586,-10,4,1,0,40,0,0
10386,-100,4,1,0,10,0,0
11136,-100,4,1,0,90,0,0
11186,400,4,1,0,90,1,0
36836,-100,4,1,0,70,0,0
49536,-100,4,1,0,90,0,0
73636,-100,4,1,0,40,0,0
75836,-100,4,1,0,80,0,0
77386,-100,4,1,0,40,0,0
78336,-100,4,1,0,70,0,0
79936,-100,4,1,0,90,0,0
79986,400,4,1,0,90,1,0
86386,-100,4,1,0,90,0,1
92786,-100,4,1,0,90,0,0
99186,-100,4,1,0,90,0,1
105586,-100,4,1,0,90,0,0
142436,-100,4,1,0,40,0,0
144636,-100,4,1,0,80,0,0
146136,-100,4,1,0,40,0,0
147136,-100,4,1,0,70,0,0
148736,-100,4,1,0,90,0,0
148786,400,4,1,0,90,1,0
155186,-100,4,1,0,90,0,1
161586,-100,4,1,0,90,0,0
167986,-100,4,1,0,90,0,1
174386,-100,4,1,0,90,0,0
174486,-66.6666666666667,4,1,0,90,0,0

[HitObjects]
256,192,386,12,0,10386,0:0:0:0:
160,256,11186,5,4,0:0:0:0:
352,128,11786,1,8,0:0:0:0:
160,128,11986,1,0,0:0:0:0:
352,128,12386,1,8,0:0:0:0:
352,128,12586,1,8,0:0:0:0:
160,128,12786,1,0,0:0:0:0:
160,128,13186,1,0,0:0:0:0:
352,128,13586,1,8,0:0:0:0:
352,128,14386,1,8,0:0:0:0:
352,128,14986,1,8,0:0:0:0:
160,128,15186,1,0,0:0:0:0:
352,128,15586,1,8,0:0:0:0:
160,128,15786,1,0,0:0:0:0:
352,128,15986,1,8,0:0:0:0:
352,128,16386,1,8,0:0:0:0:
160,128,16986,1,0,0:0:0:0:
352,128,17186,1,8,0:0:0:0:
352,128,17386,1,8,0:0:0:0:
160,256,17586,1,4,0:0:0:0:
352,128,18186,1,8,0:0:0:0:
160,128,18386,1,0,0:0:0:0:
352,128,18786,1,8,0:0:0:0:
352,128,18986,1,8,0:0:0:0:
160,128,19186,1,0,0:0:0:0:
160,128,19586,1,0,0:0:0:0:
352,128,19986,1,8,0:0:0:0:
352,128,20786,1,8,0:0:0:0:
352,128,21386,1,8,0:0:0:0:
160,128,21586,1,0,0:0:0:0:
352,128,21986,1,8,0:0:0:0:
352,128,22186,1,8,0:0:0:0:
160,128,22386,1,0,0:0:0:0:
160,128,22786,1,0,0:0:0:0:
352,128,22986,1,8,0:0:0:0:
352,128,23186,1,8,0:0:0:0:
352,128,23386,1,8,0:0:0:0:
352,128,23786,1,8,0:0:0:0:
160,256,23986,1,4,0:0:0:0:
160,128,24786,1,0,0:0:0:0:
352,128,24986,1,8,0:0:0:0:
352,128,25386,1,8,0:0:0:0:
160,128,25586,1,0,0:0:0:0:
352,128,25786,1,8,0:0:0:0:
352,128,26186,1,8,0:0:0:0:
160,128,26386,1,0,0:0:0:0:
160,128,26586,1,0,0:0:0:0:
352,128,26786,1,8,0:0:0:0:
352,128,27186,1,8,0:0:0:0:
160,128,27986,1,0,0:0:0:0:
352,128,28186,1,8,0:0:0:0:
160,128,28586,1,0,0:0:0:0:
352,128,28786,1,8,0:0:0:0:
352,128,28986,1,8,0:0:0:0:
352,128,29386,1,8,0:0:0:0:
352,128,29586,1,8,0:0:0:0:
160,128,29786,1,0,0:0:0:0:
352,128,29986,1,8,0:0:0:0:
352,128,30186,1,8,0:0:0:0:
160,128,30386,1,0,0:0:0:0:
160,128,31186,1,0,0:0:0:0:
352,128,31386,1,8,0:0:0:0:
352,128,31786,1,8,0:0:0:0:
160,128,31986,1,0,0:0:0:0:
352,128,32186,1,8,0:0:0:0:
352,128,32586,1,8,0:0:0:0:
160,128,32786,1,0,0:0:0:0:
160,128,32986,1,0,0:0:0:0:
352,128,33186,1,8,0:0:0:0:
352,128,33586,1,8,0:0:0:0:
160,128,34386,1,0,0:0:0:0:
352,128,34586,1,8,0:0:0:0:
160,128,34986,1,0,0:0:0:0:
352,256,35186,1,12,0:0:0:0:
352,128,35586,1,8,0:0:0:0:
352,128,35986,1,8,0:0:0:0:
352,128,36386,1,8,0:0:0:0:
352,128,36586,1,8,0:0:0:0:
160,256,36786,1,4,0:0:0:0:
352,128,37586,1,8,0:0:0:0:
352,128,37986,1,8,0:0:0:0:
160,128,38386,1,0,0:0:0:0:
352,128,38786,1,8,0:0:0:0:
160,128,39186,1,0,0:0:0:0:
160,128,39986,1,0,0:0:0:0:
352,128,40386,1,8,0:0:0:0:
160,128,40786,1,0,0:0:0:0:
352,128,41186,1,8,0:0:0:0:
160,128,41586,1,0,0:0:0:0:
352,128,41986,1,8,0:0:0:0:
352,128,42386,1,8,0:0:0:0:
160,128,43186,1,0,0:0:0:0:
352,128,43986,1,8,0:0:0:0:
352,128,44386,1,8,0:0:0:0:
160,128,44786,1,0,0:0:0:0:
352,128,45186,1,8,0:0:0:0:
160,128,45586,1,0,0:0:0:0:
160,128,46386,1,0,0:0:0:0:
352,128,46786,1,8,0:0:0:0:
160,128,47186,1,0,0:0:0:0:
352,128,47586,1,8,0:0:0:0:
160,128,47986,1,0,0:0:0:0:
352,128,48386,1,8,0:0:0:0:
352,128,48786,1,8,0:0:0:0:
160,256,49586,1,4,0:0:0:0:
352,128,50386,1,8,0:0:0:0:
352,128,50786,1,8,0:0:0:0:
160,128,51186,1,0,0:0:0:0:
160,128,51386,1,0,0:0:0:0:
352,128,51586,1,8,0:0:0:0:
352,128,51786,1,8,0:0:0:0:
160,128,51986,1,0,0:0:0:0:
352,256,52386,1,12,0:0:0:0:
160,128,52786,1,0,0:0:0:0:
160,128,52986,1,0,0:0:0:0:
352,128,53186,1,8,0:0:0:0:
160,128,53586,5,0,0:0:0:0:
352,128,53986,1,8,0:0:0:0:
160,128,54386,1,0,0:0:0:0:
160,128,54586,1,0,0:0:0:0:
352,128,54786,1,8,0:0:0:0:
352,128,54986,1,8,0:0:0:0:
160,128,55186,1,0,0:0:0:0:
352,256,55586,1,12,0:0:0:0:
160,128,55986,1,0,0:0:0:0:
352,128,56786,1,8,0:0:0:0:
352,128,57186,1,8,0:0:0:0:
160,128,57586,1,0,0:0:0:0:
160,128,57786,1,0,0:0:0:0:
352,128,57986,1,8,0:0:0:0:
352,128,58186,1,8,0:0:0:0:
160,128,58386,1,0,0:0:0:0:
352,256,58786,1,12,0:0:0:0:
160,128,59186,1,0,0:0:0:0:
160,128,59386,1,0,0:0:0:0:
352,128,59586,1,8,0:0:0:0:
160,128,59986,1,0,0:0:0:0:
352,128,60386,1,8,0:0:0:0:
160,128,60786,1,0,0:0:0:0:
160,128,60986,1,0,0:0:0:0:
352,128,61186,1,8,0:0:0:0:
352,128,61386,1,8,0:0:0:0:
160,128,61586,1,0,0:0:0:0:
352,128,61986,1,8,0:0:0:0:
352,256,62386,1,12,0:0:0:0:
352,128,63186,1,8,0:0:0:0:
352,128,63586,1,8,0:0:0:0:
352,128,63986,1,8,0:0:0:0:
352,128,64186,1,8,0:0:0:0:
160,128,64386,1,0,0:0:0:0:
352,128,64786,1,8,0:0:0:0:
160,128,64986,1,0,0:0:0:0:
352,128,65186,1,8,0:0:0:0:
352,128,65586,1,8,0:0:0:0:
160,128,65986,1,0,0:0:0:0:
352,128,66386,1,8,0:0:0:0:
160,128,66586,1,0,0:0:0:0:
352,128,66786,1,8,0:0:0:0:
160,128,67186,1,0,0:0:0:0:
352,128,67986,1,8,0:0:0:0:
352,128,68186,1,8,0:0:0:0:
352,128,68386,1,8,0:0:0:0:
352,256,68786,1,12,0:0:0:0:
160,128,69586,1,0,0:0:0:0:
160,128,69986,1,0,0:0:0:0:
160,128,70186,1,0,0:0:0:0:
352,128,70386,1,8,0:0:0:0:
160,128,70986,1,0,0:0:0:0:
352,128,71186,1,8,0:0:0:0:
352,128,71586,1,8,0:0:0:0:
352,128,71986,1,8,0:0:0:0:
160,128,72386,1,0,0:0:0:0:
352,128,72786,1,8,0:0:0:0:
160,128,72986,1,0,0:0:0:0:
352,128,73186,1,8,0:0:0:0:
352,128,73386,1,8,0:0:0:0:
160,128,73586,1,0,0:0:0:0:
256,192,75886,12,0,77286,0:0:0:0:
352,128,78386,5,8,0:0:0:0:
352,128,78786,1,8,0:0:0:0:
352,128,79186,1,8,0:0:0:0:
160,256,79586,1,4,0:0:0:0:
352,256,79986,1,12,0:0:0:0:
160,128,80786,1,0,0:0:0:0:
352,128,80986,1,8,0:0:0:0:
160,128,81186,1,0,0:0:0:0:
352,128,81586,1,8,0:0:0:0:
352,128,81986,1,8,0:0:0:0:
160,128,82186,1,0,0:0:0:0:
352,128,82586,1,8,0:0:0:0:
160,128,82786,1,0,0:0:0:0:
160,128,82986,1,0,0:0:0:0:
352,128,83186,1,8,0:0:0:0:
160,128,83986,1,0,0:0:0:0:
352,128,84186,1,8,0:0:0:0:
160,128,84386,1,0,0:0:0:0:
352,128,84786,1,8,0:0:0:0:
352,128,85186,1,8,0:0:0:0:
160,128,85386,1,0,0:0:0:0:
352,128,85786,1,8,0:0:0:0:
160,128,85986,1,0,0:0:0:0:
160,128,86186,1,0,0:0:0:0:
352,256,86386,1,12,0:0:0:0:
352,128,86786,1,8,0:0:0:0:
352,128,86986,1,8,0:0:0:0:
352,128,87386,1,8,0:0:0:0:
160,128,87586,1,0,0:0:0:0:
352,128,87986,1,8,0:0:0:0:
352,128,88386,1,8,0:0:0:0:
352,128,88586,1,8,0:0:0:0:
352,128,88986,1,8,0:0:0:0:
352,128,89186,1,8,0:0:0:0:
160,128,89386,1,0,0:0:0:0:
352,128,89586,1,8,0:0:0:0:
352,128,89986,1,8,0:0:0:0:
352,128,90186,1,8,0:0:0:0:
352,128,90586,1,8,0:0:0:0:
160,128,90786,1,0,0:0:0:0:
352,256,91186,1,12,0:0:0:0:
160,128,91586,1,0,0:0:0:0:
352,128,91986,1,8,0:0:0:0:
160,256,92786,1,4,0:0:0:0:
352,128,93586,1,8,0:0:0:0:
352,128,93786,1,8,0:0:0:0:
160,128,93986,1,0,0:0:0:0:
160,128,94786,1,0,0:0:0:0:
352,128,95186,1,8,0:0:0:0:
160,128,95586,1,0,0:0:0:0:
352,128,95786,1,8,0:0:0:0:
160,128,95986,1,0,0:0:0:0:
352,128,96786,1,8,0:0:0:0:
160,128,97186,1,0,0:0:0:0:
160,128,97386,1,0,0:0:0:0:
160,128,97986,1,0,0:0:0:0:
352,128,98386,1,8,0:0:0:0:
160,128,98786,1,0,0:0:0:0:
160,128,98986,1,0,0:0:0:0:
352,256,99186,1,12,0:0:0:0:
160,128,99586,1,0,0:0:0:0:
352,128,99986,1,8,0:0:0:0:
352,128,100286,1,8,0:0:0:0:
352,128,100786,1,8,0:0:0:0:
160,128,101186,1,0,0:0:0:0:
352,128,101586,1,8,0:0:0:0:
352,128,101886,1,8,0:0:0:0:
352,128,102386,1,8,0:0:0:0:
160,128,102786,1,0,0:0:0:0:
352,128,103186,1,8,0:0:0:0:
352,128,103486,1,8,0:0:0:0:
160,128,103986,1,0,0:0:0:0:
352,128,104386,1,8,0:0:0:0:
160,128,104786,1,0,0:0:0:0:
160,256,105586,1,4,0:0:0:0:
352,128,105986,1,8,0:0:0:0:
160,128,106386,1,0,0:0:0:0:
352,128,106586,1,8,0:0:0:0:
352,128,106786,1,8,0:0:0:0:
160,128,107186,1,0,0:0:0:0:
352,128,107586,1,8,0:0:0:0:
352,128,107786,1,8,0:0:0:0:
160,128,107986,1,0,0:0:0:0:
352,128,108186,1,8,0:0:0:0:
352,128,108386,1,8,0:0:0:0:
160,128,108786,1,0,0:0:0:0:
352,128,109186,1,8,0:0:0:0:
160,128,109586,1,0,0:0:0:0:
352,128,109786,1,8,0:0:0:0:
352,128,109986,1,8,0:0:0:0:
352,128,110386,1,8,0:0:0:0:
352,128,110786,1,8,0:0:0:0:
352,128,111186,1,8,0:0:0:0:
160,128,111986,1,0,0:0:0:0:
352,128,112386,1,8,0:0:0:0:
160,128,112786,1,0,0:0:0:0:
352,128,112986,1,8,0:0:0:0:
352,128,113186,1,8,0:0:0:0:
160,128,113586,1,0,0:0:0:0:
352,128,113986,1,8,0:0:0:0:
352,128,114186,1,8,0:0:0:0:
160,128,114386,1,0,0:0:0:0:
352,128,114586,1,8,0:0:0:0:
352,128,114786,1,8,0:0:0:0:
160,128,115186,1,0,0:0:0:0:
352,128,115586,1,8,0:0:0:0:
160,128,115986,1,0,0:0:0:0:
352,128,116186,1,8,0:0:0:0:
352,128,116386,1,8,0:0:0:0:
352,256,116786,1,12,0:0:0:0:
352,128,117186,1,8,0:0:0:0:
352,128,117586,1,8,0:0:0:0:
352,128,117986,1,8,0:0:0:0:
160,256,118386,1,4,0:0:0:0:
352,128,119186,1,8,0:0:0:0:
352,128,119586,1,8,0:0:0:0:
160,128,119986,1,0,0:0:0:0:
160,128,120186,1,0,0:0:0:0:
352,128,120386,1,8,0:0:0:0:
352,128,120586,1,8,0:0:0:0:
160,128,120786,1,0,0:0:0:0:
352,256,121186,1,12,0:0:0:0:
160,128,121586,1,0,0:0:0:0:
160,128,121786,1,0,0:0:0:0:
352,128,121986,1,8,0:0:0:0:
160,128,122386,5,0,0:0:0:0:
352,128,122786,1,8,0:0:0:0:
160,128,123186,1,0,0:0:0:0:
160,128,123386,1,0,0:0:0:0:
352,128,123586,1,8,0:0:0:0:
352,128,123786,1,8,0:0:0:0:
352,128,123986,1,8,0:0:0:0:
352,256,124386,1,12,0:0:0:0:
160,128,124786,1,0,0:0:0:0:
352,128,125586,1,8,0:0:0:0:
352,128,125986,1,8,0:0:0:0:
160,128,126386,1,0,0:0:0:0:
160,128,126586,1,0,0:0:0:0:
352,128,126786,1,8,0:0:0:0:
352,128,126986,1,8,0:0:0:0:
160,128,127186,1,0,0:0:0:0:
352,256,127586,1,12,0:0:0:0:
160,128,127986,1,0,0:0:0:0:
160,128,128186,1,0,0:0:0:0:
352,128,128386,1,8,0:0:0:0:
160,128,128786,1,0,0:0:0:0:
352,128,129186,1,8,0:0:0:0:
160,128,129586,1,0,0:0:0:0:
160,128,129786,1,0,0:0:0:0:
352,128,129986,1,8,0:0:0:0:
352,128,130186,1,8,0:0:0:0:
352,128,130386,1,8,0:0:0:0:
352,128,130786,1,8,0:0:0:0:
160,128,130986,1,0,0:0:0:0:
352,256,131186,1,12,0:0:0:0:
352,128,131986,1,8,0:0:0:0:
352,128,132386,1,8,0:0:0:0:
352,128,132586,1,8,0:0:0:0:
352,128,132786,1,8,0:0:0:0:
352,128,133186,1,8,0:0:0:0:
352,128,133386,1,8,0:0:0:0:
160,128,133586,1,0,0:0:0:0:
160,128,133786,1,0,0:0:0:0:
352,128,133986,1,8,0:0:0:0:
352,128,134386,1,8,0:0:0:0:
352,128,135186,1,8,0:0:0:0:
352,128,135586,1,8,0:0:0:0:
352,128,135786,1,8,0:0:0:0:
160,128,135986,1,0,0:0:0:0:
352,128,136186,1,8,0:0:0:0:
160,128,136386,1,0,0:0:0:0:
352,128,136786,1,8,0:0:0:0:
352,128,136986,1,8,0:0:0:0:
352,128,137186,1,8,0:0:0:0:
352,256,137586,1,12,0:0:0:0:
352,128,137986,1,8,0:0:0:0:
160,128,138386,1,0,0:0:0:0:
160,128,138786,1,0,0:0:0:0:
352,128,139186,1,8,0:0:0:0:
352,128,139386,1,8,0:0:0:0:
352,128,139586,1,8,0:0:0:0:
160,128,139986,1,0,0:0:0:0:
160,128,140386,1,0,0:0:0:0:
352,128,140786,1,8,0:0:0:0:
352,128,140986,1,8,0:0:0:0:
160,128,141186,1,0,0:0:0:0:
352,128,141586,1,8,0:0:0:0:
352,128,141786,1,8,0:0:0:0:
352,128,141986,1,8,0:0:0:0:
352,128,142186,1,8,0:0:0:0:
160,128,142386,1,0,0:0:0:0:
256,192,144686,12,0,146086,0:0:0:0:
352,128,147186,5,8,0:0:0:0:
352,128,147586,1,8,0:0:0:0:
352,128,147986,1,8,0:0:0:0:
160,256,148386,1,4,0:0:0:0:
352,256,148786,1,12,0:0:0:0:
160,128,149586,1,0,0:0:0:0:
352,128,149786,1,8,0:0:0:0:
160,128,149986,1,0,0:0:0:0:
352,128,150386,1,8,0:0:0:0:
352,128,150786,1,8,0:0:0:0:
160,128,150986,1,0,0:0:0:0:
352,128,151386,1,8,0:0:0:0:
160,128,151586,1,0,0:0:0:0:
160,128,151786,1,0,0:0:0:0:
352,128,151986,1,8,0:0:0:0:
160,128,152786,1,0,0:0:0:0:
352,128,152986,1,8,0:0:0:0:
160,128,153186,1,0,0:0:0:0:
352,128,153586,1,8,0:0:0:0:
352,128,153986,1,8,0:0:0:0:
160,128,154186,1,0,0:0:0:0:
352,128,154586,1,8,0:0:0:0:
160,128,154786,1,0,0:0:0:0:
160,128,154986,1,0,0:0:0:0:
352,256,155186,1,12,0:0:0:0:
352,128,155586,1,8,0:0:0:0:
352,128,155786,1,8,0:0:0:0:
352,128,156186,1,8,0:0:0:0:
160,128,156386,1,0,0:0:0:0:
352,128,156786,1,8,0:0:0:0:
352,128,157186,1,8,0:0:0:0:
352,128,157386,1,8,0:0:0:0:
352,128,157786,1,8,0:0:0:0:
352,128,157986,1,8,0:0:0:0:
160,128,158186,1,0,0:0:0:0:
352,128,158386,1,8,0:0:0:0:
352,128,158786,1,8,0:0:0:0:
352,128,158986,1,8,0:0:0:0:
352,128,159386,1,8,0:0:0:0:
160,128,159586,1,0,0:0:0:0:
352,256,159986,1,12,0:0:0:0:
160,128,160386,1,0,0:0:0:0:
352,128,160786,1,8,0:0:0:0:
160,256,161586,1,4,0:0:0:0:
352,128,162386,1,8,0:0:0:0:
352,128,162586,1,8,0:0:0:0:
160,128,162786,1,0,0:0:0:0:
352,128,163186,1,8,0:0:0:0:
160,128,163586,1,0,0:0:0:0:
352,128,163786,1,8,0:0:0:0:
352,128,163986,1,8,0:0:0:0:
160,128,164386,1,0,0:0:0:0:
352,128,164586,1,8,0:0:0:0:
160,128,164786,1,0,0:0:0:0:
352,128,165586,1,8,0:0:0:0:
160,128,165986,1,0,0:0:0:0:
160,128,166186,1,0,0:0:0:0:
352,128,166386,1,8,0:0:0:0:
160,128,166786,1,0,0:0:0:0:
352,128,166986,1,8,0:0:0:0:
352,128,167186,1,8,0:0:0:0:
160,128,167586,1,0,0:0:0:0:
160,128,167786,1,0,0:0:0:0:
352,256,167986,1,12,0:0:0:0:
160,128,168386,1,0,0:0:0:0:
352,128,168786,1,8,0:0:0:0:
160,128,169086,1,0,0:0:0:0:
352,128,169586,1,8,0:0:0:0:
160,128,169986,1,0,0:0:0:0:
352,128,170386,1,8,0:0:0:0:
160,128,170686,1,0,0:0:0:0:
352,128,171186,1,8,0:0:0:0:
160,128,171586,1,0,0:0:0:0:
352,128,171986,1,8,0:0:0:0:
160,128,172286,1,0,0:0:0:0:
160,128,172786,1,0,0:0:0:0:
352,128,173186,1,8,0:0:0:0:
160,128,173586,1,0,0:0:0:0:
160,128,173786,1,0,0:0:0:0:
352,128,173986,1,8,0:0:0:0:
352,128,174186,1,8,0:0:0:0:
160,256,174386,1,4,0:0:0:0:
256,192,174586,12,0,176386,0:0:0:0:
