osu file format v14

[General]
AudioFilename: audio.mp3
AudioLeadIn: 0
PreviewTime: 44745
Countdown: 0
SampleSet: Soft
StackLeniency: 0.7
Mode: 0
LetterboxInBreaks: 0
WidescreenStoryboard: 0

[Editor]
DistanceSpacing: 0.4
BeatDivisor: 8
GridSize: 4
TimelineZoom: 1.8

[Metadata]
Title:Atashi ga Tonari ni Iru Uchi ni (TV Size)
TitleUnicode:あたしが隣にいるうちに (TV Size)
Artist:Chiai Fujikawa
ArtistUnicode:藤川千愛
Creator:_Deko
Version:owo
Source:盾の勇者の成り上がり
Tags:The Rising of the Shield Hero Japanese Anime Tate no Yuusha no Nariagari ed ending
BeatmapID:2032817
BeatmapSetID:970783

[Difficulty]
HPDrainRate:5
CircleSize:3.8
OverallDifficulty:8
ApproachRate:9
SliderMultiplier:2.8
SliderTickRate:1

[Events]
//Background and Video events
0,0,"bg.jpg",0,0
//Break Periods
//Storyboard Layer 0 (Background)
//Storyboard Layer 1 (Fail)
//Storyboard Layer 2 (Pass)
//Storyboard Layer 3 (Foreground)
//Storyboard Sound Samples

[TimingPoints]
-1573,659.340659340659,4,2,1,45,1,0
734,-133.333333333333,4,2,1,45,0,0
981,-133.333333333333,4,2,1,5,0,0
1064,-133.333333333333,4,2,1,45,0,0
2053,-200,4,2,1,45,0,0
3372,-133.333333333333,4,2,1,45,0,0
3619,-133.333333333333,4,2,1,5,0,0
3702,-133.333333333333,4,2,1,45,0,0
4691,-200,4,2,1,45,0,0
6009,-133.333333333333,4,2,1,45,0,0
7328,-200,4,2,1,45,0,0
7987,-117.647058823529,4,2,1,45,0,0
8647,-200,4,2,1,45,0,0
9306,-117.647058823529,4,2,1,45,0,0
9965,-200,4,2,1,45,0,0
11284,-117.647058823529,4,2,1,45,0,0
12602,-200,4,2,1,45,0,0
14251,-117.647058823529,4,2,1,45,0,0
15158,-117.647058823529,4,2,1,8,0,0
15240,-200,4,2,1,45,0,0
16888,-117.647058823529,4,2,1,45,0,0
17383,-200,4,2,1,45,0,0
18536,-117.647058823529,4,2,1,45,0,0
19361,-200,4,2,1,45,0,0
20762,-200,4,2,1,5,0,0
20844,-200,4,2,1,45,0,0
21092,-200,4,2,1,5,0,0
21174,-200,4,2,1,45,0,0
21421,-200,4,2,1,5,0,0
21504,-100,4,2,1,45,0,0
21751,-100,4,2,1,5,0,0
21833,-100,4,2,1,45,0,0
22081,-100,4,2,1,5,0,0
22163,-200,4,2,1,45,0,0
23811,-100,4,2,1,45,0,0
24059,-100,4,2,1,5,0,0
24141,-100,4,2,1,45,0,0
24388,-100,4,2,1,5,0,0
24471,-100,4,2,1,45,0,0
24800,-200,4,2,1,45,0,0
26943,-117.647058823529,4,2,1,45,0,0
29251,-133.333333333333,4,2,1,45,0,0
29910,-200,4,2,1,45,0,0
32053,-100,4,2,1,45,0,0
32713,-133.333333333333,4,2,1,45,0,0
35020,-100,4,2,1,45,0,0
35350,-133.333333333333,4,2,1,45,0,0
36339,-200,4,2,1,45,0,0
37987,-100,4,2,1,45,0,0
39636,-133.333333333333,4,2,1,45,0,0
40460,-200,4,2,1,45,0,0
44910,-100,4,2,1,45,0,0
45899,-83.3333333333333,4,2,2,65,0,1
48454,-83.3333333333333,4,2,2,5,0,1
48537,-83.3333333333333,4,2,2,65,0,1
69553,-83.3333333333333,4,2,2,5,0,1
69636,-83.3333333333333,4,2,2,65,0,1
76806,-83.3333333333333,4,2,2,5,0,1
76888,-83.3333333333333,4,2,2,65,0,1
85459,-83.3333333333333,4,2,2,60,0,0
86449,-83.3333333333333,4,2,2,35,0,0
86778,-133.333333333333,4,2,2,35,0,0
87273,-200,4,2,2,25,0,0
88097,-1000,4,2,2,15,0,0
88756,-1000,4,2,2,5,0,0

[Colours]
Combo1 : 255,0,0
Combo2 : 0,255,0
Combo3 : 128,0,255
Combo4 : 255,128,0

[HitObjects]
66,137,734,6,0,P|62:101|51:59,1,78.7500030040742,2|0,0:2|0:0,0:0:0:0:
26,33,1064,2,0,P|71:11|133:11,1,105.000004005432,6|2,3:2|0:2,0:0:0:0:
195,88,1558,2,0,B|225:119|268:115|268:115|247:107|237:87,1,105.000004005432,2|2,0:2|0:2,0:0:0:0:
457,71,2053,2,0,B|402:53|402:53|346:66|346:66|296:48|296:48|339:37,1,210,2|0,3:2|3:2,0:0:0:0:
336,37,3372,6,0,P|350:72|356:119,1,78.7500030040742,2|0,0:2|0:0,0:0:0:0:
365,177,3701,2,0,B|344:153|290:146|290:146|317:160|322:175,1,105.000004005432,6|2,3:2|0:2,0:0:0:0:
204,174,4196,2,0,B|172:173|172:173|141:187|141:187|128:210|128:210|161:215,1,105.000004005432,2|2,0:2|0:2,0:0:0:0:
66,284,4690,2,0,B|38:336|71:383|131:401|202:370|190:273|135:205,1,315.000012016297,2|0,3:2|3:2,0:0:0:0:
57,132,6009,5,2,0:2:0:0:
93,33,6174,1,2,0:2:0:0:
165,173,6339,2,0,B|201:190|242:177|242:177|219:164,1,105.000004005432,6|2,3:2|0:2,0:0:0:0:
338,108,6833,2,0,B|377:87|414:98|414:98|404:82|389:73,1,105.000004005432,2|2,0:2|0:2,0:0:0:0:
376,289,7328,2,0,L|386:178,1,105,2|0,3:2|0:0,0:0:0:0:
226,104,7987,6,0,B|255:86|288:88|288:88|316:111|354:107,1,119.000002269745,2|2,0:2|3:2,0:0:0:0:
184,209,8646,2,0,B|199:166|194:143|194:143|221:125|232:86,1,119.000002269745,2|4,0:2|3:2,0:0:0:0:
67,216,9306,2,0,B|112:203|112:203|196:210,1,119.000002269745,2|2,0:2|3:2,0:0:0:0:
142,379,9965,2,0,L|135:305,1,70,2|0,3:2|3:2,0:0:0:0:
242,170,10624,2,0,L|235:239,1,70,0|0,0:0|3:2,0:0:0:0:
385,338,11284,5,2,0:2:0:0:
297,259,11448,1,2,0:2:0:0:
206,336,11613,2,0,B|166:345|143:333|149:320|122:310|91:316,1,119.000002269745,6|2,3:2|0:2,0:0:0:0:
121,169,12108,2,0,B|154:203|155:245|155:245|142:228|127:223,1,119.000002269745,2|2,0:2|0:2,0:0:0:0:
63,81,12602,2,0,P|101:64|141:61,1,70,2|0,3:2|3:2,0:0:0:0:
278,153,13262,2,0,P|244:128|221:95,1,70,2|2,0:2|3:2,0:0:0:0:
339,22,13921,5,2,0:2:0:0:
407,102,14086,1,2,0:2:0:0:
372,201,14251,2,0,B|351:181|332:152|332:152|296:153|259:124,1,119.000002269745,6|2,3:2|0:2,0:0:0:0:
56,220,14910,2,0,L|148:205,1,89.2500017023087,6|0,3:2|0:0,0:0:0:0:
178,215,15240,2,0,P|166:255|163:288,1,70,2|4,3:2|3:2,0:0:0:0:
20,384,15899,2,0,P|15:349|6:316,1,70,2|0,0:2|3:2,0:0:0:0:
121,184,16558,5,2,0:2:0:0:
23,222,16723,1,2,0:2:0:0:
101,92,16888,2,0,B|134:98|160:84|160:84|190:94|218:84,1,119.000002269745,6|2,3:2|0:2,0:0:0:0:
281,190,17383,2,0,P|288:136|297:113,1,70,2|0,0:2|0:0,0:0:0:0:
367,47,17877,1,2,0:2:0:0:
449,113,18042,2,0,P|398:133|374:137,1,70,2|0,0:2|0:0,0:0:0:0:
264,269,18536,2,0,P|322:281|376:305,1,119.000002269745,2|6,0:2|3:2,0:0:0:0:
473,375,19196,5,2,0:2:0:0:
414,288,19361,1,2,0:2:0:0:
414,288,19525,2,0,B|417:225|417:225|431:205|431:205|434:140,1,140,4|0,3:2|3:2,0:0:0:0:
333,58,20514,6,0,P|311:73|284:81,1,52.5,2|0,3:2|0:0,0:0:0:0:
235,152,20844,2,0,P|233:125|239:98,1,52.5,6|0,3:2|0:0,0:0:0:0:
185,30,21174,2,0,P|208:41|229:60,1,52.5,2|0,0:2|0:0,0:0:0:0:
117,109,21503,2,0,L|177:96,1,52.5,2|0,3:2|0:0,0:0:0:0:
154,192,21833,2,0,L|34:166,1,105,2|0,3:2|0:0,0:0:0:0:
21,152,22163,2,0,B|46:181|46:181|58:251,2,105,6|2|2,3:2|0:2|3:2,0:0:0:0:
119,54,23811,6,0,P|160:36|227:30,1,105,2|0,0:2|0:0,0:0:0:0:
264,58,24141,2,0,P|305:76|372:82,1,105,2|0,0:2|0:0,0:0:0:0:
431,32,24470,2,0,P|439:69|444:103,1,70,2|0,0:2|0:0,0:0:0:0:
474,202,24800,2,0,B|432:200|397:179|397:179|399:200|412:213,2,105,6|2|2,3:2|0:2|0:2,0:0:0:0:
301,229,26119,1,0,3:2:0:0:
301,229,26778,5,2,0:2:0:0:
233,327,26943,2,0,P|221:367|216:402,1,59.5000011348725,2|0,0:2|0:0,0:0:0:0:
397,372,27273,1,2,0:2:0:0:
397,372,27437,2,0,P|461:354|529:367,1,119.000002269745,6|2,3:2|0:2,0:0:0:0:
364,296,27932,6,0,B|335:302|319:341|319:341|312:257|244:242,1,178.500003404617,2|2,0:2|0:2,0:0:0:0:
70,322,28591,2,0,B|113:344|157:322|157:322|201:300|244:322,1,178.500003404617,2|2,0:2|0:2,0:0:0:0:
154,158,29251,2,0,P|130:206|122:258,1,105.000004005432,2|2,0:2|0:2,0:0:0:0:
280,297,29745,5,2,0:2:0:0:
203,221,29910,1,2,0:2:0:0:
420,204,30075,2,0,L|275:215,2,140,4|0|0,3:2|3:2|3:2,0:0:0:0:
476,293,31723,5,2,0:2:0:0:
420,204,31888,1,2,0:2:0:0:
501,137,32053,2,0,L|352:121,1,140,2|2,3:2|0:2,0:0:0:0:
257,151,32547,1,2,0:2:0:0:
198,240,32712,2,0,B|249:266|301:240|301:240|353:213|404:240,2,210,6|2|2,3:2|0:2|0:2,0:0:0:0:
102,199,34031,1,0,3:2:0:0:
102,199,34361,5,2,0:2:0:0:
54,136,34525,1,2,0:2:0:0:
99,71,34690,1,2,3:2:0:0:
175,94,34855,1,2,0:2:0:0:
176,173,35020,2,0,P|224:185|262:182,1,70,2|0,0:2|0:0,0:0:0:0:
476,239,35350,6,0,B|413:248|413:248|387:275|387:275|314:280|314:280|283:252,1,210.000008010865,6|0,3:2|3:2,0:0:0:0:
106,362,36339,2,0,B|149:340|193:362|193:362|237:384|271:364|271:364|236:367|215:339,1,210,2|0,0:2|3:2,0:0:0:0:
197,222,37657,5,2,0:2:0:0:
259,307,37822,1,2,0:2:0:0:
380,236,37987,2,0,B|323:216|284:225|284:225|306:207|330:203,1,140,6|2,3:2|0:2,0:0:0:0:
476,124,38481,2,0,B|457:160|476:197|476:197|494:234|476:270,1,140,2|2,0:2|0:2,0:0:0:0:
435,362,38976,1,2,0:2:0:0:
317,320,39141,2,0,B|346:358|346:358|391:385|440:358,1,140,2|0,0:2|0:0,0:0:0:0:
448,236,39635,5,2,0:2:0:0:
296,194,39800,2,0,B|325:183|354:190|354:190|368:166|399:156,2,105.000004005432,0|2|6,0:0|0:2|0:2,0:0:0:0:
329,40,40624,2,0,L|327:113,2,70,0|0|0,3:2|0:0|3:2,0:0:0:0:
254,198,41613,2,0,P|319:157|393:158,1,140,4|0,3:2|3:2,0:0:0:0:
436,244,42602,5,0,3:2:0:0:
316,317,42932,1,2,0:2:0:0:
202,236,43262,2,0,B|149:262|96:236|96:236|43:209|-8:236,1,210,6|0,0:0|0:0,0:0:0:0:
58,319,44580,1,4,3:2:0:0:
205,80,44910,6,0,P|218:117|224:154,1,70,2|0,0:2|0:0,0:0:0:0:
207,323,45240,2,0,P|213:288|225:255,1,70,2|0,0:2|0:0,0:0:0:0:
347,130,45569,1,2,0:2:0:0:
291,219,45734,1,2,0:2:0:0:
400,378,45899,6,0,B|408:264|408:264|387:209,1,167.999994873047,6|2,3:2|3:2,0:0:0:0:
243,128,46394,2,0,B|274:137|297:152|297:152|373:144|391:76,1,167.999994873047,2|0,0:0|0:0,0:0:0:0:
291,10,46888,1,2,3:2:0:0:
249,129,47053,2,0,P|232:173|225:223,1,83.9999974365235,10|0,0:2|3:2,0:0:0:0:
116,338,47383,1,8,0:2:0:0:
213,245,47547,1,0,3:2:0:0:
421,381,47712,5,2,0:0:0:0:
355,274,47877,1,10,0:2:0:0:
285,379,48042,1,2,0:0:0:0:
285,211,48207,2,0,P|356:182|433:187,1,125.999996154785,2|0,3:2|0:0,0:0:0:0:
469,234,48536,6,0,B|497:186|497:186|480:53,1,167.999994873047,2|0,3:2|3:2,0:0:0:0:
328,6,49031,2,0,B|371:28|415:6|415:6|458:-16|502:6,1,167.999994873047,2|0,0:0|0:0,0:0:0:0:
383,131,49525,1,2,3:2:0:0:
259,18,49690,2,0,P|238:55|228:105,1,83.9999974365235,10|0,0:2|3:2,0:0:0:0:
111,217,50020,1,8,0:2:0:0:
263,145,50185,1,0,3:2:0:0:
222,308,50350,5,2,0:0:0:0:
109,185,50514,2,0,P|69:159|30:154,1,83.9999974365235,10|0,0:2|0:0,0:0:0:0:
0,276,50844,1,2,3:2:0:0:
0,276,50926,1,0,3:2:0:0:
0,276,51009,1,2,3:2:0:0:
124,106,51174,6,0,B|159:104|186:96|186:96|246:126|234:198,1,167.999994873047,4|2,3:2|3:2,0:0:0:0:
145,268,51668,1,2,0:0:0:0:
291,184,51833,2,0,B|355:202|355:202|468:178,1,167.999994873047,8|2,0:2|3:2,0:0:0:0:
512,68,52328,1,10,0:2:0:0:
446,175,52492,2,0,P|464:214|475:268,1,83.9999974365235,0|8,3:2|0:2,0:0:0:0:
325,335,52822,6,0,L|406:353,1,83.9999974365235,2|0,3:2|0:0,0:0:0:0:
267,242,53152,2,0,L|210:303,1,83.9999974365235,10|0,0:2|0:0,0:0:0:0:
113,384,53481,1,2,3:2:0:0:
64,223,53646,1,2,3:2:0:0:
64,223,53811,6,0,B|40:166|40:166|52:60,1,167.999994873047,0|0,3:2|3:2,0:0:0:0:
211,8,54306,1,0,0:0:0:0:
287,114,54470,2,0,B|243:136|199:114|199:114|156:92|112:114,1,167.999994873047,8|0,0:2|3:2,0:0:0:0:
49,210,54965,1,8,0:2:0:0:
121,281,55130,1,0,3:2:0:0:
217,312,55295,1,8,0:2:0:0:
316,296,55459,6,0,P|372:277|402:241,1,83.9999974365235,2|0,3:2|0:0,0:0:0:0:
349,78,55789,2,0,P|337:135|353:179,1,83.9999974365235,10|8,0:2|0:2,0:0:0:0:
350,179,56036,1,8,0:2:0:0:
350,179,56119,1,10,0:2:0:0:
223,289,56284,1,8,0:2:0:0:
214,181,56448,6,0,B|258:197|258:197|336:298,2,167.999994873047,6|0|8,3:2|3:2|0:2,0:0:0:0:
88,192,57273,1,0,0:0:0:0:
38,77,57437,2,0,P|12:112|0:161,1,83.9999974365235,2|8,3:2|0:2,0:0:0:0:
88,295,57767,1,0,3:2:0:0:
0,200,57932,1,8,0:2:0:0:
186,207,58097,2,0,L|97:202,1,83.9999974365235,2|0,3:2|0:0,0:0:0:0:
258,140,58426,2,0,L|347:135,1,83.9999974365235,10|0,0:2|0:0,0:0:0:0:
198,46,58756,2,0,L|109:41,1,83.9999974365235,2|0,3:2|0:0,0:0:0:0:
368,53,59086,6,0,B|410:37|410:37|460:87|428:155,1,167.999994873047,2|0,3:2|3:2,0:0:0:0:
512,297,59580,2,0,P|464:275|415:275,1,83.9999974365235,2|8,0:0|0:2,0:0:0:0:
307,277,59910,1,0,0:0:0:0:
378,173,60075,2,0,P|426:151|475:151,1,83.9999974365235,2|8,3:2|0:2,0:0:0:0:
464,22,60405,1,0,3:2:0:0:
488,145,60569,1,8,0:2:0:0:
373,93,60734,2,0,P|323:80|273:85,1,83.9999974365235,2|0,3:2|0:0,0:0:0:0:
197,222,61064,2,0,P|233:185|253:139,1,83.9999974365235,10|0,0:2|0:0,0:0:0:0:
151,74,61394,1,10,0:2:0:0:
151,74,61476,1,8,0:2:0:0:
151,74,61558,1,10,0:2:0:0:
58,214,61723,6,0,B|126:207|126:207|159:182|159:182|232:177,2,167.999994873047,0|2|8,3:2|3:2|0:2,0:0:0:0:
217,270,62547,1,0,0:0:0:0:
282,162,62712,1,2,3:2:0:0:
350,268,62877,1,10,0:2:0:0:
455,198,63042,2,0,L|354:186,1,83.9999974365235,2|8,3:2|0:0,0:0:0:0:
316,74,63372,1,2,3:2:0:0:
387,177,63536,1,2,0:0:0:0:
225,222,63701,2,0,B|232:162|232:162|211:117|211:117|220:44,1,167.999994873047,8|2,0:2|3:2,0:0:0:0:
111,190,64196,1,10,0:2:0:0:
254,36,64361,5,0,3:2:0:0:
387,23,64690,5,8,0:2:0:0:
479,163,65020,5,8,0:2:0:0:
385,260,65350,5,0,3:2:0:0:
246,292,65515,1,8,0:2:0:0:
172,175,65679,5,0,3:2:0:0:
33,143,65844,1,8,0:2:0:0:
78,261,66009,1,2,3:2:0:0:
79,277,66091,1,0,3:2:0:0:
80,293,66174,1,0,3:2:0:0:
81,309,66256,1,0,3:2:0:0:
82,325,66339,2,0,L|86:373,3,41.9999987182618,2|0|0|0,3:2|3:2|3:2|3:2,0:0:0:0:
180,322,66668,2,0,L|183:280,3,41.9999987182618,2|0|2|0,3:2|3:2|3:2|3:2,0:0:0:0:
288,266,66998,6,0,B|354:252|354:252|398:262|398:262|458:249,1,167.999994873047,6|2,3:2|3:2,0:0:0:0:
282,127,67492,2,0,B|243:109|243:109|177:146|221:228,1,167.999994873047,2|0,0:0|0:0,0:0:0:0:
311,356,67987,1,2,3:2:0:0:
203,227,68152,2,0,P|149:209|108:207,1,83.9999974365235,10|0,0:2|3:2,0:0:0:0:
41,354,68481,1,8,0:2:0:0:
168,316,68646,1,0,3:2:0:0:
255,225,68811,5,2,0:0:0:0:
382,263,68976,1,10,0:0:0:0:
276,332,69141,1,2,0:2:0:0:
333,174,69306,2,0,B|382:146|382:146|479:138,1,125.999996154785,2|0,3:2|0:0,0:0:0:0:
468,128,69635,6,0,B|480:185|480:185|460:222|460:222|474:295,1,167.999994873047,2|2,3:2|3:2,0:0:0:0:
333,384,70130,2,0,B|376:405|420:384|420:384|463:361|507:384,1,167.999994873047,2|2,0:0|0:0,0:0:0:0:
365,272,70624,1,0,3:2:0:0:
268,191,70789,2,0,P|220:170|183:164,1,83.9999974365235,10|0,0:2|3:2,0:0:0:0:
94,304,71119,1,8,0:2:0:0:
170,204,71283,1,0,3:2:0:0:
247,304,71448,1,2,0:0:0:0:
324,204,71613,2,0,P|372:183|409:177,1,83.9999974365235,10|0,0:2|0:0,0:0:0:0:
392,304,71943,1,2,3:2:0:0:
392,304,72025,1,0,3:2:0:0:
392,304,72108,1,2,3:2:0:0:
475,209,72273,6,0,B|495:161|495:161|463:45,1,167.999994873047,4|2,3:2|3:2,0:0:0:0:
303,0,72767,1,2,0:0:0:0:
356,203,72932,6,0,B|324:87,1,83.9999974365235,8|0,0:2|0:0,0:0:0:0:
190,33,73262,1,2,3:2:0:0:
26,0,73426,1,10,0:2:0:0:
80,159,73591,1,2,3:2:0:0:
244,126,73755,1,10,0:2:0:0:
183,237,73921,2,0,P|170:280|167:322,1,83.9999974365235,2|0,3:2|0:0,0:0:0:0:
251,125,74251,2,0,P|247:83|234:43,1,83.9999974365235,10|0,0:2|0:0,0:0:0:0:
358,19,74580,1,2,3:2:0:0:
279,117,74745,1,2,3:2:0:0:
378,195,74910,6,0,B|336:215|296:195|296:195|253:174|211:195,2,167.999994873047,0|0|8,3:2|3:2|0:2,0:0:0:0:
373,279,75899,5,0,3:2:0:0:
249,258,76064,1,8,0:2:0:0:
235,383,76229,5,0,3:2:0:0:
214,259,76394,1,8,0:2:0:0:
299,167,76558,2,0,L|308:38,1,125.999996154785,2|0,3:2|0:0,0:0:0:0:
324,28,76888,2,0,P|367:43|408:40,1,83.9999974365235,10|10,0:2|0:2,0:0:0:0:
245,96,77218,2,0,P|274:130|311:148,1,83.9999974365235,10|10,0:2|0:2,0:0:0:0:
174,47,77547,2,0,P|151:109|201:194,2,167.999994873047,6|0|8,3:2|3:2|0:2,0:0:0:0:
419,73,78536,5,2,3:2:0:0:
309,92,78700,1,0,0:0:0:0:
199,176,78865,5,0,3:2:0:0:
89,157,79031,1,0,0:0:0:0:
46,30,79196,2,0,L|29:120,1,83.9999974365235,2|0,3:2|0:0,0:0:0:0:
149,262,79525,2,0,P|105:235|62:231,1,83.9999974365235,10|0,0:2|0:0,0:0:0:0:
245,277,79855,2,0,P|290:252|315:217,1,83.9999974365235,2|0,3:2|3:2,0:0:0:0:
277,129,80185,6,0,B|320:110|364:131|364:131|408:151|451:129,2,167.999994873047,0|0|8,3:2|3:2|0:2,0:0:0:0:
203,244,81174,5,0,3:2:0:0:
312,204,81339,1,8,0:2:0:0:
405,314,81503,5,0,3:2:0:0:
291,291,81668,1,8,0:2:0:0:
201,343,81833,2,0,P|160:356|115:356,1,83.9999974365235,2|8,3:2|0:2,0:0:0:0:
76,275,82080,1,8,0:2:0:0:
76,275,82163,2,0,L|70:173,1,83.9999974365235,10|0,0:0|3:2,0:0:0:0:
185,115,82492,2,0,L|180:198,1,83.9999974365235,2|0,3:2|0:0,0:0:0:0:
154,318,82822,5,12,0:2:0:0:
304,232,83481,5,12,0:2:0:0:
445,221,83811,5,14,0:2:0:0:
369,350,84141,5,12,0:2:0:0:
228,339,84471,5,12,0:2:0:0:
133,207,84800,2,0,P|124:232|118:263,2,55.9999982910157,8|8|8,0:2|0:2|0:2,0:0:0:0:
94,119,85130,2,0,P|73:136|53:159,2,55.9999982910157,8|8|8,0:2|0:2|0:2,0:0:0:0:
125,29,85459,5,4,3:2:0:0:
125,29,86448,6,0,P|173:14|221:12,1,83.9999974365235,2|2,0:2|0:2,0:0:0:0:
309,36,86778,2,0,B|288:63|288:63|279:137,1,105.000004005432,2|2,0:2|0:2,0:0:0:0:
237,230,87273,2,0,L|308:238,2,70,2|2|2,0:2|0:2|0:2,0:0:0:0:
143,277,88097,6,0,L|116:280,1,28,2|0,0:2|0:0,0:0:0:0:
