osu file format v14

[General]
AudioFilename: audio.mp3
AudioLeadIn: 0
PreviewTime: 60712
Countdown: 0
SampleSet: Soft
StackLeniency: 0.6
Mode: 0
LetterboxInBreaks: 0
WidescreenStoryboard: 0

[Editor]
Bookmarks: 61483
DistanceSpacing: 0.7
BeatDivisor: 4
GridSize: 4
TimelineZoom: 1.4

[Metadata]
Title:Liu Guang Zhi Yu
TitleUnicode:流光织雨
Artist:Chi Guo (CV: Ke Ke Wei)
ArtistUnicode:迟菓 (CV: 可可味)
Creator:Bellicose
Version:Sunnyrain Lovestory
Source:三色绘恋S
Tags:HL-GALGAME san se hui lian s tricolour lovestory project lights chinese video game galgame opening short version
BeatmapID:2289401
BeatmapSetID:1095417

[Difficulty]
HPDrainRate:7
CircleSize:4
OverallDifficulty:8.7
ApproachRate:9
SliderMultiplier:1.7
SliderTickRate:1

[Events]
//Background and Video events
0,0,"bg chiguo.jpg",0,0
//Break Periods
//Storyboard Layer 0 (Background)
//Storyboard Layer 1 (Fail)
//Storyboard Layer 2 (Pass)
//Storyboard Layer 3 (Foreground)
//Storyboard Layer 4 (Overlay)
//Storyboard Sound Samples

[TimingPoints]
1312,342.857142857143,4,2,1,50,1,0
1312,-133.333333333333,4,2,1,50,0,0
12283,-100,4,2,1,70,0,0
25654,-133.333333333333,4,2,1,50,0,0
36969,-125,4,2,1,50,0,0
45712,-100,4,2,1,50,0,0
47940,-200,4,2,1,40,0,0
56169,-100,4,2,1,50,0,0
58912,-100,4,2,1,60,0,0
61483,-83.3333333333333,4,2,1,75,0,1
76569,-76.9230769230769,4,2,1,75,0,1
76912,-83.3333333333333,4,2,1,75,0,1
82226,-83.3333333333333,4,2,1,90,0,1
83597,-83.3333333333333,4,2,1,75,0,1
84797,-71.4285714285714,4,2,1,85,0,1
85312,-71.4285714285714,4,2,1,85,0,0
85826,-100,4,2,1,70,0,0
86340,-100,4,2,1,70,0,0
99369,-133.333333333333,4,2,1,50,0,0
99883,-250,4,2,1,50,0,0
99969,-250,4,2,1,5,0,0

[Colours]
Combo1 : 206,151,184
Combo2 : 232,230,125

[HitObjects]
88,210,1312,6,0,P|159:225|192:271,1,127.500004863739,2|0,0:0|0:0,0:0:0:0:
212,346,1826,2,0,P|221:286|297:246,1,127.500004863739,2|2,0:0|0:0,0:0:0:0:
449,143,2512,6,0,L|428:295,1,127.500004863739,2|0,0:0|0:0,0:0:0:0:
357,232,3026,2,0,L|350:168,1,63.7500024318696,2|0,0:0|0:0,0:0:0:0:
288,112,3369,2,0,P|337:123|389:70,1,127.500004863739,2|2,0:0|0:0,0:0:0:0:
210,49,4054,6,0,B|243:68|243:68|223:177,1,127.500004863739,2|0,0:0|0:0,0:0:0:0:
164,211,4569,1,2,0:0:0:0:
164,211,4740,2,0,P|235:206|307:240,1,127.500004863739,2|0,0:0|0:0,0:0:0:0:
271,307,5254,2,0,P|200:312|128:278,1,127.500004863739,2|0,0:0|0:0,0:0:0:0:
66,275,5769,2,0,L|50:360,1,63.7500024318696,2|0,0:0|0:0,0:0:0:0:
112,152,6112,5,2,0:0:0:0:
112,152,6283,1,2,0:0:0:0:
112,152,6454,2,0,L|128:237,1,63.7500024318696,2|0,0:0|0:0,0:0:0:0:
28,107,6797,6,0,P|92:102|137:54,1,127.500004863739,2|0,0:0|0:0,0:0:0:0:
205,13,7312,2,0,L|230:147,1,127.500004863739,2|0,0:0|0:0,0:0:0:0:
191,212,7826,1,2,0:0:0:0:
191,212,7997,6,0,P|247:183|329:200,1,127.500004863739,2|0,0:0|0:0,0:0:0:0:
366,250,8512,2,0,L|356:325,1,63.7500024318696,2|0,0:0|0:0,0:0:0:0:
437,208,8854,2,0,L|428:144,1,63.7500024318696,2|0,0:0|0:0,0:0:0:0:
348,38,9197,2,0,P|323:90|339:125,1,95.6250036478044,2|0,0:0|0:0,0:0:0:0:
350,135,9540,6,0,P|237:54|260:263,1,478.125018239022,2|0,0:0|0:0,0:0:0:0:
273,265,10912,6,0,B|282:221|282:221|264:192,2,63.7500024318696,2|2|2,0:3|0:3|0:3,0:0:0:0:
144,158,11597,5,2,0:3:0:0:
222,130,11769,1,0,3:0:0:0:
164,340,11940,2,0,P|145:302|152:256,1,63.7500024318696,12|2,0:0|0:0,0:0:0:0:
200,231,12197,1,2,0:0:0:0:
200,231,12283,6,0,P|127:249|55:185,1,170,4|10,3:0|0:0,0:0:0:0:
233,67,12797,2,0,L|250:152,1,85,2|0,3:2|0:0,0:0:0:0:
103,70,13140,1,2,3:2:0:0:
111,311,13312,2,0,L|136:177,1,127.5,8|0,0:0|0:0,0:0:0:0:
144,144,13654,5,2,3:2:0:0:
318,265,13826,1,2,3:2:0:0:
206,364,13997,1,10,0:0:0:0:
359,161,14169,2,0,L|449:177,1,85,2|0,3:2|0:0,0:0:0:0:
241,216,14512,1,2,3:2:0:0:
416,380,14683,2,0,P|435:321|416:255,1,127.5,8|0,0:0|0:0,0:0:0:0:
378,245,15026,6,0,B|316:261|316:261|294:292|294:292|229:314,1,170,2|8,3:2|0:0,0:0:0:0:
189,77,15540,2,0,L|272:92,1,85,2|0,3:2|0:0,0:0:0:0:
93,226,15883,1,2,3:2:0:0:
12,95,16054,2,0,L|27:0,1,85,8|0,0:0|0:0,0:0:0:0:
240,171,16397,5,2,3:2:0:0:
60,237,16569,1,0,3:0:0:0:
323,268,16740,1,8,0:0:0:0:
124,85,16912,2,0,L|223:71,1,85,0|2,3:0|0:0,0:0:0:0:
73,320,17254,1,0,3:0:0:0:
73,320,17426,2,0,L|58:225,1,85,10|0,0:0|0:0,0:0:0:0:
290,134,17769,6,0,P|240:195|146:187,1,170,6|8,3:3|0:0,0:0:0:0:
373,361,18283,2,0,P|323:300|229:308,1,170,0|0,3:0|3:0,0:0:0:0:
493,222,18797,2,0,L|386:207,1,85,8|0,0:0|0:0,0:0:0:0:
353,159,19054,1,8,0:0:0:0:
353,159,19140,6,0,L|372:61,1,85,6|0,3:3|0:0,0:0:0:0:
445,301,19483,1,8,0:0:0:0:
196,342,19654,2,0,B|292:342|260:283|353:283,1,170,2|0,3:2|3:0,0:0:0:0:
181,98,20169,2,0,L|203:218,1,85,10|0,0:0|0:0,0:0:0:0:
213,255,20426,1,8,0:0:0:0:
213,255,20512,6,0,P|150:216|56:235,1,170,6|8,3:3|0:0,0:0:0:0:
300,139,21026,2,0,B|285:204|285:204|298:240|298:240|282:330,1,170,0|0,3:0|3:0,0:0:0:0:
181,98,21540,1,8,0:0:0:0:
413,86,21712,6,0,P|336:94|254:44,1,170,6|0,3:3|3:0,0:0:0:0:
489,162,22226,1,8,0:0:0:0:
351,7,22397,1,2,0:0:0:0:
286,304,22569,1,10,0:3:0:0:
470,252,22740,1,2,0:0:0:0:
247,127,22912,1,8,0:3:0:0:
187,380,23083,1,10,0:0:0:0:
99,353,25654,6,0,P|89:303|116:261,1,95.6250036478044,4|0,0:0|0:0,0:0:0:0:
141,238,25997,2,0,P|105:252|27:198,1,127.500004863739,4|0,0:3|0:0,0:0:0:0:
12,130,26512,2,0,L|38:-4,1,127.500004863739,2|2,3:2|0:0,0:0:0:0:
119,7,27026,1,8,0:1:0:0:
119,7,27197,6,0,L|193:18,1,63.7500024318696,2|0,0:0|0:0,0:0:0:0:
295,79,27540,2,0,L|231:88,1,63.7500024318696,2|0,0:0|0:0,0:0:0:0:
109,144,27883,2,0,L|172:153,1,63.7500024318696,2|0,3:2|0:0,0:0:0:0:
288,214,28226,2,0,L|224:223,2,63.7500024318696,2|8|0,0:0|0:1|0:0,0:0:0:0:
367,358,28740,6,0,P|387:313|460:292,1,127.500004863739,2|0,3:2|0:0,0:0:0:0:
504,224,29254,1,0,3:0:0:0:
504,224,29426,2,0,L|425:204,1,63.7500024318696,8|0,0:1|0:0,0:0:0:0:
360,137,29769,1,10,0:1:0:0:
360,137,29941,6,0,P|396:127|445:149,1,63.7500024318696,2|0,0:0|0:0,0:0:0:0:
282,96,30283,2,0,P|272:59|294:10,1,63.7500024318696,2|0,0:0|0:0,0:0:0:0:
242,171,30626,2,0,P|205:180|156:158,1,63.7500024318696,2|0,3:2|0:0,0:0:0:0:
318,211,30969,2,0,P|327:247|305:296,2,63.7500024318696,2|8|2,0:0|0:1|0:0,0:0:0:0:
153,277,31483,6,0,P|192:319|276:320,1,127.500004863739,0|0,3:0|0:0,0:0:0:0:
322,272,31997,2,0,L|308:128,1,127.500004863739,0|2,3:0|0:0,0:0:0:0:
302,65,32512,1,10,0:1:0:0:
302,65,32683,2,0,L|156:86,1,127.500004863739,2|0,0:0|0:0,0:0:0:0:
143,189,33197,6,0,P|193:194|218:183,1,63.7500024318696,2|0,0:0|3:0,0:0:0:0:
58,190,33540,2,0,P|28:231|24:258,1,63.7500024318696,2|0,0:0|0:0,0:0:0:0:
93,119,33883,2,0,P|72:72|50:56,1,63.7500024318696,10|0,0:1|0:0,0:0:0:0:
164,305,34226,6,0,P|173:233|220:178,1,127.500004863739,2|0,3:2|0:0,0:0:0:0:
283,215,34740,2,0,L|425:256,1,127.500004863739,0|0,3:0|0:0,0:0:0:0:
483,278,35254,2,0,L|501:212,1,63.7500024318696,10|2,0:1|0:0,0:0:0:0:
410,35,35597,6,0,L|427:181,1,127.500004863739,4|0,0:0|0:0,0:0:0:0:
283,215,36112,2,0,L|297:88,1,127.500004863739,2|0,0:0|3:0,0:0:0:0:
387,273,36626,1,8,3:3:0:0:
400,296,36969,6,0,B|377:336|377:336|283:315,1,136,4|0,0:3|0:0,0:0:0:0:
147,367,37483,2,0,L|221:361,1,68,10|0,0:0|0:0,0:0:0:0:
314,231,37826,1,2,3:2:0:0:
314,231,37997,2,0,L|240:225,1,68,8|2,0:0|0:0,0:0:0:0:
31,243,38340,5,0,3:0:0:0:
157,278,38512,2,0,L|148:189,1,68,2|0,3:2|0:0,0:0:0:0:
41,107,38854,2,0,L|30:242,1,136,2|2,0:0|3:2,0:0:0:0:
198,70,39369,1,8,0:0:0:0:
219,47,39712,6,0,P|153:62|90:26,1,136,2|0,3:2|0:0,0:0:0:0:
281,112,40226,1,8,0:0:0:0:
281,112,40397,2,0,P|347:97|374:109,1,68,0|0,0:0|3:0,0:0:0:0:
196,136,40740,2,0,L|213:263,1,102,10|0,0:0|0:0,0:0:0:0:
217,280,41083,5,2,3:2:0:0:
217,280,41254,1,0,3:0:0:0:
325,248,41426,2,0,L|333:173,2,68,0|8|2,0:0|0:0|0:0,0:0:0:0:
310,364,41940,1,0,3:0:0:0:
476,330,42112,1,8,0:0:0:0:
505,324,42454,6,0,P|420:326|387:378,1,136,2|2,3:2|0:0,0:0:0:0:
211,285,42969,2,0,P|296:283|329:231,1,136,10|2,0:0|3:2,0:0:0:0:
505,181,43483,2,0,L|414:169,1,68,10|2,0:0|0:0,0:0:0:0:
328,142,43826,5,0,3:0:0:0:
437,284,43997,1,0,3:0:0:0:
328,142,44169,2,0,L|332:52,2,68,0|8|2,0:0|0:0|0:0,0:0:0:0:
324,247,44683,1,0,3:0:0:0:
467,107,44854,1,8,0:0:0:0:
485,88,45197,6,0,P|503:132|483:229,1,136,6|10,3:2|0:0,0:0:0:0:
244,50,45712,2,0,P|312:44|402:124,1,170,6|0,3:3|3:0,0:0:0:0:
136,89,46226,1,8,0:0:0:0:
136,89,46569,5,4,3:2:0:0:
350,213,46740,1,8,0:3:0:0:
232,280,46912,1,8,0:3:0:0:
391,100,47083,2,0,L|373:0,1,85,4|0,3:3|0:0,0:0:0:0:
120,172,47426,2,0,L|138:72,1,85,8|0,0:3|3:0,0:0:0:0:
380,229,47769,1,2,0:0:0:0:
211,369,47940,6,0,L|117:358,2,85,4|2|2,3:3|0:0|0:0,0:0:0:0:
44,342,48969,5,2,0:0:0:0:
44,342,49140,2,0,L|52:398,1,42.5,2|0,0:0|0:0,0:0:0:0:
107,236,49483,2,0,L|99:292,1,42.5,2|0,0:0|0:0,0:0:0:0:
32,145,49826,2,0,L|40:201,1,42.5,2|0,0:0|0:0,0:0:0:0:
93,87,50169,5,2,0:0:0:0:
93,87,50340,1,2,0:0:0:0:
93,87,50512,2,0,P|129:113|175:102,1,85,2|2,0:0|0:0,0:0:0:0:
261,62,51026,2,0,P|230:50|212:50,1,42.5,2|0,0:0|0:0,0:0:0:0:
167,107,51369,1,2,0:0:0:0:
167,107,51540,6,0,L|177:203,1,85,2|2,0:0|0:0,0:0:0:0:
64,322,52226,2,0,L|72:237,1,85,2|2,0:0|0:0,0:0:0:0:
227,302,52912,1,4,0:0:0:0:
227,302,53083,1,2,0:0:0:0:
227,302,53254,6,0,P|289:310|335:255,1,127.5,2|2,0:0|0:0,0:0:0:0:
331,267,54112,2,0,P|302:298|300:356,1,85,2|2,0:0|0:0,0:0:0:0:
409,255,54626,6,0,P|437:278|446:294,1,42.5,2|0,0:0|0:0,0:0:0:0:
362,191,54969,2,0,P|367:155|377:139,1,42.5,2|0,0:0|0:0,0:0:0:0:
331,267,55312,2,0,P|297:279|244:270,1,85,2|2,0:0|0:0,0:0:0:0:
370,149,55826,1,2,0:0:0:0:
370,149,55997,1,2,0:0:0:0:
270,22,56169,6,0,L|287:203,1,170,6|2,3:3|0:0,0:0:0:0:
167,302,56683,1,0,3:0:0:0:
167,302,56854,2,0,L|182:132,1,170,10|2,0:0|0:0,0:0:0:0:
101,24,57369,1,2,0:0:0:0:
69,146,57540,5,0,3:0:0:0:
270,22,57712,2,0,L|259:136,1,85,10|0,0:0|0:0,0:0:0:0:
113,36,58054,1,2,3:2:0:0:
250,184,58226,5,12,0:0:0:0:
394,84,58397,1,8,0:3:0:0:
485,274,58569,5,0,3:0:0:0:
367,213,58740,1,0,3:0:0:0:
216,361,58912,6,0,P|289:310|389:332,1,170,6|2,3:3|0:0,0:0:0:0:
46,207,59426,2,0,P|82:244|204:253,1,170,2|2,0:0|0:0,0:0:0:0:
96,358,59940,1,2,0:0:0:0:
311,217,60112,1,2,0:0:0:0:
94,63,60283,5,8,0:3:0:0:
122,228,60454,1,2,0:0:0:0:
130,207,60540,1,8,0:0:0:0:
138,186,60626,1,8,0:0:0:0:
231,250,60797,5,2,3:2:0:0:
6,158,60969,1,10,0:0:0:0:
311,54,61140,1,10,0:0:0:0:
311,54,61483,6,0,L|339:267,1,203.999993774414,6|0,3:3|3:0,0:0:0:0:
406,51,61997,1,10,0:0:0:0:
241,261,62169,1,2,0:0:0:0:
241,261,62254,1,10,0:0:0:0:
241,261,62340,1,2,3:2:0:0:
425,164,62512,1,2,3:2:0:0:
166,50,62683,2,0,L|60:46,1,101.999996887207,8|2,0:0|0:0,0:0:0:0:
165,334,63026,5,2,3:2:0:0:
293,198,63197,1,2,0:0:0:0:
74,168,63369,1,10,0:0:0:0:
336,315,63540,1,2,0:0:0:0:
336,315,63626,1,10,0:0:0:0:
336,315,63712,1,0,3:0:0:0:
212,177,63883,1,0,3:0:0:0:
366,46,64054,2,0,L|363:147,1,101.999996887207,10|2,0:0|0:0,0:0:0:0:
208,360,64397,6,0,P|183:298|73:289,1,152.999995330811,2|0,3:2|0:0,0:0:0:0:
72,289,64740,1,10,0:0:0:0:
316,219,64912,1,2,0:0:0:0:
316,219,64997,1,10,0:0:0:0:
316,219,65083,1,2,3:2:0:0:
172,156,65254,1,2,3:2:0:0:
384,328,65426,2,0,L|399:198,1,101.999996887207,8|2,0:0|0:0,0:0:0:0:
266,42,65769,6,0,L|277:143,1,101.999996887207,0|0,3:0|0:0,0:0:0:0:
430,45,66112,1,10,0:0:0:0:
172,156,66283,1,2,0:0:0:0:
172,156,66369,1,10,0:0:0:0:
172,156,66454,1,0,3:0:0:0:
395,226,66626,1,0,3:0:0:0:
169,367,66797,2,0,L|180:266,1,101.999996887207,10|0,0:0|0:0,0:0:0:0:
36,66,67140,6,0,P|10:120|46:201,1,152.999995330811,2|0,3:2|0:0,0:0:0:0:
81,199,67483,2,0,B|144:188|114:161|207:148,1,101.999996887207,10|2,0:0|0:0,0:0:0:0:
246,158,67740,1,10,0:0:0:0:
246,158,67826,1,0,3:0:0:0:
86,293,67997,1,2,3:2:0:0:
340,142,68169,2,0,L|358:250,1,101.999996887207,8|2,0:0|0:0,0:0:0:0:
172,37,68512,6,0,L|151:256,1,203.999993774414,0|10,3:0|0:0,0:0:0:0:
82,60,69026,1,2,0:0:0:0:
82,60,69112,1,10,0:0:0:0:
82,60,69197,1,2,3:2:0:0:
242,217,69369,1,0,3:0:0:0:
11,160,69540,2,0,L|123:145,1,101.999996887207,10|0,0:0|0:0,0:0:0:0:
343,79,69883,5,2,3:2:0:0:
220,300,70054,1,0,3:0:0:0:
268,24,70226,1,10,0:0:0:0:
384,315,70397,1,2,0:0:0:0:
384,315,70483,1,10,0:0:0:0:
384,315,70569,1,0,3:0:0:0:
152,240,70740,1,2,0:0:0:0:
487,182,70912,1,10,0:0:0:0:
291,378,71083,6,0,L|312:151,1,203.999993774414,6|0,3:2|3:0,0:0:0:0:
161,15,71597,2,0,L|172:156,1,101.999996887207,8|2,0:0|0:0,0:0:0:0:
299,25,71940,1,2,3:2:0:0:
79,101,72112,1,2,0:0:0:0:
386,184,72283,2,0,B|401:136|385:108|385:108|369:126,1,101.999996887207,10|2,3:2|0:0,0:0:0:0:
309,174,72540,1,10,0:0:0:0:
309,174,72626,6,0,P|211:188|171:123,1,152.999995330811,6|0,3:3|0:0,0:0:0:0:
168,116,72969,2,0,L|151:224,1,101.999996887207,10|2,0:0|0:0,0:0:0:0:
283,90,73312,1,2,3:0:0:0:
138,24,73483,1,2,3:0:0:0:
275,252,73654,2,0,L|387:244,1,101.999996887207,8|2,0:0|0:0,0:0:0:0:
83,365,73997,6,0,P|57:313|92:249,1,101.999996887207,0|0,3:0|0:0,0:0:0:0:
138,24,74340,2,0,P|164:76|129:140,1,101.999996887207,10|2,0:0|0:0,0:0:0:0:
107,174,74597,1,10,0:0:0:0:
107,174,74683,1,0,3:0:0:0:
290,52,74854,1,0,3:0:0:0:
41,26,75026,5,10,0:0:0:0:
309,145,75197,2,0,L|373:144,1,50.9999984436036,2|8,0:0|0:0,0:0:0:0:
83,365,75369,6,0,P|50:289|152:210,1,203.999993774414,6|10,3:2|0:0,0:0:0:0:
384,285,75883,2,0,P|334:351|215:302,1,203.999993774414,2|2,3:2|3:2,0:0:0:0:
462,170,76397,1,10,0:0:0:0:
295,270,76569,6,0,L|274:43,1,220.999989883423,6|0,3:3|3:0,0:0:0:0:
385,223,77083,1,8,0:0:0:0:
163,62,77254,1,2,0:0:0:0:
163,62,77340,1,10,0:0:0:0:
163,62,77426,1,8,3:2:0:0:
370,129,77597,1,8,0:3:0:0:
156,214,77769,1,10,0:3:0:0:
374,34,77940,1,2,3:2:0:0:
150,306,78112,6,0,P|88:273|94:152,1,203.999993774414,6|2,3:3|3:2,0:0:0:0:
321,295,78626,2,0,P|268:263|204:282,1,101.999996887207,2|0,0:0|3:0,0:0:0:0:
451,315,78969,2,0,P|395:342|377:407,1,101.999996887207,2|0,0:0|3:0,0:0:0:0:
332,84,79312,6,0,P|394:117|388:238,1,203.999993774414,2|2,0:0|0:0,0:0:0:0:
196,19,79826,2,0,L|327:5,1,101.999996887207,2|0,3:2|0:0,0:0:0:0:
149,105,80169,2,0,L|18:91,1,101.999996887207,0|0,3:0|0:0,0:0:0:0:
219,185,80512,2,0,L|350:171,1,101.999996887207,2|0,3:2|0:0,0:0:0:0:
3,309,80854,6,0,P|97:298|114:187,1,203.999993774414,2|2,3:2|3:2,0:0:0:0:
309,377,81369,1,0,0:0:0:0:
309,377,81540,2,0,L|321:159,1,203.999993774414,2|0,3:2|3:0,0:0:0:0:
405,345,82054,1,0,0:0:0:0:
212,358,82226,5,2,3:2:0:0:
463,280,82397,1,8,0:0:0:0:
108,203,82569,5,0,3:0:0:0:
378,262,82740,1,2,0:0:0:0:
163,23,82912,5,0,3:0:0:0:
320,327,83083,1,8,0:0:0:0:
306,108,83254,5,2,3:2:0:0:
212,358,83426,1,2,0:0:0:0:
498,292,83597,6,0,P|373:279|308:351,1,203.999993774414,6|10,3:2|0:0,0:0:0:0:
36,123,84112,2,0,P|161:136|226:64,1,203.999993774414,6|10,3:3|0:3,0:0:0:0:
8,261,84626,1,8,0:3:0:0:
217,361,84797,6,0,L|202:193,1,118.999996368408,6|0,3:3|0:0,0:0:0:0:
109,47,85140,1,8,3:2:0:0:
465,135,85312,1,8,3:2:0:0:
361,353,85826,5,0,3:0:0:0:
361,353,85912,1,0,3:0:0:0:
361,353,85997,2,0,P|341:307|348:258,1,85,8|2,0:0|0:0,0:0:0:0:
387,213,86254,1,2,0:0:0:0:
387,213,86340,6,0,P|309:229|282:210,1,85,6|2,3:3|0:0,0:0:0:0:
454,169,86683,1,8,0:0:0:0:
325,64,86854,2,0,L|336:161,1,85,2|0,3:2|0:0,0:0:0:0:
400,19,87197,1,2,3:2:0:0:
191,140,87369,2,0,P|126:142|73:67,1,127.5,8|0,0:0|0:0,0:0:0:0:
73,73,87712,5,2,3:2:0:0:
259,170,87883,1,2,3:2:0:0:
199,37,88054,1,10,0:0:0:0:
101,243,88226,2,0,L|14:235,1,85,2|0,3:2|0:0,0:0:0:0:
191,140,88569,1,2,3:2:0:0:
283,355,88740,2,0,P|278:284|326:239,1,127.5,8|0,0:0|0:0,0:0:0:0:
343,245,89083,6,0,B|408:255|408:255|434:287|434:287|517:302,1,170,2|8,3:2|0:0,0:0:0:0:
369,75,89597,2,0,L|352:192,1,85,2|0,3:2|0:0,0:0:0:0:
490,66,89940,1,2,3:2:0:0:
248,84,90112,2,0,L|260:0,1,85,8|0,0:0|0:0,0:0:0:0:
311,257,90454,5,2,3:2:0:0:
111,198,90626,1,0,3:0:0:0:
356,159,90797,1,8,0:0:0:0:
214,363,90969,2,0,L|201:278,1,85,0|0,3:0|0:0,0:0:0:0:
37,119,91312,1,0,3:0:0:0:
37,119,91483,2,0,L|24:203,1,85,8|8,0:0|0:3,0:0:0:0:
70,268,91740,1,8,0:3:0:0:
70,268,91826,6,0,P|129:229|205:291,1,170,6|8,3:3|0:0,0:0:0:0:
389,102,92340,2,0,L|186:125,1,170,0|0,3:0|3:0,0:0:0:0:
374,360,92854,2,0,P|377:287|351:253,1,85,8|0,0:0|0:0,0:0:0:0:
301,275,93112,1,8,0:0:0:0:
301,275,93197,6,0,P|380:287|421:218,1,170,6|8,3:3|0:0,0:0:0:0:
342,19,93712,2,0,P|305:60|341:178,1,170,2|0,3:2|3:0,0:0:0:0:
224,353,94226,2,0,P|208:272|180:254,1,85,8|0,0:0|0:0,0:0:0:0:
142,302,94483,1,8,0:0:0:0:
142,302,94569,6,0,P|85:326|8:241,1,170,6|8,3:3|0:0,0:0:0:0:
9,263,95083,1,0,0:0:0:0:
160,139,95254,2,0,L|150:255,1,85,0|0,3:0|0:0,0:0:0:0:
26,58,95597,1,8,0:0:0:0:
306,123,95769,6,0,B|197:113|264:59|151:44,1,170,6|4,3:2|0:3,0:0:0:0:
54,170,96283,1,10,0:0:0:0:
298,43,96454,1,2,3:2:0:0:
383,321,96626,1,10,0:0:0:0:
152,223,96797,1,10,0:0:0:0:
447,194,96969,1,0,3:0:0:0:
256,336,97140,1,8,0:3:0:0:
256,336,97226,1,10,0:3:0:0:
256,80,99369,6,0,L|256:160,2,63.7500024318696,2|2|2,0:0|0:0|0:0,0:0:0:0:
256,240,99883,1,4,0:3:0:0:
256,192,99969,12,0,105540,0:0:0:0:
