osu file format v14

[General]
AudioFilename: audio.mp3
AudioLeadIn: 0
PreviewTime: 60712
Countdown: 0
SampleSet: Soft
StackLeniency: 0.6
Mode: 0
LetterboxInBreaks: 0
WidescreenStoryboard: 0

[Editor]
Bookmarks: 61483
DistanceSpacing: 0.8
BeatDivisor: 4
GridSize: 4
TimelineZoom: 1.4

[Metadata]
Title:Liu Guang Zhi Yu
TitleUnicode:流光织雨
Artist:Chi Guo (CV: Ke Ke Wei)
ArtistUnicode:迟菓 (CV: 可可味)
Creator:Bellicose
Version:Insane
Source:三色绘恋S
Tags:HL-GALGAME san se hui lian s tricolour lovestory project lights chinese video game galgame opening short version
BeatmapID:2289619
BeatmapSetID:1095417

[Difficulty]
HPDrainRate:6
CircleSize:3.8
OverallDifficulty:8
ApproachRate:8.8
SliderMultiplier:1.7
SliderTickRate:1

[Events]
//Background and Video events
0,0,"bg ye xin.jpg",0,0
//Break Periods
2,48140,52283
//Storyboard Layer 0 (Background)
//Storyboard Layer 1 (Fail)
//Storyboard Layer 2 (Pass)
//Storyboard Layer 3 (Foreground)
//Storyboard Layer 4 (Overlay)
//Storyboard Sound Samples

[TimingPoints]
1312,342.857142857143,4,2,1,50,1,0
1312,-133.333333333333,4,2,1,50,0,0
12283,-100,4,2,1,70,0,0
25654,-133.333333333333,4,2,1,50,0,0
36969,-125,4,2,1,50,0,0
45712,-100,4,2,1,50,0,0
47940,-200,4,2,1,40,0,0
56169,-100,4,2,1,50,0,0
58912,-100,4,2,1,60,0,0
61483,-83.3333333333333,4,2,1,75,0,1
76569,-76.9230769230769,4,2,1,75,0,1
76912,-83.3333333333333,4,2,1,75,0,1
82226,-83.3333333333333,4,2,1,90,0,1
83597,-83.3333333333333,4,2,1,75,0,1
84797,-71.4285714285714,4,2,1,85,0,1
85312,-71.4285714285714,4,2,1,85,0,0
85826,-100,4,2,1,70,0,0
86340,-100,4,2,1,70,0,0
99369,-133.333333333333,4,2,1,50,0,0
99883,-250,4,2,1,50,0,0
99969,-250,4,2,1,5,0,0

[Colours]
Combo1 : 206,151,184
Combo2 : 232,230,125

[HitObjects]
74,122,1312,6,0,P|141:126|191:174,1,127.500004863739,2|0,0:0|0:0,0:0:0:0:
214,241,1826,2,0,P|217:199|283:141,1,127.500004863739,2|2,0:0|0:0,0:0:0:0:
306,344,2512,6,0,L|167:329,1,127.500004863739,2|0,0:0|0:0,0:0:0:0:
141,256,3026,2,0,P|122:324|49:352,2,127.500004863739,2|2|2,0:0|0:0|0:0,0:0:0:0:
29,123,4054,6,0,L|43:253,1,127.500004863739,2|0,0:0|0:0,0:0:0:0:
141,256,4569,1,2,0:0:0:0:
141,256,4740,2,0,L|154:129,1,127.500004863739,2|0,0:0|0:0,0:0:0:0:
130,37,5254,2,0,P|159:71|258:75,1,127.500004863739,2|0,0:0|0:0,0:0:0:0:
316,55,5769,1,2,0:0:0:0:
302,226,6112,1,2,0:0:0:0:
302,226,6283,1,2,0:0:0:0:
302,226,6454,2,0,L|229:214,1,63.7500024318696,2|0,0:0|0:0,0:0:0:0:
389,196,6797,6,0,P|357:238|359:318,1,127.500004863739,2|0,0:0|0:0,0:0:0:0:
435,336,7312,2,0,P|467:294|465:214,1,127.500004863739,2|0,0:0|0:0,0:0:0:0:
389,196,7826,1,2,0:0:0:0:
389,196,7997,2,0,L|257:205,1,127.500004863739,2|0,0:0|0:0,0:0:0:0:
182,229,8512,2,0,L|190:101,2,127.500004863739,2|2|2,0:0|0:0|0:0,0:0:0:0:
320,102,9540,5,2,0:0:0:0:
256,192,9626,12,2,10912,0:3:0:0:
256,192,11254,6,0,L|244:266,2,63.7500024318696,2|0|2,0:3|0:0|0:3,0:0:0:0:
185,328,11769,1,0,3:0:0:0:
46,244,11940,2,0,P|94:259|157:236,1,95.6250036478044,12|0,0:0|0:0,0:0:0:0:
163,215,12283,6,0,L|146:43,1,170,4|10,3:0|0:0,0:0:0:0:
374,112,12797,2,0,B|264:128|264:128|242:162|309:179,1,170,2|2,3:2|3:2,0:0:0:0:
422,29,13312,1,8,0:0:0:0:
422,29,13654,6,0,P|462:44|510:34,1,85,2|2,3:2|3:2,0:0:0:0:
454,198,13997,1,10,0:0:0:0:
454,198,14169,2,0,L|267:168,1,170,2|2,3:2|3:2,0:0:0:0:
391,341,14683,1,8,0:0:0:0:
391,341,15026,6,0,P|456:362|515:286,1,170,2|8,3:2|0:0,0:0:0:0:
353,216,15540,2,0,L|330:388,1,170,2|2,3:2|3:2,0:0:0:0:
248,158,16054,2,0,P|244:107|281:62,1,85,8|0,0:0|0:0,0:0:0:0:
298,59,16312,1,0,0:0:0:0:
298,59,16397,6,0,L|412:78,1,85,2|0,3:2|3:0,0:0:0:0:
165,125,16740,1,8,0:0:0:0:
353,216,16912,2,0,P|307:205|198:264,1,170,0|0,3:0|3:0,0:0:0:0:
22,270,17426,2,0,P|87:275|131:329,1,127.5,10|0,0:0|0:0,0:0:0:0:
126,361,17769,6,0,B|80:344|80:344|118:210,1,170,6|8,3:3|0:0,0:0:0:0:
6,58,18283,2,0,P|52:90|19:184,1,170,0|0,3:0|3:0,0:0:0:0:
236,149,18797,2,0,L|112:165,1,85,8|0,0:0|0:0,0:0:0:0:
113,227,19054,1,8,0:0:0:0:
113,227,19140,6,0,P|142:294|263:294,1,170,6|8,3:3|0:0,0:0:0:0:
430,225,19654,2,0,P|352:199|286:247,1,170,2|0,3:2|3:0,0:0:0:0:
482,366,20169,1,10,0:0:0:0:
482,366,20512,6,0,B|487:290|487:290|508:266|508:266|513:198,1,170,6|8,3:3|0:0,0:0:0:0:
437,99,21026,2,0,P|397:125|439:227,1,170,0|0,3:0|3:0,0:0:0:0:
507,40,21540,1,8,0:0:0:0:
253,29,21712,6,0,L|454:13,1,170,6|0,3:3|3:0,0:0:0:0:
302,179,22226,1,8,0:0:0:0:
401,121,22397,1,2,0:0:0:0:
217,154,22569,1,10,0:3:0:0:
360,279,22740,2,0,L|372:207,2,42.5,2|0|8,0:0|0:0|0:3,0:0:0:0:
147,333,23083,1,10,0:0:0:0:
160,279,25654,6,0,P|119:311|52:299,1,95.6250036478044,4|0,0:0|0:0,0:0:0:0:
36,301,25997,2,0,L|55:153,1,127.500004863739,4|0,0:3|0:0,0:0:0:0:
19,97,26512,2,0,P|52:125|150:126,1,127.500004863739,2|2,3:2|0:0,0:0:0:0:
188,70,27026,1,8,0:1:0:0:
188,70,27197,6,0,L|181:219,1,127.500004863739,2|2,0:0|0:0,0:0:0:0:
142,271,27712,1,0,0:0:0:0:
142,271,27883,2,0,P|192:248|286:268,1,127.500004863739,2|2,3:2|0:0,0:0:0:0:
324,310,28397,1,8,0:1:0:0:
473,156,28740,6,0,L|486:301,1,127.500004863739,2|0,3:2|0:0,0:0:0:0:
409,319,29254,2,0,L|396:174,1,127.500004863739,0|0,3:0|0:0,0:0:0:0:
447,126,29769,1,10,0:1:0:0:
447,126,29940,6,0,P|389:143|318:103,1,127.500004863739,2|2,0:0|0:0,0:0:0:0:
281,55,30454,1,0,0:0:0:0:
281,55,30626,2,0,L|269:204,1,127.500004863739,2|2,3:2|0:0,0:0:0:0:
343,223,31140,2,0,L|339:310,1,63.7500024318696,8|2,0:1|0:0,0:0:0:0:
300,359,31483,6,0,P|271:336|163:318,1,127.500004863739,0|0,3:0|0:0,0:0:0:0:
109,351,31997,2,0,P|133:294|104:216,1,127.500004863739,0|2,3:0|0:0,0:0:0:0:
46,188,32512,2,0,L|58:113,1,63.7500024318696,10|2,0:1|0:0,0:0:0:0:
67,43,32854,6,0,P|132:32|192:88,1,127.500004863739,0|2,0:0|0:0,0:0:0:0:
176,151,33369,1,0,3:0:0:0:
176,151,33540,2,0,L|318:136,1,127.500004863739,2|10,0:0|0:1,0:0:0:0:
417,323,34226,6,0,L|275:308,1,127.500004863739,2|0,3:2|0:0,0:0:0:0:
227,364,34740,2,0,P|207:311|237:244,1,127.500004863739,0|0,3:0|0:0,0:0:0:0:
314,231,35254,2,0,L|401:238,1,63.7500024318696,10|2,0:1|0:0,0:0:0:0:
454,130,35597,6,0,L|470:279,1,127.500004863739,4|0,0:0|0:0,0:0:0:0:
367,151,36112,2,0,L|381:25,1,127.500004863739,2|0,0:0|3:0,0:0:0:0:
454,130,36626,1,8,3:3:0:0:
247,116,36969,6,0,P|321:114|377:169,1,136,4|0,0:3|0:0,0:0:0:0:
384,299,37483,2,0,L|400:220,1,68,10|0,0:0|0:0,0:0:0:0:
291,266,37826,1,2,3:2:0:0:
291,266,37997,2,0,L|212:260,1,68,8|2,0:0|0:0,0:0:0:0:
60,313,38340,5,0,3:0:0:0:
60,313,38512,2,0,P|127:311|174:383,1,136,2|2,3:2|0:0,0:0:0:0:
170,359,39026,1,0,0:0:0:0:
82,199,39197,1,2,3:2:0:0:
222,128,39369,2,0,B|229:204|229:204|209:220,1,102,8|0,0:0|0:0,0:0:0:0:
164,223,39712,6,0,P|210:186|300:206,1,136,2|0,3:2|0:0,0:0:0:0:
310,340,40226,2,0,L|328:252,1,68,8|0,0:0|0:0,0:0:0:0:
425,136,40569,1,0,3:0:0:0:
425,136,40740,2,0,L|407:48,1,68,10|0,0:0|0:0,0:0:0:0:
283,193,41083,5,2,3:2:0:0:
283,193,41254,2,0,P|351:192|412:257,1,136,0|8,3:0|0:0,0:0:0:0:
401,233,41769,1,2,0:0:0:0:
279,110,41940,1,0,3:0:0:0:
150,276,42112,2,0,B|230:270|230:270|221:301,1,102,8|0,0:0|0:0,0:0:0:0:
197,326,42454,6,0,P|172:233|202:186,1,136,2|2,3:2|0:0,0:0:0:0:
71,67,42969,2,0,P|89:130|61:191,1,136,10|2,0:0|3:2,0:0:0:0:
235,129,43483,2,0,L|307:139,1,68,10|2,0:0|0:0,0:0:0:0:
157,32,43826,5,0,3:0:0:0:
157,32,43997,2,0,L|309:15,1,136,0|8,3:0|0:0,0:0:0:0:
292,16,44512,1,2,0:0:0:0:
410,85,44683,1,0,3:0:0:0:
340,226,44854,2,0,P|302:171|307:119,1,102,8|0,0:0|0:0,0:0:0:0:
323,99,45197,6,0,P|311:149|226:175,1,136,6|10,3:2|0:0,0:0:0:0:
41,314,45712,2,0,L|216:296,1,170,6|0,3:3|3:0,0:0:0:0:
53,109,46226,2,0,P|89:136|73:224,1,127.5,8|0,0:0|0:0,0:0:0:0:
53,229,46569,5,4,3:2:0:0:
203,109,46740,2,0,L|190:4,1,85,8|8,0:3|0:3,0:0:0:0:
318,175,47083,2,0,B|195:197|195:197|250:221,1,170,4|8,3:3|0:3,0:0:0:0:
307,355,47597,2,0,L|312:263,1,85,0|2,3:0|0:0,0:0:0:0:
384,106,47940,5,4,3:3:0:0:
200,92,52912,5,4,0:0:0:0:
200,92,53083,2,0,P|240:90|258:81,1,42.5,2|2,0:0|0:0,0:0:0:0:
279,48,53426,6,0,P|280:103|449:151,1,255,2|2,0:0|0:0,0:0:0:0:
412,325,54797,6,0,L|326:308,1,85,2|0,0:0|0:0,0:0:0:0:
315,254,55312,2,0,P|284:298|206:300,1,127.5,2|2,0:0|0:0,0:0:0:0:
53,198,56169,6,0,P|25:239|80:336,1,170,6|2,3:3|0:0,0:0:0:0:
167,160,56683,1,0,3:0:0:0:
167,160,56854,2,0,L|161:55,1,85,10|0,0:0|0:0,0:0:0:0:
269,249,57197,2,0,L|275:144,1,85,2|2,0:0|0:0,0:0:0:0:
187,320,57540,5,0,3:0:0:0:
187,320,57712,2,0,B|231:289|231:289|345:326,1,170,10|2,0:0|3:2,0:0:0:0:
502,230,58226,1,12,0:0:0:0:
463,340,58397,1,8,0:3:0:0:
378,219,58569,2,0,L|402:123,1,85,0|0,3:0|3:0,0:0:0:0:
204,34,58912,6,0,P|254:64|275:169,1,170,6|2,3:3|0:0,0:0:0:0:
96,254,59426,2,0,P|104:173|212:170,1,170,2|2,0:0|0:0,0:0:0:0:
308,255,59940,2,0,L|395:250,1,85,2|2,0:0|0:0,0:0:0:0:
307,100,60283,5,8,0:3:0:0:
197,229,60454,1,2,0:0:0:0:
197,229,60540,1,8,0:0:0:0:
197,229,60626,2,0,P|193:170|157:133,1,85,8|2,0:0|3:2,0:0:0:0:
45,375,60969,1,10,0:0:0:0:
239,326,61140,1,10,0:0:0:0:
239,326,61483,6,0,L|30:289,1,203.999993774414,6|0,3:3|3:0,0:0:0:0:
179,149,61997,2,0,L|71:159,1,101.999996887207,10|2,0:0|0:0,0:0:0:0:
271,200,62340,1,2,3:2:0:0:
271,200,62512,2,0,P|284:133|263:89,1,101.999996887207,2|8,3:2|0:0,0:0:0:0:
119,33,62854,6,0,L|139:259,1,203.999993774414,2|2,0:0|0:0,0:0:0:0:
33,356,63369,2,0,P|8:312|9:261,1,101.999996887207,10|2,0:0|0:0,0:0:0:0:
35,231,63626,1,10,0:0:0:0:
35,231,63712,2,0,L|157:237,1,101.999996887207,0|0,3:0|3:0,0:0:0:0:
302,347,64054,2,0,L|180:353,1,101.999996887207,10|2,0:0|0:0,0:0:0:0:
240,81,64397,6,0,P|279:121|261:271,2,203.999993774414,2|10|2,3:2|0:0|3:2,0:0:0:0:
166,211,65254,1,2,3:2:0:0:
15,107,65426,2,0,L|30:4,1,101.999996887207,8|2,0:0|0:0,0:0:0:0:
166,211,65769,6,0,P|128:257|-4:232,1,203.999993774414,0|10,3:0|0:0,0:0:0:0:
161,354,66283,1,2,0:0:0:0:
161,354,66369,1,10,0:0:0:0:
161,354,66454,2,0,L|274:341,1,101.999996887207,0|0,3:0|3:0,0:0:0:0:
197,83,66797,2,0,P|151:130|201:234,1,152.999995330811,10|0,0:0|0:0,0:0:0:0:
203,225,67140,6,0,B|345:204|345:204|369:237|334:261,1,203.999993774414,2|10,3:2|0:0,0:0:0:0:
339,257,67654,1,2,0:0:0:0:
245,134,67826,1,0,3:0:0:0:
393,35,67997,1,2,3:2:0:0:
393,35,68169,2,0,L|409:146,1,101.999996887207,8|2,0:0|0:0,0:0:0:0:
375,321,68512,6,0,P|382:271|514:229,1,203.999993774414,0|10,3:0|0:0,0:0:0:0:
330,185,69026,1,2,0:0:0:0:
330,185,69112,1,10,0:0:0:0:
330,185,69197,2,0,L|221:171,1,101.999996887207,2|0,3:2|3:0,0:0:0:0:
260,375,69540,2,0,B|248:263|248:263|308:295,1,152.999995330811,10|0,0:0|0:0,0:0:0:0:
305,316,69883,6,0,P|229:327|177:307,1,101.999996887207,2|0,3:2|3:0,0:0:0:0:
147,194,70226,1,10,0:0:0:0:
36,359,70397,1,2,0:0:0:0:
36,359,70483,1,10,0:0:0:0:
36,359,70569,2,0,L|44:254,1,101.999996887207,0|2,3:0|0:0,0:0:0:0:
179,78,70912,1,10,0:0:0:0:
18,135,71083,6,0,P|73:131|177:239,1,203.999993774414,6|0,3:2|3:0,0:0:0:0:
376,72,71597,2,0,L|275:88,1,101.999996887207,8|2,0:0|0:0,0:0:0:0:
174,226,71940,1,2,3:2:0:0:
350,175,72112,1,2,0:0:0:0:
350,175,72283,2,0,L|336:298,1,101.999996887207,10|2,3:2|0:0,0:0:0:0:
329,352,72540,1,10,0:0:0:0:
329,352,72626,6,0,L|114:325,1,203.999993774414,6|10,3:3|0:0,0:0:0:0:
126,326,73140,1,2,0:0:0:0:
267,108,73312,2,0,L|258:210,1,101.999996887207,2|2,3:0|3:0,0:0:0:0:
207,41,73654,1,8,0:0:0:0:
90,165,73826,6,0,P|159:139|258:212,1,203.999993774414,2|0,0:0|0:0,0:0:0:0:
27,303,74340,2,0,L|17:201,1,101.999996887207,10|2,0:0|0:0,0:0:0:0:
90,165,74597,1,10,0:0:0:0:
90,165,74683,2,0,L|99:266,1,101.999996887207,0|0,3:0|3:0,0:0:0:0:
227,102,75026,1,10,0:0:0:0:
15,71,75197,1,2,0:0:0:0:
15,71,75283,1,8,0:0:0:0:
15,71,75369,6,0,P|74:83|193:11,1,203.999993774414,6|10,3:2|0:0,0:0:0:0:
99,266,75883,1,2,3:2:0:0:
89,286,76226,1,2,3:2:0:0:
32,155,76397,1,10,0:0:0:0:
222,362,76569,6,0,L|249:137,1,220.999989883423,6|0,3:3|3:0,0:0:0:0:
401,35,77083,2,0,P|430:95|402:158,1,101.999996887207,8|2,0:0|0:0,0:0:0:0:
271,235,77426,2,0,P|242:175|270:112,1,101.999996887207,8|8,3:2|0:3,0:0:0:0:
459,209,77769,1,10,0:3:0:0:
334,100,77940,1,2,3:2:0:0:
326,369,78112,6,0,P|364:318|510:316,1,203.999993774414,6|2,3:3|3:2,0:0:0:0:
203,231,78626,2,0,P|284:286|380:261,1,203.999993774414,2|2,0:0|0:0,0:0:0:0:
416,188,79140,1,0,3:0:0:0:
416,188,79312,6,0,B|400:46|400:46|378:111,1,203.999993774414,2|2,0:0|0:0,0:0:0:0:
203,231,79826,2,0,P|298:205|380:260,1,203.999993774414,2|0,3:2|3:0,0:0:0:0:
100,31,80512,2,0,L|81:220,1,152.999995330811,2|0,3:2|0:0,0:0:0:0:
67,219,80854,6,0,B|24:177|24:177|185:196,1,203.999993774414,2|2,3:2|3:2,0:0:0:0:
247,210,81369,1,0,0:0:0:0:
247,210,81540,2,0,P|268:285|147:305,1,203.999993774414,2|0,3:2|3:0,0:0:0:0:
168,323,82054,1,0,0:0:0:0:
65,268,82226,5,2,3:2:0:0:
247,210,82397,1,8,0:0:0:0:
46,148,82569,5,0,3:0:0:0:
277,221,82740,1,2,0:0:0:0:
130,27,82912,5,0,3:0:0:0:
296,251,83083,1,8,0:0:0:0:
271,70,83254,5,2,3:2:0:0:
155,208,83426,2,0,L|171:274,1,50.9999984436036,2|8,0:0|0:0,0:0:0:0:
363,78,83597,6,0,P|326:145|188:109,1,203.999993774414,6|10,3:2|0:0,0:0:0:0:
486,24,84112,2,0,L|502:250,1,203.999993774414,6|10,3:3|0:3,0:0:0:0:
271,70,84626,1,8,0:3:0:0:
346,337,84797,6,0,P|354:247|330:213,1,118.999996368408,6|0,3:3|0:0,0:0:0:0:
147,265,85140,1,8,3:2:0:0:
358,126,85312,1,8,3:2:0:0:
91,44,85826,5,0,3:0:0:0:
91,44,85997,2,0,P|175:48|204:67,1,85,8|2,0:0|0:0,0:0:0:0:
235,101,86254,1,2,0:0:0:0:
235,101,86340,6,0,L|220:204,1,85,6|2,3:3|0:0,0:0:0:0:
82,139,86683,1,8,0:0:0:0:
165,330,86854,2,0,P|111:267|7:284,1,170,2|2,3:2|3:2,0:0:0:0:
222,185,87369,1,8,0:0:0:0:
222,185,87712,6,0,L|324:195,1,85,2|2,3:2|3:2,0:0:0:0:
403,346,88054,1,10,0:0:0:0:
403,346,88226,2,0,P|414:282|508:251,1,170,2|2,3:2|3:2,0:0:0:0:
306,193,88740,1,8,0:0:0:0:
306,193,89083,6,0,P|248:195|189:95,1,170,2|8,3:2|0:0,0:0:0:0:
370,98,89597,2,0,L|352:282,1,170,2|2,3:2|3:2,0:0:0:0:
187,111,90112,2,0,P|218:161|202:218,1,85,8|0,0:0|0:0,0:0:0:0:
206,217,90369,1,0,0:0:0:0:
206,217,90454,6,0,L|80:214,1,85,2|0,3:2|3:0,0:0:0:0:
282,96,90797,1,8,0:0:0:0:
85,130,90969,2,0,P|35:186|61:286,1,170,0|0,3:0|3:0,0:0:0:0:
265,337,91483,2,0,P|229:362|155:352,1,85,8|8,0:0|0:3,0:0:0:0:
155,357,91740,1,8,0:3:0:0:
155,357,91826,6,0,L|177:177,1,170,6|8,3:3|0:0,0:0:0:0:
290,36,92340,2,0,B|260:75|260:75|128:41,1,170,0|0,3:0|3:0,0:0:0:0:
303,190,92854,2,0,P|344:153|409:154,1,85,8|0,0:0|0:0,0:0:0:0:
405,153,93112,1,8,0:0:0:0:
405,153,93197,6,0,L|396:348,1,170,6|8,3:3|0:0,0:0:0:0:
188,369,93712,2,0,P|248:371|305:287,1,170,2|0,3:2|3:0,0:0:0:0:
86,307,94226,2,0,P|50:243|63:207,1,85,8|0,0:0|0:0,0:0:0:0:
64,206,94483,1,8,0:0:0:0:
64,206,94569,6,0,B|184:212|184:212|208:171|167:155,1,170,6|8,3:3|0:0,0:0:0:0:
184,166,95083,1,0,0:0:0:0:
27,41,95254,2,0,L|8:140,1,85,0|0,3:0|0:0,0:0:0:0:
188,44,95597,1,8,0:0:0:0:
252,240,95769,6,0,P|170:261|97:185,1,170,6|4,3:2|0:3,0:0:0:0:
335,143,96283,1,10,0:0:0:0:
215,60,96454,1,2,3:2:0:0:
409,275,96626,1,10,0:0:0:0:
409,275,96797,2,0,L|421:155,1,85,10|0,0:0|3:0,0:0:0:0:
256,332,97140,1,8,0:3:0:0:
256,332,97226,1,10,0:3:0:0:
256,272,99369,6,0,L|256:344,2,63.7500024318696,2|2|2,0:0|0:0|0:0,0:0:0:0:
256,192,99883,1,4,0:3:0:0:
256,192,99969,12,0,105540,0:0:0:0:
