osu file format v14

[General]
AudioFilename: audio.mp3
AudioLeadIn: 0
PreviewTime: 60712
Countdown: 0
SampleSet: Soft
StackLeniency: 0.6
Mode: 0
LetterboxInBreaks: 0
WidescreenStoryboard: 0

[Editor]
Bookmarks: 61483
DistanceSpacing: 1.1
BeatDivisor: 4
GridSize: 4
TimelineZoom: 1.4

[Metadata]
Title:Liu Guang Zhi Yu
TitleUnicode:流光织雨
Artist:Chi Guo (CV: Ke Ke Wei)
ArtistUnicode:迟菓 (CV: 可可味)
Creator:Bellicose
Version:Hard
Source:三色绘恋S
Tags:HL-GALGAME san se hui lian s tricolour lovestory project lights chinese video game galgame opening short version
BeatmapID:2290356
BeatmapSetID:1095417

[Difficulty]
HPDrainRate:5
CircleSize:3.6
OverallDifficulty:6
ApproachRate:8
SliderMultiplier:1.4
SliderTickRate:1

[Events]
//Background and Video events
0,0,"bg ye xin.jpg",0,0
//Break Periods
2,48140,52676
//Storyboard Layer 0 (Background)
//Storyboard Layer 1 (Fail)
//Storyboard Layer 2 (Pass)
//Storyboard Layer 3 (Foreground)
//Storyboard Layer 4 (Overlay)
//Storyboard Sound Samples

[TimingPoints]
1312,342.857142857143,4,2,1,50,1,0
1312,-133.333333333333,4,2,1,50,0,0
12283,-111.111111111111,4,2,1,70,0,0
25654,-133.333333333333,4,2,1,50,0,0
36969,-125,4,2,1,50,0,0
45712,-100,4,2,1,50,0,0
47940,-200,4,2,1,40,0,0
56169,-111.111111111111,4,2,1,50,0,0
58912,-100,4,2,1,60,0,0
61483,-90.9090909090909,4,2,1,75,0,1
76569,-83.3333333333333,4,2,1,75,0,1
76912,-90.9090909090909,4,2,1,75,0,1
82226,-90.9090909090909,4,2,1,90,0,1
83597,-90.9090909090909,4,2,1,75,0,1
84797,-76.9230769230769,4,2,1,85,0,1
85312,-71.4285714285714,4,2,1,85,0,0
85826,-100,4,2,1,70,0,0
86340,-111.111111111111,4,2,1,70,0,0
99369,-133.333333333333,4,2,1,50,0,0
99883,-250,4,2,1,50,0,0
99969,-250,4,2,1,5,0,0

[Colours]
Combo1 : 206,151,184
Combo2 : 232,230,125

[HitObjects]
98,264,1312,6,0,P|136:305|198:297,1,105.000004005432,2|0,0:0|0:0,0:0:0:0:
221,270,1826,2,0,L|337:276,1,105.000004005432,2|2,0:0|0:0,0:0:0:0:
414,332,2512,2,0,L|429:164,1,157.500006008148,2|2,0:0|0:0,0:0:0:0:
438,70,3369,1,2,0:0:0:0:
349,12,3712,1,2,0:0:0:0:
290,99,4054,6,0,P|229:128|142:100,1,157.500006008148,2|2,0:0|0:0,0:0:0:0:
128,53,4740,2,0,P|153:84|118:201,1,157.500006008148,2|2,0:0|0:0,0:0:0:0:
87,219,5426,5,2,0:0:0:0:
182,263,5769,1,2,0:0:0:0:
128,353,6112,2,0,L|69:342,2,52.5000020027161,2|2|2,0:0|0:0|0:0,0:0:0:0:
232,367,6797,6,0,P|264:320|320:305,1,105.000004005432,2|0,0:0|0:0,0:0:0:0:
353,331,7312,2,0,L|337:219,1,105.000004005432,2|0,0:0|0:0,0:0:0:0:
323,123,7997,2,0,L|157:147,1,157.500006008148,2|2,0:0|0:0,0:0:0:0:
77,91,8854,1,2,0:0:0:0:
136,4,9197,1,2,0:0:0:0:
225,59,9540,5,2,0:0:0:0:
256,192,9626,12,2,10912,0:3:0:0:
418,71,11769,5,0,3:0:0:0:
418,71,11940,2,0,L|364:51,1,52.5000020027161,12|0,0:0|0:0,0:0:0:0:
298,24,12283,6,0,P|281:60|199:79,1,125.999996154785,4|10,3:0|0:0,0:0:0:0:
130,58,12797,2,0,P|62:70|52:143,1,125.999996154785,2|2,3:2|3:2,0:0:0:0:
71,189,13312,1,8,0:0:0:0:
71,339,13654,6,0,L|-2:332,1,62.9999980773926,2|2,3:2|3:2,0:0:0:0:
110,265,13997,1,10,0:0:0:0:
110,265,14169,2,0,P|164:279|222:247,1,125.999996154785,2|2,3:2|3:2,0:0:0:0:
224,170,14683,1,8,0:0:0:0:
133,49,15026,6,0,L|267:43,1,125.999996154785,2|8,3:2|0:0,0:0:0:0:
321,85,15540,2,0,P|382:60|454:97,1,125.999996154785,2|2,3:2|3:2,0:0:0:0:
481,139,16054,1,8,0:0:0:0:
378,250,16397,6,0,L|392:173,1,62.9999980773926,2|0,3:2|3:0,0:0:0:0:
457,270,16740,1,8,0:0:0:0:
457,270,16912,2,0,L|443:347,1,62.9999980773926,0|2,3:0|0:0,0:0:0:0:
379,367,17254,1,0,3:0:0:0:
379,367,17426,2,0,L|261:360,1,94.499997116089,10|0,0:0|0:0,0:0:0:0:
268,327,17769,6,0,P|223:364|140:344,1,125.999996154785,6|8,3:3|0:0,0:0:0:0:
103,306,18283,2,0,L|126:163,1,125.999996154785,0|0,3:0|3:0,0:0:0:0:
191,147,18797,2,0,L|183:64,1,62.9999980773926,8|0,0:0|0:0,0:0:0:0:
180,46,19054,1,8,0:0:0:0:
180,46,19140,6,0,P|125:62|59:31,1,125.999996154785,6|8,3:3|0:0,0:0:0:0:
5,84,19654,2,0,L|20:228,1,125.999996154785,2|0,3:2|3:0,0:0:0:0:
27,284,20169,1,10,0:0:0:0:
147,192,20512,6,0,P|187:177|263:214,1,125.999996154785,6|8,3:3|0:0,0:0:0:0:
299,273,21026,2,0,L|321:140,1,125.999996154785,0|0,3:0|3:0,0:0:0:0:
330,76,21540,1,8,0:0:0:0:
330,76,21712,6,0,L|195:54,1,125.999996154785,6|0,3:3|3:0,0:0:0:0:
130,46,22226,2,0,P|113:86|127:125,1,62.9999980773926,8|2,0:0|0:0,0:0:0:0:
157,220,22569,1,10,0:3:0:0:
157,220,22740,2,0,P|174:180|160:141,1,62.9999980773926,2|8,0:0|0:3,0:0:0:0:
52,152,23083,1,10,0:0:0:0:
121,319,25654,6,0,P|163:348|209:338,1,78.7500030040742,4|0,0:0|0:0,0:0:0:0:
215,343,25997,2,0,P|257:292|246:236,1,105.000004005432,4|0,0:3|0:0,0:0:0:0:
241,204,26512,2,0,L|120:197,1,105.000004005432,2|2,3:2|0:0,0:0:0:0:
83,195,27026,1,8,0:1:0:0:
83,195,27197,2,0,P|77:137|109:86,1,105.000004005432,2|2,0:0|0:0,0:0:0:0:
176,27,27883,2,0,L|56:14,1,105.000004005432,2|2,3:2|0:0,0:0:0:0:
19,12,28397,1,8,0:1:0:0:
12,116,28740,6,0,P|39:132|51:219,1,105.000004005432,2|0,3:2|0:0,0:0:0:0:
75,249,29254,2,0,P|23:292|86:355,1,157.500006008148,0|10,3:0|0:1,0:0:0:0:
114,335,29940,2,0,L|237:336,1,105.000004005432,2|2,0:0|0:0,0:0:0:0:
319,366,30626,2,0,L|330:243,1,105.000004005432,2|2,3:2|0:0,0:0:0:0:
334,209,31140,1,8,0:1:0:0:
234,176,31483,6,0,L|223:53,1,105.000004005432,0|0,3:0|0:0,0:0:0:0:
271,46,31997,2,0,P|330:60|383:28,1,105.000004005432,0|2,3:0|0:0,0:0:0:0:
414,16,32512,1,10,0:1:0:0:
414,16,32683,2,0,L|401:189,1,157.500006008148,2|2,0:0|0:0,0:0:0:0:
402,225,33369,1,0,3:0:0:0:
402,225,33540,2,0,P|462:240|504:214,1,105.000004005432,2|10,0:0|0:1,0:0:0:0:
446,349,34226,6,0,P|408:328|327:319,1,105.000004005432,2|0,3:2|0:0,0:0:0:0:
301,342,34740,2,0,P|268:356|187:334,1,105.000004005432,0|0,3:0|0:0,0:0:0:0:
161,310,35254,1,10,0:1:0:0:
256,192,35597,5,4,0:0:0:0:
125,64,36454,5,0,3:0:0:0:
125,64,36626,2,0,L|135:133,1,52.5000020027161,8|0,3:3|0:0,0:0:0:0:
141,177,36969,6,0,L|7:194,1,112,4|0,0:3|0:0,0:0:0:0:
3,247,37483,2,0,L|14:314,1,56,10|0,0:0|0:0,0:0:0:0:
23,367,37826,1,2,3:2:0:0:
23,367,37997,2,0,P|62:334|134:345,1,112,8|0,0:0|3:0,0:0:0:0:
178,358,38512,1,2,3:2:0:0:
300,354,38854,2,0,L|317:229,1,112,2|2,0:0|3:2,0:0:0:0:
324,181,39369,1,8,0:0:0:0:
401,85,39712,6,0,P|457:93|496:145,1,112,2|0,3:2|0:0,0:0:0:0:
491,194,40226,1,8,0:0:0:0:
431,306,40569,1,0,3:0:0:0:
431,306,40740,2,0,L|442:363,1,56,10|0,0:0|0:0,0:0:0:0:
366,244,41083,5,2,3:2:0:0:
366,244,41254,2,0,P|317:265|296:256,1,56,0|0,3:0|0:0,0:0:0:0:
255,259,41597,2,0,L|268:131,1,112,8|0,0:0|3:0,0:0:0:0:
275,86,42112,1,8,0:0:0:0:
150,13,42454,6,0,P|176:61|156:119,1,112,2|2,3:2|0:0,0:0:0:0:
135,170,42969,2,0,L|10:162,1,112,10|2,0:0|3:2,0:0:0:0:
5,222,43483,2,0,L|8:289,1,56,10|2,0:0|0:0,0:0:0:0:
17,343,43826,5,0,3:0:0:0:
17,343,43997,2,0,L|87:338,1,56,0|0,3:0|0:0,0:0:0:0:
126,369,44340,2,0,B|163:348|163:348|145:264,1,112,8|0,0:0|3:0,0:0:0:0:
136,219,44854,1,8,0:0:0:0:
215,105,45197,6,0,P|188:45|215:-1,1,112,6|10,3:2|0:0,0:0:0:0:
283,1,45712,2,0,B|337:12|337:12|354:37|354:37|410:50,1,140,6|0,3:3|3:0,0:0:0:0:
483,53,46226,1,8,0:0:0:0:
480,199,46569,6,0,L|410:224,1,70,4|8,3:2|0:3,0:0:0:0:
362,168,46912,1,8,0:3:0:0:
362,168,47083,2,0,P|310:116|231:140,1,140,4|8,3:3|0:3,0:0:0:0:
215,196,47597,2,0,L|149:219,1,70,0|2,3:0|0:0,0:0:0:0:
65,178,47940,5,4,3:3:0:0:
256,192,53426,12,0,55483,0:0:0:0:
205,338,56169,6,0,P|246:372|327:356,1,125.999996154785,6|2,3:3|0:0,0:0:0:0:
393,339,56683,1,0,3:0:0:0:
393,339,56854,2,0,L|375:207,1,125.999996154785,10|2,0:0|0:0,0:0:0:0:
474,82,57540,5,0,3:0:0:0:
474,82,57712,2,0,L|467:166,1,62.9999980773926,10|0,0:0|0:0,0:0:0:0:
385,26,58054,1,2,3:2:0:0:
385,26,58226,2,0,L|392:110,1,62.9999980773926,12|8,0:0|0:3,0:0:0:0:
365,169,58569,1,0,3:0:0:0:
365,169,58740,1,0,3:0:0:0:
280,92,58912,6,0,P|245:119|153:102,1,140,6|2,3:3|0:0,0:0:0:0:
113,23,59426,2,0,L|88:191,1,140,2|2,0:0|0:0,0:0:0:0:
134,242,59940,2,0,L|209:232,1,70,2|2,0:0|0:0,0:0:0:0:
353,225,60283,5,8,0:3:0:0:
275,171,60454,1,2,0:0:0:0:
275,171,60540,1,8,0:0:0:0:
275,171,60626,2,0,L|270:94,1,70,8|2,0:0|3:2,0:0:0:0:
283,294,60969,1,10,0:0:0:0:
283,294,61140,1,10,0:0:0:0:
116,358,61483,6,0,P|49:364|-1:280,1,154.000004699707,6|0,3:3|3:0,0:0:0:0:
7,200,61997,2,0,L|44:42,1,154.000004699707,10|2,0:0|3:2,0:0:0:0:
139,24,62512,1,2,3:2:0:0:
139,24,62683,2,0,L|115:131,1,77.0000023498536,8|2,0:0|0:0,0:0:0:0:
147,252,63026,6,0,P|197:240|188:138,1,154.000004699707,2|10,3:2|0:0,0:0:0:0:
122,99,63540,1,2,0:0:0:0:
122,99,63626,1,10,0:0:0:0:
122,99,63712,2,0,L|25:113,1,77.0000023498536,0|0,3:0|3:0,0:0:0:0:
206,46,64054,2,0,L|303:60,1,77.0000023498536,10|2,0:0|0:0,0:0:0:0:
346,172,64397,6,0,P|387:135|493:160,2,154.000004699707,2|10|2,3:2|0:0|3:2,0:0:0:0:
385,269,65254,1,2,3:2:0:0:
385,269,65426,2,0,L|493:265,1,77.0000023498536,8|2,0:0|0:0,0:0:0:0:
282,380,65769,6,0,P|306:302|270:240,1,154.000004699707,0|10,3:0|0:0,0:0:0:0:
257,152,66283,1,2,0:0:0:0:
257,152,66369,1,10,0:0:0:0:
257,152,66454,2,0,L|147:161,1,77.0000023498536,0|0,3:0|3:0,0:0:0:0:
86,142,66797,2,0,L|100:43,1,77.0000023498536,10|0,0:0|0:0,0:0:0:0:
124,239,67140,6,0,P|62:239|36:337,1,154.000004699707,2|10,3:2|0:0,0:0:0:0:
116,366,67654,1,2,0:0:0:0:
116,366,67740,1,10,0:0:0:0:
116,366,67826,2,0,L|218:355,1,77.0000023498536,0|2,3:0|3:2,0:0:0:0:
292,361,68169,2,0,L|286:270,1,77.0000023498536,8|2,0:0|0:0,0:0:0:0:
367,181,68512,6,0,P|294:194|238:146,2,154.000004699707,0|10|2,3:0|0:0|3:2,0:0:0:0:
457,134,69369,1,0,3:0:0:0:
457,134,69540,2,0,L|475:211,1,77.0000023498536,10|0,0:0|0:0,0:0:0:0:
476,331,69883,5,2,3:2:0:0:
390,279,70054,1,0,3:0:0:0:
328,358,70226,2,0,L|241:347,1,77.0000023498536,10|2,0:0|0:0,0:0:0:0:
202,339,70483,1,10,0:0:0:0:
202,339,70569,2,0,L|217:252,1,77.0000023498536,0|2,3:0|0:0,0:0:0:0:
283,189,70912,1,10,0:0:0:0:
218,79,71083,6,0,P|186:114|78:91,1,154.000004699707,6|0,3:2|3:0,0:0:0:0:
42,12,71597,2,0,L|16:194,1,154.000004699707,8|2,0:0|3:2,0:0:0:0:
70,309,72112,1,2,0:0:0:0:
70,309,72283,2,0,L|80:232,1,77.0000023498536,10|2,3:2|0:0,0:0:0:0:
120,202,72540,1,10,0:0:0:0:
120,202,72626,6,0,P|187:252|269:215,1,154.000004699707,6|10,3:3|0:0,0:0:0:0:
331,175,73140,1,2,0:0:0:0:
331,175,73226,1,10,0:0:0:0:
331,175,73312,2,0,L|340:261,1,77.0000023498536,2|2,3:0|3:0,0:0:0:0:
237,144,73654,2,0,L|245:67,1,77.0000023498536,8|2,0:0|0:0,0:0:0:0:
380,89,73997,6,0,P|433:44|511:76,1,154.000004699707,0|10,3:0|0:0,0:0:0:0:
511,178,74512,1,2,0:0:0:0:
511,178,74597,1,10,0:0:0:0:
511,178,74683,2,0,L|497:265,1,77.0000023498536,0|0,3:0|3:0,0:0:0:0:
448,340,75026,1,10,0:0:0:0:
363,286,75197,1,2,0:0:0:0:
363,286,75283,1,8,0:0:0:0:
363,286,75369,6,0,P|308:323|214:291,1,154.000004699707,6|10,3:2|0:0,0:0:0:0:
165,224,75883,2,0,L|187:54,1,154.000004699707,2|2,3:2|3:2,0:0:0:0:
104,20,76397,1,10,0:0:0:0:
104,20,76569,6,0,L|80:191,1,167.999994873047,6|0,3:3|3:0,0:0:0:0:
2,263,77083,2,0,L|22:367,1,77.0000023498536,8|2,0:0|0:0,0:0:0:0:
63,368,77340,1,10,0:0:0:0:
63,368,77426,2,0,L|152:350,1,77.0000023498536,8|8,3:2|0:3,0:0:0:0:
202,275,77769,2,0,L|187:198,1,77.0000023498536,10|2,0:3|3:2,0:0:0:0:
313,277,78112,6,0,P|308:330|402:376,1,154.000004699707,6|2,3:3|3:2,0:0:0:0:
478,344,78626,2,0,L|494:166,1,154.000004699707,2|2,0:0|0:0,0:0:0:0:
490,94,79140,1,0,3:0:0:0:
490,94,79312,6,0,P|428:132|345:92,1,154.000004699707,2|2,0:0|0:0,0:0:0:0:
294,26,79826,2,0,L|305:196,1,154.000004699707,2|0,3:2|3:0,0:0:0:0:
410,349,80512,2,0,L|419:244,1,77.0000023498536,2|0,3:2|0:0,0:0:0:0:
316,275,80854,6,0,P|252:303|172:244,1,154.000004699707,2|2,3:2|3:2,0:0:0:0:
123,73,81540,2,0,P|43:106|110:209,1,231.000007049561,2|0,3:2|0:0,0:0:0:0:
200,168,82226,5,2,3:2:0:0:
200,168,82397,1,8,0:0:0:0:
272,257,82569,1,0,3:0:0:0:
272,257,82740,1,2,0:0:0:0:
206,345,82912,1,0,3:0:0:0:
206,345,83083,1,8,0:0:0:0:
101,314,83254,2,0,L|11:307,1,77.0000023498536,2|2,3:2|0:0,0:0:0:0:
0,262,83512,1,10,0:0:0:0:
0,262,83597,6,0,L|24:86,1,154.000004699707,6|10,3:2|0:0,0:0:0:0:
125,19,84112,2,0,L|101:195,1,154.000004699707,6|10,3:3|0:3,0:0:0:0:
93,271,84626,1,8,0:3:0:0:
274,243,84797,6,0,P|217:249|179:219,1,90.9999958343508,6|0,3:3|0:0,0:0:0:0:
211,118,85140,1,8,3:2:0:0:
211,118,85312,1,8,3:2:0:0:
372,188,85826,5,0,3:0:0:0:
372,188,85997,2,0,L|382:93,1,70,8|2,0:0|0:0,0:0:0:0:
387,73,86254,1,2,0:0:0:0:
387,73,86340,6,0,L|479:85,1,62.9999980773926,6|0,3:3|0:0,0:0:0:0:
496,149,86683,1,8,0:0:0:0:
496,149,86854,2,0,L|482:279,1,125.999996154785,2|2,3:2|3:2,0:0:0:0:
476,353,87369,1,8,0:0:0:0:
323,350,87712,6,0,L|317:278,1,62.9999980773926,2|2,3:2|3:2,0:0:0:0:
314,211,88054,1,10,0:0:0:0:
314,211,88226,2,0,P|265:239|197:195,1,125.999996154785,2|2,3:2|3:2,0:0:0:0:
212,136,88740,1,8,0:0:0:0:
93,28,89083,6,0,P|125:69|113:163,1,125.999996154785,2|8,3:2|0:0,0:0:0:0:
64,185,89597,2,0,P|11:239|47:298,1,125.999996154785,2|2,3:2|3:2,0:0:0:0:
89,317,90112,1,8,0:0:0:0:
213,231,90454,6,0,L|204:155,1,62.9999980773926,2|0,3:2|3:0,0:0:0:0:
286,273,90797,1,8,0:0:0:0:
286,273,90969,2,0,L|278:335,1,62.9999980773926,0|0,3:0|0:0,0:0:0:0:
352,226,91312,1,0,3:0:0:0:
352,226,91483,2,0,L|441:233,1,62.9999980773926,8|8,0:0|0:3,0:0:0:0:
452,234,91740,1,8,0:3:0:0:
452,234,91826,6,0,P|486:176|451:113,1,125.999996154785,6|8,3:3|0:0,0:0:0:0:
412,72,92340,2,0,L|265:84,1,125.999996154785,0|0,3:0|3:0,0:0:0:0:
210,87,92854,2,0,L|220:176,1,62.9999980773926,8|0,0:0|0:0,0:0:0:0:
224,187,93112,1,8,0:0:0:0:
224,187,93197,6,0,P|180:216|97:186,1,125.999996154785,6|8,3:3|0:0,0:0:0:0:
35,201,93712,2,0,L|58:70,1,125.999996154785,2|0,3:2|3:0,0:0:0:0:
72,2,94226,2,0,L|153:20,1,62.9999980773926,8|0,0:0|0:0,0:0:0:0:
162,40,94483,1,8,0:0:0:0:
162,40,94569,6,0,P|214:23|279:61,1,125.999996154785,6|8,3:3|0:0,0:0:0:0:
281,129,95083,1,0,0:0:0:0:
281,129,95254,2,0,L|260:213,2,62.9999980773926,0|0|8,3:0|0:0|0:0,0:0:0:0:
172,163,95769,6,0,L|195:298,1,125.999996154785,6|4,3:2|0:3,0:0:0:0:
250,337,96283,2,0,L|328:322,1,62.9999980773926,10|2,0:0|3:2,0:0:0:0:
374,283,96626,1,10,0:0:0:0:
374,283,96797,2,0,L|435:294,1,62.9999980773926,10|0,0:0|3:0,0:0:0:0:
494,246,97140,2,0,L|500:216,1,31.4999990386963,8|10,0:3|0:3,0:0:0:0:
256,192,99369,6,0,L|256:136,2,52.5000020027161,2|2|2,0:0|0:0|0:0,0:0:0:0:
256,224,99883,1,4,0:3:0:0:
256,192,99969,12,0,105540,0:0:0:0:
