osu file format v14

[General]
AudioFilename: Schwifty Beat.mp3
AudioLeadIn: 0
PreviewTime: -1
Countdown: 1
SampleSet: Soft
StackLeniency: 0.7
Mode: 3
LetterboxInBreaks: 0
SpecialStyle: 1
WidescreenStoryboard: 1

[Editor]
DistanceSpacing: 1.4
BeatDivisor: 4
GridSize: 32
TimelineZoom: 1

[Metadata]
Title:Schwifty Beat
TitleUnicode:Schwifty Beat
Artist:Chetreo
ArtistUnicode:Chetreo
Creator:Zeroloph
Version:Schiwft 4k
Source:
Tags:
BeatmapID:1413577
BeatmapSetID:663186

[Difficulty]
HPDrainRate:5
CircleSize:4
OverallDifficulty:5
ApproachRate:5
SliderMultiplier:1.4
SliderTickRate:1

[Events]
//Background and Video events
0,0,"Shifty.jpg",0,0
//Break Periods
//Storyboard Layer 0 (Background)
//Storyboard Layer 1 (Fail)
//Storyboard Layer 2 (Pass)
//Storyboard Layer 3 (Foreground)
//Storyboard Sound Samples

[TimingPoints]
685.146579135547,300,4,2,0,100,1,0

[HitObjects]
64,192,11485,128,0,13810:0:0:0:0:
192,192,12685,1,0,0:0:0:0:
192,192,14785,1,0,0:0:0:0:
320,192,15685,1,0,0:0:0:0:
64,192,16285,1,0,0:0:0:0:
448,192,16885,1,0,0:0:0:0:
64,192,17485,1,0,0:0:0:0:
448,192,18085,128,0,19285:0:0:0:0:
64,192,18085,128,0,19285:0:0:0:0:
192,192,19960,1,0,0:0:0:0:
320,192,19960,1,0,0:0:0:0:
64,192,20485,1,0,0:0:0:0:
448,192,20485,1,0,0:0:0:0:
320,192,21010,1,0,0:0:0:0:
192,192,21010,1,0,0:0:0:0:
448,192,21685,1,0,0:0:0:0:
64,192,21685,1,0,0:0:0:0:
192,192,22285,1,0,0:0:0:0:
320,192,22285,1,0,0:0:0:0:
448,192,22885,1,0,0:0:0:0:
64,192,23185,1,0,0:0:0:0:
320,192,23485,128,0,24610:0:0:0:0:
192,192,23485,128,0,24610:0:0:0:0:
448,192,25285,128,0,25810:0:0:0:0:
64,192,25285,128,0,25810:0:0:0:0:
192,192,26410,128,0,27685:0:0:0:0:
320,192,26410,128,0,27685:0:0:0:0:
448,192,28285,128,0,29410:0:0:0:0:
64,192,28285,128,0,29410:0:0:0:0:
64,192,30085,1,0,0:0:0:0:
192,192,30385,1,0,0:0:0:0:
320,192,30685,1,0,0:0:0:0:
448,192,30985,1,0,0:0:0:0:
64,192,31360,128,0,33460:0:0:0:0:
192,192,33835,1,0,0:0:0:0:
320,192,34135,1,0,0:0:0:0:
192,192,34510,1,0,0:0:0:0:
320,192,34810,1,0,0:0:0:0:
448,192,35035,128,0,36760:0:0:0:0:
64,192,35035,128,0,36760:0:0:0:0:
320,192,35485,1,0,0:0:0:0:
192,192,35485,1,0,0:0:0:0:
192,192,37435,1,0,0:0:0:0:
320,192,37435,1,0,0:0:0:0:
448,192,37885,128,0,39010:0:0:0:0:
64,192,37885,128,0,39010:0:0:0:0:
192,192,39685,1,0,0:0:0:0:
320,192,40285,1,0,0:0:0:0:
64,192,41410,1,0,0:0:0:0:
320,192,42085,1,0,0:0:0:0:
192,192,42685,1,0,0:0:0:0:
448,192,43360,1,0,0:0:0:0:
64,192,43960,1,0,0:0:0:0:
448,192,44485,1,0,0:0:0:0:
192,192,45085,1,0,0:0:0:0:
448,192,45685,1,0,0:0:0:0:
64,192,46285,1,0,0:0:0:0:
192,192,46285,128,0,48610:0:0:0:0:
320,192,46285,128,0,49810:0:0:0:0:
64,192,49285,1,0,0:0:0:0:
448,192,49810,1,0,0:0:0:0:
320,192,50485,1,0,0:0:0:0:
192,192,51010,1,0,0:0:0:0:
64,192,51610,1,0,0:0:0:0:
448,192,51610,1,0,0:0:0:0:
192,192,52285,1,0,0:0:0:0:
320,192,52285,1,0,0:0:0:0:
64,192,52885,1,0,0:0:0:0:
448,192,53185,1,0,0:0:0:0:
64,192,53485,1,0,0:0:0:0:
448,192,53710,1,0,0:0:0:0:
64,192,54085,1,0,0:0:0:0:
448,192,54385,1,0,0:0:0:0:
448,192,54685,1,0,0:0:0:0:
64,192,54685,1,0,0:0:0:0:
192,192,55285,1,0,0:0:0:0:
320,192,55285,1,0,0:0:0:0:
448,192,55885,1,0,0:0:0:0:
64,192,55885,1,0,0:0:0:0:
64,192,56410,1,0,0:0:0:0:
192,192,57160,1,0,0:0:0:0:
320,192,57385,1,0,0:0:0:0:
64,192,58360,1,0,0:0:0:0:
448,192,58885,1,0,0:0:0:0:
64,192,59410,1,0,0:0:0:0:
448,192,60010,1,0,0:0:0:0:
64,192,60760,1,0,0:0:0:0:
192,192,61360,1,0,0:0:0:0:
320,192,61960,1,0,0:0:0:0:
64,192,62560,1,0,0:0:0:0:
320,192,63085,1,0,0:0:0:0:
192,192,63760,1,0,0:0:0:0:
448,192,64360,1,0,0:0:0:0:
64,192,64885,1,0,0:0:0:0:
320,192,65485,1,0,0:0:0:0:
192,192,66010,1,0,0:0:0:0:
64,192,66685,128,0,69085:0:0:0:0:
448,192,66685,128,0,69085:0:0:0:0:
192,192,69685,1,0,0:0:0:0:
320,192,70285,1,0,0:0:0:0:
64,192,70885,1,0,0:0:0:0:
320,192,71485,128,0,75085:0:0:0:0:
64,192,72010,1,0,0:0:0:0:
192,192,72685,1,0,0:0:0:0:
64,192,73285,1,0,0:0:0:0:
192,192,73810,1,0,0:0:0:0:
64,192,74485,1,0,0:0:0:0:
64,192,75685,1,0,0:0:0:0:
320,192,75685,1,0,0:0:0:0:
448,192,76285,1,0,0:0:0:0:
192,192,76285,1,0,0:0:0:0:
320,192,76885,1,0,0:0:0:0:
64,192,77185,1,0,0:0:0:0:
192,192,77560,1,0,0:0:0:0:
320,192,78085,1,0,0:0:0:0:
64,192,78610,1,0,0:0:0:0:
320,192,79135,1,0,0:0:0:0:
192,192,79735,1,0,0:0:0:0:
320,192,80335,1,0,0:0:0:0:
64,192,81010,1,0,0:0:0:0:
320,192,81610,1,0,0:0:0:0:
64,192,82285,1,0,0:0:0:0:
320,192,82885,1,0,0:0:0:0:
192,192,83560,1,0,0:0:0:0:
320,192,84160,1,0,0:0:0:0:
448,192,84760,1,0,0:0:0:0:
64,192,85210,1,0,0:0:0:0:
448,192,85210,1,0,0:0:0:0:
192,192,85810,1,0,0:0:0:0:
320,192,85810,1,0,0:0:0:0:
448,192,86485,1,0,0:0:0:0:
64,192,87160,128,0,89560:0:0:0:0:
320,192,87160,128,0,89560:0:0:0:0:
192,192,90235,1,0,0:0:0:0:
448,192,90235,1,0,0:0:0:0:
320,192,90760,1,0,0:0:0:0:
64,192,90760,1,0,0:0:0:0:
192,192,91360,1,0,0:0:0:0:
448,192,91885,1,0,0:0:0:0:
192,192,92335,1,0,0:0:0:0:
320,192,92560,1,0,0:0:0:0:
64,192,92785,1,0,0:0:0:0:
320,192,93460,1,0,0:0:0:0:
192,192,94285,1,0,0:0:0:0:
320,192,94885,1,0,0:0:0:0:
192,192,95560,1,0,0:0:0:0:
320,192,96160,1,0,0:0:0:0:
64,192,96685,1,0,0:0:0:0:
320,192,97285,1,0,0:0:0:0:
192,192,97810,1,0,0:0:0:0:
320,192,98560,1,0,0:0:0:0:
192,192,99085,1,0,0:0:0:0:
320,192,99685,1,0,0:0:0:0:
192,192,100360,1,0,0:0:0:0:
320,192,100885,1,0,0:0:0:0:
64,192,101485,1,0,0:0:0:0:
448,192,101860,1,0,0:0:0:0:
192,192,102160,1,0,0:0:0:0:
320,192,102460,1,0,0:0:0:0:
64,192,103135,1,0,0:0:0:0:
320,192,103960,1,0,0:0:0:0:
192,192,104485,1,0,0:0:0:0:
320,192,105160,1,0,0:0:0:0:
192,192,105760,1,0,0:0:0:0:
320,192,106360,1,0,0:0:0:0:
64,192,106885,128,0,108760:0:0:0:0:
448,192,106960,128,0,108760:0:0:0:0:
192,192,109360,1,0,0:0:0:0:
320,192,109960,1,0,0:0:0:0:
64,192,110635,1,0,0:0:0:0:
192,192,111085,128,0,114685:0:0:0:0:
448,192,112885,128,0,114685:0:0:0:0:
64,192,115360,1,0,0:0:0:0:
192,192,115960,1,0,0:0:0:0:
320,192,116410,1,0,0:0:0:0:
64,192,117085,1,0,0:0:0:0:
320,192,117685,1,0,0:0:0:0:
64,192,118285,1,0,0:0:0:0:
320,192,118960,1,0,0:0:0:0:
192,192,119560,1,0,0:0:0:0:
320,192,120085,1,0,0:0:0:0:
64,192,120685,1,0,0:0:0:0:
320,192,121360,1,0,0:0:0:0:
192,192,121960,1,0,0:0:0:0:
64,192,122560,128,0,127885:0:0:0:0:
448,192,122560,128,0,127960:0:0:0:0:
320,192,124135,128,0,127810:0:0:0:0:
192,192,124135,128,0,127885:0:0:0:0:
448,192,128485,1,0,0:0:0:0:
64,192,128485,1,0,0:0:0:0:
192,192,129085,1,0,0:0:0:0:
320,192,129685,1,0,0:0:0:0:
64,192,130285,1,0,0:0:0:0:
320,192,130885,1,0,0:0:0:0:
64,192,131485,1,0,0:0:0:0:
320,192,132085,1,0,0:0:0:0:
192,192,132685,1,0,0:0:0:0:
320,192,133285,1,0,0:0:0:0:
64,192,133885,1,0,0:0:0:0:
320,192,134410,1,0,0:0:0:0:
64,192,135085,1,0,0:0:0:0:
192,192,135610,1,0,0:0:0:0:
320,192,136210,1,0,0:0:0:0:
64,192,136810,1,0,0:0:0:0:
192,192,137485,1,0,0:0:0:0:
448,192,138010,1,0,0:0:0:0:
64,192,138535,1,0,0:0:0:0:
192,192,138835,1,0,0:0:0:0:
320,192,139210,1,0,0:0:0:0:
64,192,139885,1,0,0:0:0:0:
320,192,140560,1,0,0:0:0:0:
64,192,141160,1,0,0:0:0:0:
320,192,141760,1,0,0:0:0:0:
192,192,142360,1,0,0:0:0:0:
448,192,142660,1,0,0:0:0:0:
64,192,142960,1,0,0:0:0:0:
192,192,143260,1,0,0:0:0:0:
320,192,143560,1,0,0:0:0:0:
64,192,144085,1,0,0:0:0:0:
320,192,144685,1,0,0:0:0:0:
64,192,145285,1,0,0:0:0:0:
320,192,145885,1,0,0:0:0:0:
64,192,146410,1,0,0:0:0:0:
320,192,147085,1,0,0:0:0:0:
64,192,147685,1,0,0:0:0:0:
320,192,148285,1,0,0:0:0:0:
64,192,148885,128,0,150760:0:0:0:0:
448,192,148885,128,0,150760:0:0:0:0:
192,192,151435,1,0,0:0:0:0:
320,192,151660,1,0,0:0:0:0:
64,192,151885,1,0,0:0:0:0:
448,192,152485,1,0,0:0:0:0:
64,192,153085,1,0,0:0:0:0:
448,192,153685,1,0,0:0:0:0:
64,192,154360,128,0,154735:0:0:0:0:
320,192,154885,1,0,0:0:0:0:
192,192,155410,1,0,0:0:0:0:
64,192,156085,128,0,157285:0:0:0:0:
448,192,156085,128,0,157285:0:0:0:0:
192,192,157885,1,0,0:0:0:0:
320,192,158185,1,0,0:0:0:0:
