osu file format v14

[General]
AudioFilename: Noob-Noob!.mp3
AudioLeadIn: 0
PreviewTime: -1
Countdown: 1
SampleSet: Soft
StackLeniency: 0.7
Mode: 0
LetterboxInBreaks: 0
WidescreenStoryboard: 1

[Editor]
DistanceSpacing: 1.4
BeatDivisor: 4
GridSize: 16
TimelineZoom: 1

[Metadata]
Title:Noob!-Noob !
TitleUnicode:Noob!-Noob !
Artist:Chetreo
ArtistUnicode:Chetreo
Creator:Zeroloph
Version:Noob ?
Source:
Tags:
BeatmapID:1403775
BeatmapSetID:663186

[Difficulty]
HPDrainRate:3
CircleSize:5
OverallDifficulty:5
ApproachRate:5
SliderMultiplier:2.8
SliderTickRate:1

[Events]
//Background and Video events
0,0,"Noob Noob !.jpg",0,0
//Break Periods
2,5112,13312
2,91513,109313
//Storyboard Layer 0 (Background)
//Storyboard Layer 1 (Fail)
//Storyboard Layer 2 (Pass)
//Storyboard Layer 3 (Foreground)
//Storyboard Sound Samples

[TimingPoints]
4912.9157206223,600.000725202278,4,2,0,100,1,0
14497,-100,4,2,0,100,0,0
16870,-100,4,2,0,100,0,0
18030,-100,4,2,0,100,0,0
19270,-100,4,2,0,100,0,0
20466,-100,4,2,0,100,0,0
21653,-100,4,2,0,100,0,0
22865,-100,4,2,0,100,0,0
24045,-100,4,2,0,100,0,0
26445,-100,4,2,0,100,0,0
28835,-100,4,2,0,100,0,0
31275,-100,4,2,0,100,0,0
32500,-100,4,2,0,100,0,0
33663,-50,4,2,0,100,0,0
43296,-50,4,2,0,100,0,0
49236,-100,4,2,0,100,0,0
50476,-100,4,2,0,100,0,0
52866,-100,4,2,0,100,0,0
55266,-100,4,2,0,100,0,0
57656,-100,4,2,0,100,0,0
58876,-100,4,2,0,100,0,0
60056,-100,4,2,0,100,0,0
64856,-100,4,2,0,100,0,0
67207,-100,4,2,0,100,0,0
69657,-100,4,2,0,100,0,0
70870,-100,4,2,0,100,0,0
72098,-100,4,2,0,100,0,0
76900,-50,4,2,0,100,0,0
81680,-83.3333333333333,4,2,0,100,0,0
91275,-100,4,2,0,100,0,0
100858,-100,4,2,0,100,0,0
110492,-100,4,2,0,100,0,0
112872,-100,4,2,0,100,0,0
115272,-100,4,2,0,100,0,0
116442,-100,4,2,0,100,0,0
117642,-100,4,2,0,100,0,0
118822,-100,4,2,0,100,0,0
120012,-100,4,2,0,100,0,0
122412,-100,4,2,0,100,0,0
124882,-100,4,2,0,100,0,0
126079,-100,4,2,0,100,0,0
127271,-100,4,2,0,100,0,0
128486,-100,4,2,0,100,0,0
129667,-100,4,2,0,100,0,0
132106,-100,4,2,0,100,0,0
133296,-100,4,2,0,100,0,0
134476,-100,4,2,0,100,0,0
135706,-100,4,2,0,100,0,0
136876,-100,4,2,0,100,0,0
138116,-100,4,2,0,100,0,0
139246,-100,4,2,0,100,0,0
141616,-100,4,2,0,100,0,0
142816,-100,4,2,0,100,0,0
143986,-100,4,2,0,100,0,0
145286,-100,4,2,0,100,0,0
146486,-100,4,2,0,100,0,0
147664,-100,4,2,0,100,0,0

[HitObjects]
256,192,1312,12,0,4912,0:0:0:0:
160,80,14512,5,0,0:0:0:0:
96,224,14662,1,0,0:0:0:0:
96,224,14812,2,0,B|128:272|144:288|240:256,1,140
288,304,15262,1,0,0:0:0:0:
352,288,15412,1,0,0:0:0:0:
400,240,15562,1,0,0:0:0:0:
304,208,15712,2,0,L|304:48,2,140
256,96,16912,6,0,B|160:80|160:80|80:112,1,140
80,176,17362,1,0,0:0:0:0:
80,176,17512,2,0,B|64:288|64:288|112:352,1,140
192,352,18112,5,0,0:0:0:0:
176,144,18262,1,0,0:0:0:0:
176,144,18412,1,0,0:0:0:0:
272,240,18712,6,0,B|352:320|352:320|432:288,1,140
368,176,19312,2,0,P|352:96|368:32,1,140
432,32,19762,1,0,0:0:0:0:
432,32,19912,2,0,B|464:96|464:96|464:192,1,140
432,272,20512,1,0,0:0:0:0:
384,208,20662,1,0,0:0:0:0:
304,176,20812,1,0,0:0:0:0:
256,272,21112,2,0,B|176:304|96:240|80:208|96:320|96:320|128:288,1,280
208,320,22012,2,0,P|208:176|96:144,1,280
64,256,22912,5,0,0:0:0:0:
64,256,23062,1,0,0:0:0:0:
144,304,23212,2,0,B|176:336|176:336|272:336,1,140
368,192,24112,6,0,L|368:80,1,70
288,112,24412,2,0,L|288:208,1,70
208,160,24712,2,0,L|208:64,1,70
128,64,25012,2,0,L|128:160,1,70
128,192,25312,2,0,B|176:272|176:272|128:320,1,140
144,304,25912,1,0,0:0:0:0:
272,288,26512,6,0,B|320:192|256:240|352:304|448:288|336:352|432:176,1,280
432,48,27412,1,0,0:0:0:0:
400,32,27562,1,0,0:0:0:0:
368,32,27712,1,0,0:0:0:0:
336,48,27862,1,0,0:0:0:0:
320,80,28012,2,0,B|336:128|336:128|288:128|272:112|240:176,1,140
144,128,28912,6,0,B|112:144|112:144|96:192|96:208|112:288,1,140
160,320,29362,1,0,0:0:0:0:
160,320,29512,1,0,0:0:0:0:
288,256,29812,2,0,B|336:224|336:224|368:128,1,140
336,112,30262,1,0,0:0:0:0:
320,80,30412,2,0,P|384:16|432:32,2,140
336,160,31312,6,0,B|304:240|384:304|272:160|160:304|160:352,1,280
80,96,32512,1,0,0:0:0:0:
80,176,32812,2,0,B|112:240|112:240|192:288,1,140
192,112,33712,6,0,L|480:112,1,280
480,192,34162,2,0,L|48:192,1,420
144,64,36112,6,0,L|144:352,1,280
224,368,36562,2,0,L|224:-64,1,420
32,144,38512,6,0,L|384:144,1,280
416,144,38962,2,0,L|128:144,1,280
64,272,39712,6,0,L|496:272,1,420
432,336,40312,2,0,L|432:48,1,280
80,160,43312,6,0,B|256:208|224:48|144:160|352:272|256:352,1,280
208,304,43762,2,0,B|384:368|480:208|336:208|432:352|512:176|400:384|480:80,1,420
400,208,45712,6,0,P|304:64|48:272,1,560
96,64,48112,6,0,L|464:64,1,280
464,64,48562,2,0,L|0:64,1,420
144,144,49312,6,0,B|272:80|128:64|240:288|144:400|96:288|416:176|304:144|304:304|480:256|432:64,1,560
128,80,52912,5,0,0:0:0:0:
80,160,53062,1,0,0:0:0:0:
96,256,53212,1,0,0:0:0:0:
160,320,53362,1,0,0:0:0:0:
240,320,53512,2,0,B|336:320|336:320|400:304|416:320,1,140
320,160,54112,2,0,P|288:80|320:-16,2,140
368,256,55312,6,0,L|528:256,1,140
464,304,55762,2,0,P|448:144|496:112,1,210
352,32,56512,5,0,0:0:0:0:
320,48,56662,1,0,0:0:0:0:
288,80,56812,1,0,0:0:0:0:
272,112,56962,1,0,0:0:0:0:
272,160,57112,2,0,B|304:224|304:224|304:304,1,140
192,288,57712,6,0,B|128:272|112:288|80:320|64:256,1,140
16,208,58162,1,0,0:0:0:0:
16,208,58312,2,0,B|80:128|16:64|64:32,1,140
128,112,58912,2,0,P|96:224|112:272,1,140
176,304,59512,1,0,0:0:0:0:
288,176,60112,6,0,B|416:176|400:64|336:160|384:320|320:352,1,280
192,144,61312,5,0,0:0:0:0:
192,144,61612,2,0,L|192:320,1,140
416,96,62512,5,0,0:0:0:0:
464,192,62662,1,0,0:0:0:0:
416,288,62812,1,0,0:0:0:0:
320,336,62962,1,0,0:0:0:0:
208,336,63112,2,0,B|160:304|160:304|64:304,1,140
144,224,63712,2,0,B|208:224|208:224|304:176,1,140
336,128,64312,6,0,P|480:224|432:304,1,280
368,336,65062,1,0,0:0:0:0:
256,368,65212,1,0,0:0:0:0:
144,336,65362,1,0,0:0:0:0:
96,256,65512,2,0,B|64:224|64:224|64:128,1,140
160,160,66112,2,0,B|192:176|192:176|304:176,1,140
368,176,66712,2,0,B|416:208|416:208|416:304,1,140
352,336,67312,5,0,0:0:0:0:
256,368,67462,1,0,0:0:0:0:
144,368,67612,1,0,0:0:0:0:
48,336,67762,1,0,0:0:0:0:
0,256,67912,2,0,B|0:160|0:160|48:112,1,140
160,192,68512,6,0,P|240:208|304:176,1,140
352,112,68962,1,0,0:0:0:0:
288,32,69112,1,0,0:0:0:0:
176,32,69262,1,0,0:0:0:0:
112,112,69412,2,0,B|64:160|64:160|64:256,1,140
80,304,70012,2,0,B|128:352|128:352|192:304|192:304|224:336,1,140
416,256,70912,5,0,0:0:0:0:
400,96,71212,1,0,0:0:0:0:
288,176,71512,2,0,P|144:176|112:160,1,140
176,96,72112,6,0,L|48:96,1,70
192,176,72412,2,0,L|288:176,1,70
192,256,72712,2,0,L|96:256,1,70
192,336,73012,2,0,L|272:336,1,70
384,336,73312,1,0,0:0:0:0:
416,128,74512,6,0,L|416:0,1,70
352,160,74813,2,0,L|352:272,1,70
288,128,75113,2,0,L|288:32,1,70
224,160,75413,2,0,L|224:240,1,70
224,320,75713,1,0,0:0:0:0:
48,224,76913,6,0,L|416:224,1,280
464,240,77363,2,0,L|-48:240,1,420
192,288,78113,6,0,L|192:0,1,280
96,144,78563,2,0,L|544:144,1,420
128,112,79313,5,0,0:0:0:0:
160,256,79913,2,0,B|304:256|208:48|304:208|368:288|304:368|160:336|416:272|448:96|288:48|336:48|528:64,1,560
112,192,81713,6,0,L|272:192,1,83.9999974365235
416,192,82013,2,0,L|320:192,1,83.9999974365235
256,320,82313,2,0,L|256:192,1,83.9999974365235
256,32,82613,2,0,L|256:144,1,83.9999974365235
256,192,82913,1,0,0:0:0:0:
416,192,84113,6,0,L|272:192,1,83.9999974365235
160,272,84413,2,0,L|272:272,1,83.9999974365235
208,160,84713,2,0,L|208:48,1,83.9999974365235
336,272,85013,2,0,L|336:368,1,83.9999974365235
256,224,85313,1,0,0:0:0:0:
144,192,86513,6,0,B|320:240|288:32|240:176|368:336,1,335.999989746094
304,272,87713,2,0,B|128:208|176:48|256:208|16:272,1,335.999989746094
256,96,88913,5,0,0:0:0:0:
160,272,89213,1,0,0:0:0:0:
160,272,89363,1,0,0:0:0:0:
160,272,89513,2,0,B|224:288|224:288|368:288,1,167.999994873047
384,240,90113,2,0,P|368:112|416:80,1,167.999994873047
464,176,90713,2,0,P|464:304|416:336,1,167.999994873047
320,336,91313,1,0,0:0:0:0:
192,48,110513,5,0,0:0:0:0:
80,128,110663,1,0,0:0:0:0:
96,288,110813,1,0,0:0:0:0:
208,368,110963,1,0,0:0:0:0:
208,368,111113,2,0,B|256:320|256:320|256:224,1,140
128,208,111713,2,0,P|192:160|400:224,1,280
448,224,112913,5,0,0:0:0:0:
320,80,113213,1,0,0:0:0:0:
320,80,113363,1,0,0:0:0:0:
320,80,113513,2,0,B|256:80|256:80|192:128,1,140
112,208,114113,1,0,0:0:0:0:
112,320,114263,1,0,0:0:0:0:
112,208,114413,2,0,L|112:48,1,140
160,176,115313,6,0,B|320:208|304:80|432:160,1,280
416,288,116513,5,0,0:0:0:0:
352,176,116663,1,0,0:0:0:0:
240,128,116813,1,0,0:0:0:0:
112,192,116963,1,0,0:0:0:0:
64,256,117113,2,0,P|48:128|96:80,1,140
96,176,117713,2,0,B|192:144|176:48|160:128|208:240|176:304,1,280
272,224,118913,5,0,0:0:0:0:
272,224,119063,1,0,0:0:0:0:
272,224,119213,2,0,L|272:64,1,140
160,80,120113,5,0,0:0:0:0:
96,224,120263,1,0,0:0:0:0:
96,224,120413,2,0,B|128:272|144:288|240:256,1,140
288,304,120863,1,0,0:0:0:0:
352,288,121013,1,0,0:0:0:0:
400,240,121163,1,0,0:0:0:0:
304,208,121313,2,0,L|304:48,2,140
256,96,122513,6,0,B|160:80|160:80|80:112,1,140
80,176,122963,1,0,0:0:0:0:
80,176,123113,2,0,B|64:288|64:288|112:352,1,140
192,352,123713,5,0,0:0:0:0:
176,144,123863,1,0,0:0:0:0:
176,144,124013,1,0,0:0:0:0:
272,240,124313,6,0,B|352:320|352:320|432:288,1,140
368,176,124913,2,0,P|352:96|368:32,1,140
432,32,125363,1,0,0:0:0:0:
432,32,125513,2,0,B|464:96|464:96|464:192,1,140
432,272,126113,1,0,0:0:0:0:
384,208,126263,1,0,0:0:0:0:
304,176,126413,1,0,0:0:0:0:
256,272,126713,2,0,B|176:304|96:240|80:208|96:320|96:320|128:288,1,280
208,320,127613,2,0,P|208:176|96:144,1,280
64,256,128513,5,0,0:0:0:0:
64,256,128663,1,0,0:0:0:0:
144,304,128813,2,0,B|176:336|176:336|272:336,1,140
128,80,129713,5,0,0:0:0:0:
80,160,129863,1,0,0:0:0:0:
96,256,130013,1,0,0:0:0:0:
160,320,130163,1,0,0:0:0:0:
240,320,130313,2,0,B|336:320|336:320|400:304|416:320,1,140
320,160,130913,2,0,P|288:80|320:-16,2,140
368,256,132113,6,0,L|528:256,1,140
464,304,132563,2,0,P|448:144|496:112,1,210
352,32,133313,5,0,0:0:0:0:
320,48,133463,1,0,0:0:0:0:
288,80,133613,1,0,0:0:0:0:
272,112,133763,1,0,0:0:0:0:
272,160,133913,2,0,B|304:224|304:224|304:304,1,140
192,288,134513,6,0,B|128:272|112:288|80:320|64:256,1,140
16,208,134963,1,0,0:0:0:0:
16,208,135113,2,0,B|80:128|16:64|64:32,1,140
128,112,135713,2,0,P|96:224|112:272,1,140
176,304,136313,1,0,0:0:0:0:
272,336,136613,2,0,P|368:304|400:272,1,140
320,224,137213,2,0,P|320:112|352:64,1,140
192,48,139313,5,0,0:0:0:0:
80,128,139463,1,0,0:0:0:0:
96,288,139613,1,0,0:0:0:0:
208,368,139763,1,0,0:0:0:0:
208,368,139913,2,0,B|256:320|256:320|256:224,1,140
128,208,140513,2,0,P|192:160|400:224,1,280
448,224,141713,5,0,0:0:0:0:
320,80,142013,1,0,0:0:0:0:
320,80,142163,1,0,0:0:0:0:
320,80,142313,2,0,B|256:80|256:80|192:128,1,140
112,208,142913,1,0,0:0:0:0:
112,320,143063,1,0,0:0:0:0:
112,208,143213,2,0,L|112:48,1,140
160,176,144113,6,0,B|320:208|304:80|432:160,1,280
416,288,145313,5,0,0:0:0:0:
352,176,145463,1,0,0:0:0:0:
240,128,145613,1,0,0:0:0:0:
112,192,145763,1,0,0:0:0:0:
64,256,145913,2,0,P|48:128|96:80,1,140
96,176,146513,2,0,B|192:144|176:48|160:128|208:240|176:304,1,280
240,128,147713,5,0,0:0:0:0:
240,208,148013,2,0,L|240:384,1,140
