osu file format v14

[General]
AudioFilename: Good Things.mp3
AudioLeadIn: 0
PreviewTime: -1
Countdown: 1
SampleSet: Soft
StackLeniency: 0.7
Mode: 0
LetterboxInBreaks: 0
WidescreenStoryboard: 1

[Editor]
DistanceSpacing: 1.4
BeatDivisor: 4
GridSize: 16
TimelineZoom: 1.9

[Metadata]
Title:Good Things
TitleUnicode:Good Things
Artist:Chetreo
ArtistUnicode:Chetreo
Creator:Zeroloph
Version:a
Source:
Tags:
BeatmapID:1403772
BeatmapSetID:663186

[Difficulty]
HPDrainRate:6
CircleSize:5
OverallDifficulty:5
ApproachRate:8
SliderMultiplier:2.8
SliderTickRate:1

[Events]
//Background and Video events
0,0,"Rick-and-Morty-2-stagione.jpg",0,0
//Break Periods
2,70909,79370
//Storyboard Layer 0 (Background)
//Storyboard Layer 1 (Fail)
//Storyboard Layer 2 (Pass)
//Storyboard Layer 3 (Foreground)
//Storyboard Sound Samples

[TimingPoints]
4826.71088554297,588.235294117647,4,2,0,100,1,0

[HitObjects]
128,160,4826,6,0,B|336:176|352:48|256:144|400:224,1,280
416,288,5709,1,0,0:0:0:0:
304,352,6003,1,0,0:0:0:0:
176,352,6297,1,0,0:0:0:0:
64,288,6591,2,0,B|0:192|32:96|64:48,1,210
32,144,7179,2,0,B|144:176|208:128|128:64|208:192|288:256,1,280
384,96,8356,5,0,0:0:0:0:
256,320,8650,1,0,0:0:0:0:
96,112,8944,1,0,0:0:0:0:
256,64,9532,6,0,B|272:128|256:240|416:144|320:144|320:256|256:352,1,280
192,304,10267,2,0,P|256:384|400:336,1,210
384,256,11885,6,0,P|256:144|272:32,1,280
320,96,12620,2,0,P|240:160|128:144,1,210
80,80,13650,6,0,L|80:256,1,140
64,288,14238,2,0,P|128:352|336:304,1,280
416,144,15414,6,0,L|416:16,1,70
272,176,15709,2,0,L|272:272,1,70
464,128,16003,2,0,L|464:16,1,70
352,64,16297,1,0,0:0:0:0:
272,160,16591,6,0,L|272:64,1,70
432,208,16885,2,0,L|432:304,1,70
224,128,17179,2,0,L|224:48,1,70
336,48,17473,1,0,0:0:0:0:
432,208,18944,6,0,L|272:208,1,140
192,160,19385,1,0,0:0:0:0:
160,144,19532,1,0,0:0:0:0:
128,112,19679,1,0,0:0:0:0:
112,80,19826,2,0,P|32:0|0:0,1,140
16,96,20414,2,0,B|16:160|16:160|64:240,1,140
144,272,20856,1,0,0:0:0:0:
160,288,21003,2,0,B|256:272|256:272|320:304,1,140
432,256,21885,2,0,P|304:112|336:16,1,280
128,96,23062,5,0,0:0:0:0:
128,160,23356,1,0,0:0:0:0:
128,224,23650,2,0,L|128:368,1,140
128,368,24238,1,0,0:0:0:0:
400,208,24826,6,0,L|480:208,1,70
336,128,25120,2,0,L|240:128,1,70
400,48,25414,2,0,L|480:48,1,70
256,48,25709,1,0,0:0:0:0:
256,208,26003,6,0,L|256:288,1,70
336,160,26297,2,0,L|336:80,1,70
176,144,26591,2,0,L|176:224,1,70
384,208,26885,1,0,0:0:0:0:
400,144,28356,6,0,B|288:160|224:64|144:144|96:192,1,280
48,240,29238,1,0,0:0:0:0:
224,160,30120,6,0,B|304:160|352:128|512:160,1,280
368,256,31003,2,0,L|368:352,1,70
272,224,31297,2,0,L|272:128,1,70
272,80,31591,1,0,0:0:0:0:
176,96,31885,2,0,B|112:128|96:256|208:176|128:240|96:352|32:320,1,280
160,144,33062,6,0,B|288:176|288:80|256:176|256:208,1,140
320,336,33650,1,0,0:0:0:0:
384,192,33944,1,0,0:0:0:0:
384,192,34091,1,0,0:0:0:0:
384,192,34238,1,0,0:0:0:0:
304,112,34532,2,0,P|176:96|144:64,1,140
96,128,35120,2,0,P|112:240|64:272,1,140
224,288,36003,5,0,0:0:0:0:
336,320,36297,2,0,B|416:336|416:336|464:288,1,140
432,256,36738,2,0,P|384:160|400:112,1,140
416,112,37179,1,0,0:0:0:0:
448,224,37473,2,0,B|464:272|464:272|384:352,1,140
176,336,38356,5,0,0:0:0:0:
96,256,38650,2,0,B|64:208|64:208|64:96,1,140
48,80,39091,2,0,P|112:112|272:64,1,210
336,32,39826,1,0,0:0:0:0:
336,32,40120,2,0,L|336:192,1,140
128,208,42473,6,0,B|224:80|224:80|320:256|304:192,1,280
336,304,43650,1,0,0:0:0:0:
416,176,43944,1,0,0:0:0:0:
400,176,44091,1,0,0:0:0:0:
384,176,44238,2,0,P|320:80|336:32,1,140
464,80,44826,2,0,B|480:208|480:208|352:352,1,280
304,288,46003,6,0,B|208:272|128:320|-16:272,1,280
16,352,46738,2,0,P|80:272|96:128,1,210
144,64,47767,1,0,0:0:0:0:
192,192,48356,6,0,B|256:224|352:112|320:48|320:176|368:272,1,280
352,320,49532,2,0,B|240:288|240:288|48:320,1,280
176,96,51297,5,0,0:0:0:0:
256,272,51591,1,0,0:0:0:0:
304,160,51885,2,0,P|400:80|496:176,1,280
352,272,53062,2,0,L|352:368,1,70
288,208,53356,2,0,L|288:96,1,70
224,256,53650,2,0,L|224:336,1,70
224,128,53944,1,0,0:0:0:0:
368,192,54238,6,0,L|480:192,1,70
320,272,54532,2,0,L|240:272,1,70
336,368,54826,2,0,L|416:368,1,70
208,368,55120,1,0,0:0:0:0:
160,80,56591,6,0,B|288:128|224:64|192:192|144:256|224:304,1,280
288,320,57473,2,0,B|368:352|368:352|432:336,1,140
384,224,58062,2,0,P|336:128|336:80,1,140
448,144,58650,2,0,P|480:224|448:320,1,140
384,224,59532,6,0,B|288:224|160:96|80:240|80:304|-48:192|128:96|320:128|256:64,1,560
320,32,61297,6,0,B|368:144|240:192|320:320,1,280
224,160,62473,6,0,L|128:160,1,70
336,224,62767,2,0,L|416:224,1,70
272,96,63062,2,0,L|272:16,1,70
272,256,63356,1,0,0:0:0:0:
272,304,63650,6,0,L|272:384,1,70
208,208,63944,2,0,L|112:208,1,70
320,128,64238,2,0,L|416:128,1,70
256,48,64532,1,0,0:0:0:0:
320,112,66003,5,0,0:0:0:0:
352,96,66150,1,0,0:0:0:0:
384,112,66297,1,0,0:0:0:0:
416,96,66444,1,0,0:0:0:0:
432,128,66591,2,0,B|480:144|480:144|480:256,1,140
448,320,67179,2,0,B|368:352|320:240|400:240|256:320|176:304,1,280
176,192,68356,6,0,L|80:192,1,70
304,144,68650,2,0,L|416:144,1,70
208,240,68944,2,0,L|112:240,1,70
368,144,69238,1,0,0:0:0:0:
368,224,69532,2,0,P|464:160|352:64,1,280
256,96,70709,1,0,0:0:0:0:
112,128,80120,6,0,B|240:176|256:80|224:144|432:144,1,280
416,112,80856,1,0,0:0:0:0:
416,160,81003,2,0,P|400:240|416:320,1,140
480,304,81444,2,0,P|400:368|256:320,1,210
240,208,82473,6,0,L|256:96,1,70
176,128,82767,2,0,L|160:224,1,70
80,192,83062,2,0,L|96:80,1,70
128,64,83356,2,0,B|208:48|208:-32|160:16|320:64|400:48,1,280
400,80,84091,2,0,P|384:176|432:288,1,210
368,224,84826,6,0,B|272:208|176:288|160:96|256:96,1,280
304,48,85562,1,0,0:0:0:0:
352,112,85709,2,0,B|448:176|480:48|480:160,1,140
480,192,86150,2,0,P|416:304|480:384,2,210
480,192,87179,1,0,0:0:0:0:
128,144,89532,6,0,B|240:112|256:176|432:128,1,280
160,272,90709,2,0,L|48:272,1,70
320,320,91003,2,0,L|400:320,1,70
240,208,91297,2,0,L|144:208,1,70
384,320,91591,1,0,0:0:0:0:
320,160,91885,6,0,L|320:48,1,70
208,256,92179,2,0,L|208:336,1,70
320,112,92473,2,0,L|320:16,1,70
320,256,92767,1,0,0:0:0:0:
144,96,94238,5,0,0:0:0:0:
160,128,94385,1,0,0:0:0:0:
192,128,94532,1,0,0:0:0:0:
208,96,94679,1,0,0:0:0:0:
176,64,94826,2,0,L|176:-16,2,70
80,192,95414,2,0,B|112:240|112:240|64:288|64:288|144:336|144:336|80:368,1,280
16,352,96297,1,0,0:0:0:0:
16,272,96591,2,0,B|16:208|16:208|80:144,1,140
128,240,97179,6,0,B|176:208|176:208|224:256|224:256|272:192|272:192|288:272|288:272|352:192|352:192|400:272|400:272|448:192,1,560
432,112,98650,1,0,0:0:0:0:
368,80,98944,2,0,P|272:96|48:80,1,280
96,208,100120,6,0,L|96:304,1,70
176,128,100414,2,0,L|176:32,1,70
32,224,100709,2,0,L|32:320,1,70
32,80,101003,1,0,0:0:0:0:
272,176,101297,6,0,L|384:176,1,70
336,256,101591,2,0,L|416:256,1,70
336,336,101885,2,0,L|240:336,1,70
160,336,102179,1,0,0:0:0:0:
304,208,103650,6,0,B|192:160|224:48|288:144|112:208|208:304,1,280
240,320,104385,2,0,B|320:352|240:400|384:352|432:256,1,210
416,176,105120,1,0,0:0:0:0:
400,144,105267,1,0,0:0:0:0:
368,128,105414,2,0,P|272:112|240:64,1,140
176,144,106003,2,0,P|128:208|32:224,1,140
32,288,106591,2,0,B|128:320|208:256|256:272|336:320,1,280
400,336,107473,1,0,0:0:0:0:
480,192,108356,6,0,B|384:176|320:224|144:176,1,280
112,192,109532,2,0,L|112:304,1,70
224,112,109826,2,0,L|320:112,1,70
64,96,110120,2,0,L|64:0,1,70
64,224,110414,1,0,0:0:0:0:
256,176,110709,6,0,L|352:176,1,70
192,272,111003,2,0,L|96:272,1,70
304,288,111297,2,0,L|304:384,1,70
304,128,111591,1,0,0:0:0:0:
320,160,113062,6,0,L|416:160,1,70
448,192,113356,2,0,B|480:240|480:240|480:336,1,140
416,336,113797,2,0,P|304:304|192:368,1,210
128,272,114532,1,0,0:0:0:0:
48,192,114826,2,0,P|48:96|80:32,1,140
128,144,115414,2,0,P|272:208|352:112,1,280
256,80,116297,2,0,B|352:48|416:0|320:16|464:80|560:32|480:48|480:272,1,420
464,288,117326,1,0,0:0:0:0:
432,304,117473,1,0,0:0:0:0:
384,304,117620,1,0,0:0:0:0:
352,336,117767,2,0,P|240:352|176:336,1,140
208,160,118944,6,0,L|208:32,1,70
288,224,119238,2,0,L|288:320,1,70
352,160,119532,2,0,L|352:48,1,70
352,272,119826,1,0,0:0:0:0:
256,224,120120,6,0,L|128:224,1,70
336,144,120414,2,0,L|432:144,1,70
256,80,120709,2,0,L|160:80,1,70
384,80,121003,1,0,0:0:0:0:
320,96,122473,6,0,B|288:208|464:96|352:160|256:272|176:272,1,280
176,336,123356,2,0,P|64:304|64:240,1,140
224,80,124238,1,0,0:0:0:0:
320,224,124826,6,0,L|320:320,1,70
400,160,125120,2,0,L|400:48,1,70
240,144,125414,2,0,L|144:144,1,70
304,48,125709,1,0,0:0:0:0:
352,176,126003,6,0,L|352:288,1,70
272,96,126297,2,0,L|272:16,1,70
384,160,126591,2,0,B|464:160|432:64|432:176|496:224|496:288|384:320,1,280
