osu file format v14

[General]
AudioFilename: Cheryl Cole feat WillIAm - 3 Words.mp3
AudioLeadIn: 1000
PreviewTime: 236462
Countdown: 0
SampleSet: Normal
StackLeniency: 0.2
Mode: 0
LetterboxInBreaks: 1
EpilepsyWarning: 1
WidescreenStoryboard: 1

[Editor]
Bookmarks: 44526,74064,103603,133142,148142,177450,207171,229142,236526,266064
DistanceSpacing: 1.5
BeatDivisor: 2
GridSize: 16
TimelineZoom: 2.1

[Metadata]
Title:3 Words feat. will.i.am
TitleUnicode:3 Words feat. will.i.am
Artist:Cheryl Cole
ArtistUnicode:Cheryl Cole
Creator:Krfawy
Version:Collab Hard
Source:
Tags:2009 polydor parachute english pop i love you three techno electro dance EDM Pappy Papcio Cydros CircleChu Hoen Marianna Kazuya Kazuya-sama diraimur Voli Synitri Venix
BeatmapID:722917
BeatmapSetID:222252

[Difficulty]
HPDrainRate:5
CircleSize:4.5
OverallDifficulty:6
ApproachRate:6
SliderMultiplier:1.6
SliderTickRate:1

[Events]
//Background and Video events
0,0,"bg.jpg",0,0
//Break Periods
//Storyboard Layer 0 (Background)
//Storyboard Layer 1 (Fail)
//Storyboard Layer 2 (Pass)
//Storyboard Layer 3 (Foreground)
Sprite,Foreground,Centre,"Lyrics\0.png",320,340 F,0,444,844,0,0.8 MX,0,444,44522,115,140 S,0,470,,0.6 C,0,470,,255,255,255 P,0,470,,A MY,0,470,44548,400 F,0,44122,44522,0.8,0
Sprite,Foreground,Centre,"Lyrics\1.png",320,340 F,0,44520,44920,0,0.8 MX,0,44520,74058,115,140 S,0,44548,,0.6 C,0,44548,,255,255,255 P,0,44548,,A MY,0,44548,74086,400 F,0,73658,74058,0.8,0
Sprite,Foreground,Centre,"Lyrics\2.png",320,340 F,0,74058,74458,0,0.8 MX,0,74058,103596,115,140 S,0,74086,,0.6 C,0,74086,,255,255,255 P,0,74086,,A MY,0,74086,103624,400 F,0,103196,103596,0.8,0
Sprite,Foreground,Centre,"Lyrics\3.png",320,340 F,0,103596,103996,0,0.8 MX,0,103596,133135,115,140 S,0,103624,,0.6 C,0,103624,,255,255,255 P,0,103624,,A MY,0,103624,133163,400 F,0,132735,133135,0.8,0
Sprite,Foreground,Centre,"Lyrics\0.png",320,340 F,0,133135,133535,0,0.8 MX,0,133135,147904,115,140 S,0,133163,,0.6 C,0,133163,,255,255,255 P,0,133163,,A MY,0,133163,147932,400 F,0,147504,147904,0.8,0
Sprite,Foreground,Centre,"Lyrics\5.png",320,340 F,0,147904,148304,0,0.8 MX,0,147904,177443,115,140 S,0,147932,,0.6 C,0,147932,,255,255,255 P,0,147932,,A MY,0,147932,177471,400 F,0,177043,177443,0.8,0
Sprite,Foreground,Centre,"Lyrics\6.png",320,340 F,0,177443,177843,0,0.8 MX,0,177443,206981,115,140 S,0,177471,,0.6 C,0,177471,,255,255,255 P,0,177471,,A MY,0,177471,207009,400 F,0,206581,206981,0.8,0
Sprite,Foreground,Centre,"Lyrics\7.png",320,340 F,0,206981,207381,0,0.8 MX,0,206981,236520,115,140 S,0,207009,,0.6 C,0,207009,,255,255,255 P,0,207009,,A MY,0,207009,236548,400 F,0,236120,236520,0.8,0
Sprite,Foreground,Centre,"Lyrics\8.png",320,340 F,0,236520,236920,0,0.8 MX,0,236520,266058,115,140 S,0,236548,,0.6 C,0,236548,,255,255,255 P,0,236548,,A MY,0,236548,266086,400 F,0,265658,266058,0.8,0
//Storyboard Layer 4 (Overlay)
//Storyboard Sound Samples

[TimingPoints]
444,461.538461538462,4,2,1,60,1,0
44520,461.538461538462,4,1,1,70,1,0
103596,-80,4,1,1,80,0,1
114443,-153.846153846154,4,1,1,80,0,1
116060,-153.846153846154,4,1,1,80,0,1
117443,-153.846153846154,4,2,1,80,0,0
118366,-80,4,1,1,80,0,1
133135,-100,4,2,1,60,0,0
229366,-100,4,2,1,40,0,0
230058,-100,4,2,1,35,0,0
230981,-100,4,2,1,30,0,0
231904,-100,4,2,1,25,0,0
232827,-100,4,2,1,20,0,0
233750,-100,4,2,1,15,0,0
234673,-100,4,2,1,10,0,0
235596,-100,4,2,1,5,0,0
236520,-80,4,1,1,80,0,1
250366,-153.846153846154,4,2,1,80,0,0
251289,-80,4,1,1,80,0,1
266058,-100,4,2,1,5,0,0

[Colours]
Combo1 : 179,91,91
Combo2 : 202,172,173
Combo3 : 166,182,148
Combo4 : 140,155,79
SliderBorder : 50,50,50
SliderTrackOverride : 218,218,218

[HitObjects]
29,184,444,6,0,P|68:188|108:184,1,80,2|0,0:0|0:0,0:0:0:0:
199,153,905,2,0,B|240:153|272:178|272:178|305:203|346:203,2,160
390,131,2290,6,0,P|417:160|428:198,1,80,2|0,0:0|0:0,0:0:0:0:
414,293,2751,2,0,B|389:293|389:293|318:293|270:358,2,160
366,106,4136,38,0,P|329:91|303:61,1,80,2|0,0:0|0:0,0:0:0:0:
213,26,4597,2,0,P|136:47|78:101,2,160
137,202,5982,6,0,P|122:239|114:278,1,80,2|0,0:0|0:0,0:0:0:0:
115,374,6444,2,0,B|153:379|153:379|193:373|193:373|233:383|272:373,2,160
53,191,7828,38,0,P|49:152|55:112,1,80,2|0,0:0|0:0,0:0:0:0:
137,61,8290,2,0,P|214:68|278:21,2,160
256,210,9674,6,0,P|243:261|219:304,1,80,2|0,0:0|0:0,0:0:0:0:
145,329,10136,2,0,B|165:339|165:339|189:333|189:333|245:347|245:347|299:333,2,160
11,190,11520,38,0,P|45:171|70:140,1,80,2|0,0:0|0:0,0:0:0:0:
120,58,11982,2,0,P|185:71|139:148,2,160
157,246,13367,6,0,P|192:263|231:273,1,80,2|0,0:0|0:0,0:0:0:0:
324,296,13828,2,0,B|402:296|402:296|418:303|418:303|481:303,2,160
161,191,15213,38,0,P|155:152|165:114,1,80,2|0,0:0|0:0,0:0:0:0:
240,54,15674,2,0,P|316:74|394:60,2,160,2|2|2,0:0|0:0|0:0,0:0:0:0:
48,67,17059,2,0,P|46:121|68:155,1,80,2|0,0:0|0:0,0:0:0:0:
133,201,17520,1,0,0:0:0:0:
222,236,17751,2,0,P|276:238|310:216,2,80,2|0|0,0:0|0:0|0:0,0:0:0:0:
249,146,18444,1,2,0:0:0:0:
366,22,18905,5,2,0:0:0:0:
414,104,19136,1,0,0:0:0:0:
366,187,19367,2,0,B|354:308|354:308|333:340,2,160,2|2|2,0:0|0:0|0:0,0:0:0:0:
146,22,20751,1,2,0:0:0:0:
98,104,20982,1,0,0:0:0:0:
146,187,21213,2,0,B|158:308|158:308|178:340,2,160,2|2|2,0:0|0:0|0:0,0:0:0:0:
256,30,22597,38,0,P|278:62|288:101,1,80,2|0,0:0|0:0,0:0:0:0:
275,196,23059,2,0,P|327:176|420:229,2,160,2|2|2,0:0|0:0|0:0,0:0:0:0:
209,266,24213,1,0,0:0:0:0:
208,362,24444,2,0,P|169:352|136:329,2,80,2|0|0,0:0|0:0|0:0,0:0:0:0:
304,362,25136,2,0,P|342:352|375:329,2,80,2|0|0,0:0|0:0|0:0,0:0:0:0:
256,279,25828,1,2,0:0:0:0:
256,279,26290,6,0,P|243:228|219:185,1,80,2|0,0:0|0:0,0:0:0:0:
180,121,26751,2,0,B|256:97|256:97|332:121,2,160,2|2|2,0:0|0:0|0:0,0:0:0:0:
332,121,28136,2,0,P|358:166|372:213,1,80,2|0,0:0|0:0,0:0:0:0:
421,271,28597,2,0,B|401:226|425:194|449:162|429:117,2,160,2|2|2,0:0|0:0|0:0,0:0:0:0:
256,370,29982,38,0,P|217:376|179:366,1,80,2|0,0:0|0:0,0:0:0:0:
119,291,30444,2,0,P|139:215|125:137,2,160,2|2|2,0:0|0:0|0:0,0:0:0:0:
38,116,31828,1,2,0:0:0:0:
117,61,32059,1,0,0:0:0:0:
196,6,32290,1,0,0:0:0:0:
256,79,32520,2,0,P|244:112|248:179,2,80,2|0|0,0:0|0:0|0:0,0:0:0:0:
316,6,33213,1,2,0:0:0:0:
316,6,33674,6,0,P|361:32|408:46,1,80,2|0,0:0|0:0,0:0:0:0:
480,15,34136,2,0,B|435:78|435:78|420:87|420:87|384:139,2,160,2|2|2,0:0|0:0|0:0,0:0:0:0:
308,103,35520,2,0,P|299:141|310:179,1,80,2|0,0:0|0:0,0:0:0:0:
380,223,35982,2,0,P|328:203|235:256,2,160,2|2|2,0:0|0:0|0:0,0:0:0:0:
380,223,37367,37,2,0:0:0:0:
321,302,37597,1,0,0:0:0:0:
238,356,37828,1,0,0:0:0:0:
129,372,38059,2,0,L|45:379,1,80,2|0,0:0|0:0,0:0:0:0:
10,290,38520,2,0,L|89:305,1,80,2|0,0:0|0:0,0:0:0:0:
269,244,39213,2,0,L|192:208,2,80,2|0|0,0:0|0:0|0:0,0:0:0:0:
379,244,39905,2,0,L|455:208,2,80,2|0|0,0:0|0:0|0:0,0:0:0:0:
324,322,40597,1,2,0:0:0:0:
324,322,41059,6,0,P|298:277|284:230,1,80,2|0,0:0|0:0,0:0:0:0:
256,160,41520,1,2,0:0:0:0:
256,160,41982,1,2,0:0:0:0:
256,160,42444,1,2,0:0:0:0:
324,322,42905,2,0,P|355:346|391:366,2,80,2|0|2,0:0|0:0|0:0,0:0:0:0:
216,186,43828,37,2,0:0:0:0:
227,181,44059,1,2,0:0:0:0:
239,178,44290,1,2,0:0:0:0:
252,177,44520,6,0,P|290:184|323:206,1,80,4|0,0:0|0:0,0:0:0:0:
348,301,44981,2,0,L|394:147,2,160,2|0|2,0:2|0:0|0:2,0:0:0:0:
164,302,46366,2,0,P|161:262|144:226,1,80
55,109,46827,2,0,P|57:148|74:184,1,80,2|0,0:2|0:0,0:0:0:0:
80,31,47289,1,0,0:0:0:0:
160,161,47750,2,0,P|198:154|231:132,1,80,2|0,0:2|0:0,0:0:0:0:
256,37,48212,38,0,L|302:191,2,160,0|2|0,0:0|0:2|0:0,0:0:0:0:
101,192,49596,1,2,0:2:0:0:
166,373,50058,1,0,0:0:0:0:
256,347,50289,1,0,0:0:0:0:
346,321,50520,2,0,P|369:247|331:179,1,160,2|0,0:2|0:0,0:0:0:0:
256,347,51443,1,2,0:2:0:0:
316,85,51904,6,0,P|324:123|317:162,1,80
195,162,52366,2,0,P|187:123|195:85,1,80,2|0,0:2|0:0,0:0:0:0:
256,10,52827,2,0,B|309:10|309:10|360:25|360:25|412:25,1,160,0|2,0:0|0:2,0:0:0:0:
491,82,53520,1,0,0:0:0:0:
462,174,53750,2,0,P|427:191|387:195,1,80
242,175,54212,2,0,P|276:156|316:152,1,80,2|0,0:2|0:0,0:0:0:0:
205,248,54673,2,0,P|169:265|129:268,1,80
307,248,55135,2,0,P|342:265|382:268,1,80,2|0,0:2|0:0,0:0:0:0:
256,160,55596,38,0,B|226:90|285:80|256:5,2,160,0|2|0,0:0|0:2|0:0,0:0:0:0:
412,274,56981,1,2,0:2:0:0:
432,82,57443,2,0,L|309:184,2,160,0|2|0,0:0|0:2|0:0,0:0:0:0:
383,0,58596,1,0,0:0:0:0:
377,5,58827,2,0,B|350:27|350:27|307:37,1,80,2|0,0:2|0:0,0:0:0:0:
135,5,59289,6,0,B|161:27|161:27|204:37,1,80,4|0,0:0|0:0,0:0:0:0:
255,119,59750,2,0,L|256:296,2,160,2|0|2,0:2|0:0|0:2,0:0:0:0:
164,288,61135,2,0,B|143:211|143:211|169:135,1,160,0|2,0:0|0:2,0:0:0:0:
256,94,61827,1,0,0:0:0:0:
342,135,62058,2,0,B|368:211|368:211|348:288,1,160,0|2,0:0|0:2,0:0:0:0:
255,349,62981,37,0,0:0:0:0:
100,236,63443,1,2,0:2:0:0:
160,53,63904,1,0,0:0:0:0:
352,53,64366,1,2,0:2:0:0:
411,236,64827,2,0,P|391:269|359:292,1,80
261,284,65289,2,0,L|389:379,2,160,2|0|2,0:2|0:0|0:2,0:0:0:0:
126,149,66673,6,0,B|160:149|160:149|200:168,1,80
386,149,67135,2,0,B|351:149|351:149|311:168,1,80,2|0,0:2|0:0,0:0:0:0:
256,263,67596,2,0,B|285:193|226:183|256:108,2,160,0|2|0,0:0|0:2|0:0,0:0:0:0:
161,277,68750,1,0,0:0:0:0:
133,192,68981,2,0,P|124:153|132:115,1,80,2|0,0:2|0:0,0:0:0:0:
209,56,69443,1,0,0:0:0:0:
303,56,69673,1,0,0:0:0:0:
379,115,69904,38,0,P|387:153|378:192,2,80,2|2|0,0:2|0:2|2:0,0:0:0:0:
132,115,71750,6,0,P|124:153|133:192,2,80,2|2|0,2:0|2:0|2:0,0:0:0:0:
256,328,73366,37,2,2:0:0:0:
256,232,73596,1,2,2:0:0:0:
256,135,73827,1,2,2:0:0:0:
256,38,74058,6,0,P|293:70|335:89,1,80,4|0,0:0|0:0,0:0:0:0:
420,113,74520,2,0,P|416:66|425:16,1,80,2|0,0:2|0:0,0:0:0:0:
321,84,74981,1,0,0:0:0:0:
355,173,75212,1,0,0:0:0:0:
431,232,75443,2,0,P|489:245|523:259,1,80,2|0,0:2|0:0,0:0:0:0:
478,368,75904,2,0,P|419:354|385:340,1,80,0|0,0:2|0:0,0:0:0:0:
314,263,76366,1,2,0:2:0:0:
142,177,76827,2,0,P|91:163|38:161,1,80
216,115,77289,2,0,P|252:78|281:32,1,80,2|0,0:2|0:0,0:0:0:0:
233,211,77750,38,0,P|257:303|303:389,2,160,0|2|0,0:2|0:2|0:0,0:0:0:0:
216,115,78904,1,0,0:0:0:0:
233,19,79135,1,2,0:2:0:0:
307,148,79366,2,0,P|399:124|485:78,1,160
477,192,80058,1,2,0:2:0:0:
446,282,80289,2,0,P|399:346|329:382,1,160
233,365,80981,1,2,0:2:0:0:
118,232,81443,6,0,P|135:196|138:156,1,80
60,176,81904,1,2,0:2:0:0:
1,235,82135,1,0,0:0:0:0:
61,291,82366,1,0,0:0:0:0:
118,232,82596,1,0,0:0:0:0:
176,288,82827,2,0,P|228:344|236:356,2,80,2|0|0,0:2|0:0|0:0,0:0:0:0:
118,232,83520,1,0,0:0:0:0:
60,176,83750,37,2,0:2:0:0:
118,232,83981,1,0,0:0:0:0:
61,291,84212,1,0,0:0:0:0:
1,235,84443,1,0,0:2:0:0:
60,176,84673,2,0,P|86:146|99:108,1,80,2|0,0:2|0:0,0:0:0:0:
256,28,85135,6,0,P|332:68|408:68,1,160,0|2,0:0|0:2,0:0:0:0:
496,40,85827,1,0,0:0:0:0:
470,187,86058,2,0,P|453:223|449:262,1,80
474,356,86520,2,0,P|437:339|398:335,1,80,2|0,0:2|0:0,0:0:0:0:
305,360,86981,2,0,P|322:275|301:202,1,160,0|2,0:0|0:2,0:0:0:0:
256,95,87673,1,0,0:0:0:0:
208,205,87904,2,0,P|192:241|189:281,1,80
136,108,88366,2,0,P|112:75|79:53,1,80,2|0,0:2|0:0,0:0:0:0:
256,95,88827,38,0,P|320:152|393:170,1,160,4|2,0:0|0:2,0:0:0:0:
452,256,89520,1,0,0:0:0:0:
421,357,89750,2,0,P|389:333|352:320,1,80
234,290,90212,2,0,P|270:274|300:248,1,80,2|0,0:2|0:0,0:0:0:0:
390,170,90673,2,0,P|305:152|232:173,1,160,0|2,0:0|0:2,0:0:0:0:
236,171,91596,1,0,0:0:0:0:
301,248,91827,1,0,0:0:0:0:
390,170,92058,2,0,P|426:130|440:101,1,80,2|0,0:2|0:0,0:0:0:0:
456,14,92520,6,0,P|371:32|298:11,2,160,0|2|0,0:0|0:2|0:0,0:0:0:0:
210,14,93904,1,2,0:2:0:0:
118,5,94135,1,0,0:0:0:0:
127,97,94366,2,0,P|127:136|116:174,1,80
74,261,94827,2,0,P|113:260|151:271,1,80,2|0,0:2|0:0,0:0:0:0:
238,314,95289,2,0,P|323:332|396:311,1,160,0|2,0:0|0:2,0:0:0:0:
471,259,95981,1,0,0:0:0:0:
383,219,96212,38,0,P|346:204|306:202,1,80
214,238,96673,2,0,P|289:215|336:152,2,160,2|0|2,0:2|0:0|0:2,0:0:0:0:
118,248,97827,1,0,0:0:0:0:
22,239,98058,2,0,P|24:274|51:320,1,80
158,335,98520,2,0,P|187:315|213:269,1,80,2|0,0:2|0:0,0:0:0:0:
158,335,99443,6,0,P|187:315|213:269,1,80,2|2,0:2|0:2,0:0:0:0:
211,277,100135,37,0,2:0:0:0:
173,169,100366,2,0,P|141:153|88:153,1,80,2|0,2:0|2:0,0:0:0:0:
10,192,100827,2,0,P|39:211|65:257,1,80,2|0,2:0|2:0,0:0:0:0:
63,344,101289,5,2,0:2:0:0:
71,344,101520,1,2,0:2:0:0:
220,318,101981,37,0,2:0:0:0:
228,318,102212,2,0,L|389:300,2,160,2|2|2,2:0|2:0|2:0,0:0:0:0:
127,69,103596,38,0,L|232:57,1,100,4|2,0:0|0:2,0:0:0:0:
328,168,104058,1,8,0:0:0:0:
321,172,104289,2,0,L|216:184,1,100,2|0,0:2|0:2,0:0:0:0:
128,300,104750,1,2,0:2:0:0:
48,340,104981,1,8,0:0:0:0:
8,259,105212,1,2,0:2:0:0:
89,219,105443,38,0,P|104:172|136:124,1,100,0|2,0:0|0:2,0:0:0:0:
280,248,105904,2,0,L|292:356,1,100,8|2,0:0|0:2,0:0:0:0:
468,276,106366,2,0,L|456:176,1,100,0|2,0:0|0:2,0:0:0:0:
447,87,106827,1,8,0:0:0:0:
364,124,107058,6,0,P|328:136|236:20,1,200,4|2,0:0|0:2,0:0:0:0:
324,41,107750,1,8,0:0:0:0:
320,48,107981,2,0,L|208:220,1,200,0|2,0:0|0:2,0:0:0:0:
132,260,108673,2,0,P|120:212|136:164,1,100,8|2,0:0|0:2,0:0:0:0:
201,344,109135,2,0,P|144:367|33:300,1,200,0|8,0:0|0:0,0:0:0:0:
15,218,109827,1,0,0:0:0:0:
8,215,110058,2,0,L|0:104,1,100,0|2,0:0|0:2,0:0:0:0:
56,44,110520,1,8,0:0:0:0:
120,108,110750,38,0,P|160:132|272:48,1,200,4|2,0:0|0:2,0:0:0:0:
181,35,111443,1,8,0:0:0:0:
184,44,111673,2,0,L|244:248,1,200,0|2,0:0|0:2,0:0:0:0:
317,284,112366,2,0,P|333:232|313:184,1,100,8|2,0:0|0:2,0:0:0:0:
279,110,112827,5,0,0:0:0:0:
287,106,113058,1,2,0:2:0:0:
352,44,113289,2,0,B|392:24|392:24|456:28,1,100,8|2,0:0|0:2,0:0:0:0:
287,106,113750,2,0,B|231:109|231:109|191:89,1,100,0|2,0:0|0:2,0:0:0:0:
113,45,114212,1,8,0:0:0:0:
68,123,114443,5,4,0:0:0:0:
256,192,114673,12,2,115596,2:0:0:0:
68,123,116058,5,2,0:2:0:0:
113,45,116289,1,4,0:0:0:0:
256,192,116520,12,2,117443,0:0:0:0:
202,126,118366,6,0,P|162:98|98:98,1,100,4|2,0:0|0:2,0:0:0:0:
178,225,118827,1,8,0:0:0:0:
187,226,119058,2,0,P|236:222|276:194,1,100,0|2,0:0|0:2,0:0:0:0:
380,84,119520,1,0,0:0:0:0:
464,53,119750,1,8,0:0:0:0:
495,138,119981,1,2,0:2:0:0:
411,169,120212,6,0,P|400:216|372:272,1,100,0|2,0:0|0:2,0:0:0:0:
232,140,120673,2,0,L|216:32,1,100,8|2,0:0|0:2,0:0:0:0:
44,124,121135,2,0,L|58:222,1,100,0|2,0:0|0:2,0:0:0:0:
72,312,121596,1,8,0:0:0:0:
142,256,121827,38,0,P|170:236|326:280,1,200,4|2,0:0|0:2,0:0:0:0:
376,340,122520,1,8,0:0:0:0:
448,287,122750,2,0,P|488:200|437:120,1,200,0|2,0:0|0:2,0:0:0:0:
385,46,123443,2,0,P|433:30|485:50,1,100,8|2,0:0|0:2,0:0:0:0:
304,120,123904,2,0,P|216:148|116:116,1,200,0|8,0:0|0:0,0:0:0:0:
39,60,124596,1,2,0:2:0:0:
40,68,124827,2,0,L|44:172,1,100,0|2,0:0|0:2,0:0:0:0:
44,258,125289,1,8,0:0:0:0:
122,303,125520,6,0,P|154:315|306:271,1,200,4|2,0:0|0:2,0:0:0:0:
368,206,126212,1,8,0:0:0:0:
292,158,126443,2,0,P|194:143|108:189,1,200,0|2,0:0|0:2,0:0:0:0:
44,258,127135,2,0,L|24:152,1,100,8|2,0:0|0:2,0:0:0:0:
1,64,127596,37,0,0:0:0:0:
4,72,127827,1,2,0:2:0:0:
92,92,128058,2,0,P|144:100|192:92,1,100,8|2,0:0|0:2,0:0:0:0:
420,92,128520,2,0,P|368:100|320:92,1,100,0|2,0:0|0:2,0:0:0:0:
256,31,128981,1,8,0:0:0:0:
256,154,129212,37,4,0:0:0:0:
256,192,129443,12,2,130366,2:0:0:0:
256,154,130827,37,2,0:2:0:0:
256,31,131058,1,4,0:0:0:0:
256,192,131289,12,2,133135,0:0:0:0:
154,120,134058,6,0,B|256:191|256:191|270:215|270:215|353:273,1,240,2|0,0:0|0:0,0:0:0:0:
414,330,134981,1,0,0:0:0:0:
419,322,135212,2,0,P|434:286|435:246,2,80,2|0|0,0:0|0:0|0:0,0:0:0:0:
332,360,135904,2,0,P|230:301|112:324,2,240,2|2|0,0:0|0:0|0:0,0:0:0:0:
332,360,137750,38,0,P|273:258|296:140,2,240,2|2|0,0:0|0:0|0:0,0:0:0:0:
385,140,139596,2,0,P|283:198|165:175,1,240,2|2,0:0|0:0,0:0:0:0:
128,89,140520,1,0,0:0:0:0:
72,167,140750,6,0,B|45:129|45:129|39:96,2,80,2|0|0,0:0|0:0|0:0,0:0:0:0:
129,245,141443,1,2,0:0:0:0:
129,245,141904,2,0,B|109:286|109:286|83:308,2,80,2|0|0,0:0|0:0|0:0,0:0:0:0:
168,156,142596,2,0,B|213:151|213:151|245:163,2,80,2|0|0,0:0|0:0|0:0,0:0:0:0:
72,167,143289,2,0,B|107:166|125:139|143:112|178:112|178:112|201:83|201:83|242:74|263:38,1,240,2|2,0:0|0:0,0:0:0:0:
264,37,144443,37,2,0:0:0:0:
237,129,144673,1,0,0:0:0:0:
252,223,144904,1,0,0:0:0:0:
324,285,145135,2,0,P|392:323|471:330,2,160,2|0|0,0:0|0:0|0:0,0:0:0:0:
252,223,146289,6,0,P|227:174|232:134,2,80,2|0|0,0:0|0:0|0:0,0:0:0:0:
322,156,146981,2,0,P|263:61|155:87,1,240,2|2,0:0|0:0,0:0:0:0:
154,88,148135,38,0,B|117:127|65:125|65:125|46:162|63:205,1,160,2|0,0:0|0:0,0:0:0:0:
90,274,148827,1,2,0:0:0:0:
175,318,149058,1,0,0:0:0:0:
270,304,149289,2,0,P|306:275|323:238,2,80,2|0|0,0:0|0:0|0:0,0:0:0:0:
230,217,149981,5,2,0:0:0:0:
306,158,150212,2,0,P|365:166|398:196,1,80
436,256,150673,2,0,P|437:196|463:159,1,80,2|0,0:0|0:0,0:0:0:0:
512,110,151135,1,2,0:0:0:0:
448,38,151366,38,0,B|412:30|377:49|377:49|337:40|337:40|289:84|195:64,1,240,2|0,0:0|0:0,0:0:0:0:
130,32,152289,1,0,0:0:0:0:
46,78,152520,2,0,P|48:120|40:166,1,80,2|0,0:0|0:0,0:0:0:0:
104,230,152981,2,0,P|104:271|112:318,1,80,2|0,0:0|0:0,0:0:0:0:
194,356,153443,1,0,0:0:0:0:
268,294,153673,6,0,B|313:266|363:272|363:272|411:306|459:285|459:285|441:268|416:270,2,240,2|2|0,0:0|0:0|0:0,0:0:0:0:
194,356,155289,1,0,0:0:0:0:
100,334,155520,38,0,B|60:339|60:339|42:328|14:324,2,80,2|0|0,0:0|0:0|0:0,0:0:0:0:
175,274,156212,2,0,B|180:237|162:207|162:207|171:164|171:164|153:113,1,160,2|2,0:0|0:0,0:0:0:0:
84,56,156904,1,0,0:0:0:0:
2,106,157135,1,0,0:0:0:0:
0,202,157366,6,0,P|11:249|31:278,2,80,2|0|0,0:0|0:0|0:0,0:0:0:0:
2,106,158058,2,0,P|-11:58|-5:18,2,80,2|0|0,0:0|0:0|0:0,0:0:0:0:
86,152,158750,38,0,B|208:158|186:92|315:97,1,240,2|0,0:0|0:0,0:0:0:0:
400,144,159673,1,0,0:0:0:0:
383,239,159904,2,0,P|341:220|311:181,1,80,2|0,0:0|0:0,0:0:0:0:
315,98,160366,2,0,P|346:64|404:48,1,80,2|0,0:0|0:0,0:0:0:0:
377,51,161058,6,0,B|403:73|403:73|411:101|411:101|466:118|494:189,1,160,2|0,0:0|0:0,0:0:0:0:
488,259,161750,2,0,P|449:292|407:308,1,80,2|0,0:0|0:0,0:0:0:0:
327,294,162212,2,0,P|276:302|237:321,2,80,2|0|0,0:0|0:0|0:0,0:0:0:0:
423,303,162904,38,0,B|428:245|382:197|327:197|327:197|336:153|313:117,2,240,2|2|0,0:0|0:0|0:0,0:0:0:0:
367,382,164520,1,0,0:0:0:0:
276,352,164750,6,0,P|301:311|347:288,1,80,2|0,0:0|0:0,0:0:0:0:
423,303,165212,1,0,0:0:0:0:
486,230,165443,2,0,B|490:206|483:186|483:186|438:165|439:123|439:123|455:134|457:153,1,160,2|0,0:0|0:0,0:0:0:0:
390,220,166135,38,0,P|357:121|375:57,2,160,2|2|0,0:0|0:0|0:0,0:0:0:0:
467,279,167289,1,2,0:0:0:0:
429,368,167520,2,0,L|344:366,1,80
264,322,167981,6,0,B|212:313|169:340|169:340|138:333|138:333|106:339,2,160,2|0|0,0:0|0:0|0:0,0:0:0:0:
354,287,169135,2,0,P|373:252|376:212,1,80,2|0,0:0|0:0,0:0:0:0:
303,150,169596,2,0,P|284:185|281:225,2,80,2|0|0,0:0|0:0|0:0,0:0:0:0:
376,212,170289,38,0,P|339:302|209:294,1,240,2|2,0:0|0:0,0:0:0:0:
186,204,171212,1,0,0:0:0:0:
116,138,171443,2,0,P|68:135|29:146,2,80,2|0|0,0:0|0:0|0:0,0:0:0:0:
210,116,172135,6,0,P|258:119|297:108,1,80,2|0,0:0|0:0,0:0:0:0:
374,66,172596,1,0,0:0:0:0:
464,100,172827,2,0,B|474:111|480:127|480:127|460:162|470:206|470:206|445:220|432:247,1,160,2|0,0:0|0:0,0:0:0:0:
376,314,173520,38,0,B|336:264|267:260|267:260|216:303|150:278,1,240,2|0,0:0|0:0,0:0:0:0:
104,201,174443,1,0,0:0:0:0:
86,107,174673,2,0,P|190:160|198:211,1,160,2|0,0:0|0:0,0:0:0:0:
159,281,175366,2,0,P|148:328|158:376,1,80,2|0,0:0|0:0,0:0:0:0:
248,364,175827,6,0,B|264:320|255:274|255:274|282:238|282:238|274:180|311:126,2,240,2|2|0,0:0|0:0|0:0,0:0:0:0:
150,310,177443,38,0,P|115:291|91:259,2,80,2|0|0,0:0|0:0|0:0,0:0:0:0:
190,98,178366,1,2,0:0:0:0:
273,51,178596,1,0,0:0:0:0:
304,141,178827,1,0,0:0:0:0:
389,96,179058,1,0,0:0:0:0:
420,186,179289,6,0,B|397:225|409:263|409:263|400:289|400:289|406:326|384:347,2,160,2|2|2,0:0|0:0|0:0,0:0:0:0:
281,241,180673,2,0,L|265:353,1,80,2|0,0:0|0:0,0:0:0:0:
184,274,181135,38,0,P|145:264|107:272,1,80,2|0,0:0|0:0,0:0:0:0:
50,349,181596,1,2,0:0:0:0:
135,374,181827,1,0,0:0:0:0:
107,272,182058,2,0,L|94:169,1,80,2|0,0:0|0:0,0:0:0:0:
180,147,182520,2,0,L|193:44,1,80,2|0,0:0|0:0,0:0:0:0:
285,108,182981,6,0,B|341:131|395:107|395:107|423:144,2,160,2|0|2,0:0|0:0|0:0,0:0:0:0:
193,80,184135,1,0,0:0:0:0:
116,138,184366,2,0,P|68:135|29:146,1,80
84,235,184827,38,0,P|132:238|171:227,1,80,2|0,0:0|0:0,0:0:0:0:
251,193,185289,1,0,0:0:0:0:
421,320,185750,2,0,P|505:283|492:201,2,160,2|0|2,0:0|0:0|0:0,0:0:0:0:
254,358,187135,1,2,0:0:0:0:
160,335,187366,1,0,0:0:0:0:
98,261,187596,2,0,P|63:327|63:354,1,80,2|0,0:0|0:0,0:0:0:0:
160,335,188058,2,0,P|194:268|194:241,1,80,2|0,0:0|0:0,0:0:0:0:
196,160,188520,6,0,L|302:172,1,80,2|2,0:0|0:0,0:0:0:0:
362,216,188981,2,0,L|441:207,1,80,2|0,0:0|0:0,0:0:0:0:
490,123,189443,1,2,0:0:0:0:
285,79,189904,2,0,L|179:67,1,80,0|2,0:0|0:0,0:0:0:0:
121,24,190366,2,0,B|79:20|50:53|50:53|10:62|10:62|-6:101,2,160,2|0|2,0:0|0:0|0:0,0:0:0:0:
123,120,191520,2,0,P|120:159|103:195,2,80,0|2|0,0:0|0:0|0:0,0:0:0:0:
121,24,192212,37,2,0:0:0:0:
186,204,192673,1,2,0:0:0:0:
130,282,192904,2,0,L|106:372,2,80,0|2|0,0:0|0:0|0:0,0:0:0:0:
186,204,193596,1,2,0:0:0:0:
420,275,194058,6,0,P|444:243|478:222,2,80,2|0|2,0:0|0:0|0:0,0:0:0:0:
382,363,194750,1,0,0:0:0:0:
286,377,194981,1,2,0:0:0:0:
256,223,195443,1,2,0:0:0:0:
256,223,195904,38,0,P|335:203|414:214,2,160,2|2|2,0:0|0:0|0:0,0:0:0:0:
21,347,197289,1,2,0:0:0:0:
21,347,197750,6,0,P|55:367|94:374,1,80,2|0,0:0|0:0,0:0:0:0:
188,351,198212,2,0,L|166:252,1,80,2|0,0:0|0:0,0:0:0:0:
243,211,198673,2,0,L|221:112,1,80,2|0,0:0|0:0,0:0:0:0:
190,34,199135,1,2,0:0:0:0:
186,28,199366,1,0,0:0:0:0:
292,46,199596,38,0,P|332:42|367:24,2,80,2|0|2,0:0|0:0|0:0,0:0:0:0:
322,145,200289,2,0,P|354:168|393:177,2,80,0|2|0,0:0|0:0|0:0,0:0:0:0:
323,249,200981,2,0,P|333:288|357:320,1,80,2|0,0:0|0:0,0:0:0:0:
257,353,201443,6,0,P|179:322|114:354,2,160,2|2|2,0:0|0:0|0:0,0:0:0:0:
454,353,202827,1,2,0:0:0:0:
503,261,203058,1,2,0:0:0:0:
468,162,203289,37,2,0:0:0:0:
266,176,203750,2,0,P|225:183|172:171,1,80,2|0,0:0|0:0,0:0:0:0:
123,94,204212,2,0,P|83:88|44:95,1,80,2|0,0:0|0:0,0:0:0:0:
87,190,204673,1,2,0:0:0:0:
231,83,205135,6,0,P|236:43|229:4,2,80,2|0|2,0:0|0:0|0:0,0:0:0:0:
220,184,205827,1,0,0:0:0:0:
209,285,206058,1,2,0:0:0:0:
290,140,206520,1,2,0:0:0:0:
299,142,206750,1,0,0:0:0:0:
308,144,206981,38,0,P|324:182|326:222,1,80,2|0,0:0|0:0,0:0:0:0:
339,315,207443,2,0,B|374:312|386:292|386:292|289:233|184:299,1,240,2|0,0:0|0:0,0:0:0:0:
139,353,208366,1,2,0:0:0:0:
89,270,208596,2,0,B|67:215|67:215|72:175|72:175|44:111,2,160,2|0|2,0:0|0:0|0:0,0:0:0:0:
159,149,209750,6,0,B|126:75,1,80
216,38,210212,1,2,0:0:0:0:
255,125,210443,1,0,0:0:0:0:
333,183,210673,38,0,P|420:210|490:169,1,160,0|2,0:0|0:0,0:0:0:0:
406,109,211366,2,0,P|381:73|383:20,2,80
479,182,212058,2,0,P|504:218|502:271,1,80,2|0,0:0|0:0,0:0:0:0:
423,309,212520,6,0,L|317:290,1,80
259,249,212981,1,2,0:0:0:0:
211,332,213212,2,0,L|105:313,1,80
47,272,213673,1,0,0:0:0:0:
74,180,213904,2,0,P|81:136|59:80,1,80,2|0,0:0|0:0,0:0:0:0:
145,39,214366,38,0,B|184:26|184:26|231:40,2,80,0|0|2,0:0|0:0|0:0,0:0:0:0:
200,117,215058,2,0,B|237:128|237:128|276:115,2,80
158,203,215750,2,0,P|150:242|159:280,1,80,2|0,0:0|0:0,0:0:0:0:
234,342,216212,5,0,0:0:0:0:
241,339,216443,2,0,L|330:356,1,80,0|2,0:0|0:0,0:0:0:0:
374,281,216904,1,0,0:0:0:0:
382,280,217135,2,0,L|460:264,1,80
500,179,217596,2,0,P|513:152|484:167,1,80,2|0,0:0|0:0,0:0:0:0:
452,73,218058,38,0,P|422:98|403:133,1,80
411,232,218520,1,2,0:0:0:0:
404,230,218750,2,0,L|325:245,1,80
266,170,219212,1,0,0:0:0:0:
259,172,219443,2,0,L|180:156,1,80,2|0,0:0|0:0,0:0:0:0:
89,137,219904,6,0,P|91:181|112:222,2,80,0|0|2,0:0|0:0|0:0,0:0:0:0:
162,75,220596,2,0,P|161:35|145:-1,2,80
89,137,221289,1,2,0:0:0:0:
183,157,221520,38,0,B|258:187|258:123|338:155,1,160,0|0,2:0|0:0,0:0:0:0:
422,200,222212,1,2,0:0:0:0:
395,292,222443,6,0,B|372:348|303:348|273:296|273:296|241:371|241:371|231:327|183:307,2,320,2|0|0,0:0|0:0|0:0,0:0:0:0:
422,200,224520,38,0,P|397:124|406:40,1,160,0|2,0:0|0:0,0:0:0:0:
318,2,225212,2,0,P|242:27|158:18,1,160
75,58,225904,1,2,0:0:0:0:
114,145,226135,2,0,L|124:224,2,80
34,199,226827,2,0,L|23:278,1,80,2|0,0:0|0:0,0:0:0:0:
109,328,227289,5,0,0:0:0:0:
117,329,227520,2,0,P|155:328|202:306,1,80,0|2,0:0|0:0,0:0:0:0:
247,237,227981,1,0,0:0:0:0:
255,235,228212,2,0,P|291:219|331:218,1,80
410,270,228673,2,0,P|448:269|495:247,1,80,2|0,0:0|0:0,0:0:0:0:
256,192,229135,12,2,236058,0:0:0:0:
187,95,236520,6,0,L|87:87,1,100,4|2,0:0|0:2,0:0:0:0:
247,171,236981,2,0,L|347:179,1,100,8|2,0:0|0:2,0:0:0:0:
396,256,237443,2,0,P|440:192|384:96,1,200,2|8,0:2|0:0,0:0:0:0:
247,171,238135,1,2,0:2:0:0:
396,256,238366,6,0,B|440:284|440:284|488:288,1,100,2|0,0:2|0:0,0:0:0:0:
360,336,238827,2,0,L|260:336,1,100,8|2,0:0|0:2,0:0:0:0:
192,276,239289,2,0,P|184:228|192:176,2,100,2|2|8,0:2|0:2|0:0,0:0:0:0:
260,336,239981,1,4,0:0:0:0:
128,316,240212,38,0,P|108:248|136:120,1,200,2|8,0:2|0:0,0:0:0:0:
208,76,240904,2,0,B|368:52|368:52|344:84,1,200,2|2,0:2|0:2,0:0:0:0:
357,235,241596,1,8,0:0:0:0:
364,240,241827,1,2,0:2:0:0:
452,264,242058,6,0,P|416:316|292:300,1,200,2|8,0:2|0:0,0:0:0:0:
205,277,242750,2,0,P|241:225|365:241,1,200,2|2,0:2|0:2,0:0:0:0:
293,301,243443,1,8,0:0:0:0:
205,277,243673,1,4,0:0:0:0:
296,124,243904,38,0,L|412:104,1,100,2|2,0:2|0:2,0:0:0:0:
224,64,244366,2,0,L|125:80,1,100,8|2,0:0|0:2,0:0:0:0:
76,156,244827,2,0,P|68:208|80:256,1,100,2|2,0:2|0:2,0:0:0:0:
152,308,245289,2,0,L|252:296,1,100,8|2,0:0|0:2,0:0:0:0:
344,196,245750,6,0,P|356:128|256:60,1,200,2|8,0:2|0:0,0:0:0:0:
272,148,246443,1,2,0:2:0:0:
344,196,246673,2,0,L|444:196,1,100,2|2,0:2|0:2,0:0:0:0:
260,60,247135,1,8,0:0:0:0:
172,60,247366,5,4,0:0:0:0:
256,192,247596,12,2,248520,2:0:0:0:
172,60,248981,5,2,0:2:0:0:
260,60,249212,1,4,0:0:0:0:
256,192,249443,12,2,250366,0:0:0:0:
256,196,251058,37,2,0:0:0:0:
176,236,251289,38,0,P|252:284|340:228,1,200,4|8,0:0|0:0,0:0:0:0:
336,148,251981,2,0,P|260:100|172:156,1,200,2|0,0:2|0:0,0:0:0:0:
176,236,252673,1,8,0:0:0:0:
256,280,252904,38,0,B|344:280|344:280|364:288|364:288|464:288,1,200,2|2,0:2|0:2,0:0:0:0:
480,200,253596,1,8,0:0:0:0:
432,124,253827,1,0,0:0:0:0:
376,196,254058,2,0,P|328:204|272:168,1,100,2|2,0:2|0:2,0:0:0:0:
352,32,254520,2,0,P|360:80|324:136,1,100,8|4,0:0|0:0,0:0:0:0:
268,68,254981,6,0,B|108:68|108:68|136:100,1,200,2|8,0:2|0:0,0:0:0:0:
200,160,255673,2,0,B|200:212|128:248|128:248|48:288,1,200,2|2,0:2|0:2,0:0:0:0:
4,212,256366,2,0,L|100:164,1,100,8|2,0:0|0:2,0:0:0:0:
200,160,256827,38,0,B|252:148|292:180|292:180|340:148|392:168,1,200,2|8,0:2|0:0,0:0:0:0:
348,248,257520,1,0,0:0:0:0:
292,176,257750,2,0,L|292:64,1,100,2|2,0:2|0:2,0:0:0:0:
200,160,258212,2,0,L|200:260,1,100,8|4,0:0|0:0,0:0:0:0:
160,340,258673,6,0,B|96:344|72:276|72:276|44:192,1,200,2|8,0:2|0:0,0:0:0:0:
68,112,259366,1,2,0:2:0:0:
132,48,259596,2,0,P|156:100|144:148,1,100,2|2,0:2|0:2,0:0:0:0:
200,260,260058,2,0,L|300:264,1,100,8|2,0:0|0:2,0:0:0:0:
379,365,260520,38,0,B|335:393|287:369|287:369|227:341|183:373,1,200,2|8,0:2|0:0,0:0:0:0:
82,345,261212,1,2,0:2:0:0:
104,232,261443,2,0,P|116:184|100:132,1,100,2|2,0:2|0:2,0:0:0:0:
22,93,261904,1,8,0:0:0:0:
24,185,262135,37,4,0:0:0:0:
256,192,262366,12,2,263289,2:0:0:0:
24,185,263750,37,2,0:2:0:0:
22,93,263981,1,4,0:0:0:0:
256,192,264212,12,2,266058,0:0:0:0:
