osu file format v14

[General]
AudioFilename: audio.mp3
AudioLeadIn: 0
PreviewTime: 23793
Countdown: 0
SampleSet: Soft
StackLeniency: 0.3
Mode: 0
LetterboxInBreaks: 0
WidescreenStoryboard: 0

[Editor]
Bookmarks: 16,9262,10583,21151,23793,26435,37003,47571,52855,58139
DistanceSpacing: 1.5
BeatDivisor: 4
GridSize: 32
TimelineZoom: 1.7

[Metadata]
Title:Bliznetsy (111loggedin Edit) (Cut Ver.)
TitleUnicode:Близнецы (111loggedin Edit) (Cut Ver.)
Artist:CHERNOBURKV
ArtistUnicode:CHERNOBURKV
Creator:Nytrocide_
Version:The Fog Is Coming.
Source:
Tags:nytro ganyumymommy soraka nyarvis heyimjarvis jarvis -envy- envy nv riffy -bakari- bakari russian electronic underground sped up version remix lo-fi house deep bass hex hexd * roxy xxenaa <3 ЛАБИРИНТЫ labyrinth labyrinty labyrinths чернобурка чернобуркв chernoburka who hu tao hutao genshin impact
BeatmapID:4098441
BeatmapSetID:1974817

[Difficulty]
HPDrainRate:5
CircleSize:4.2
OverallDifficulty:8.8
ApproachRate:9.6
SliderMultiplier:2.2
SliderTickRate:1

[Events]
//Background and Video events
0,0,"the fog is coming.jpg",0,0
//Break Periods
2,23993,25926
//Storyboard Layer 0 (Background)
//Storyboard Layer 1 (Fail)
//Storyboard Layer 2 (Pass)
//Storyboard Layer 3 (Foreground)
//Storyboard Layer 4 (Overlay)
//Storyboard Sound Samples

[TimingPoints]
16,330.247355269097,4,2,1,60,1,0
16,-133.333333333333,4,2,1,60,0,0
9262,-133.333333333333,4,2,1,75,0,0
10583,-100,4,2,1,75,0,0
21151,-100,4,2,1,75,0,0
23793,-1000,4,2,1,25,0,0
26435,-66.6666666666667,4,2,1,90,0,0
26724,-66.6666666666667,4,2,1,5,0,0
26766,-66.6666666666667,4,2,1,90,0,0
28417,-50,4,2,1,90,0,1
28706,-50,4,2,1,5,0,1
28747,-50,4,2,1,90,0,1
29036,-50,4,2,1,5,0,1
29077,-66.6666666666667,4,2,1,90,0,0
31059,-50,4,2,1,90,0,1
31183,-50,4,2,1,5,0,1
31224,-50,4,2,1,90,0,1
31348,-50,4,2,1,5,0,1
31389,-50,4,2,1,90,0,1
31678,-50,4,2,1,90,0,1
31719,-66.6666666666667,4,2,1,90,0,0
33701,-50,4,2,1,90,0,1
33990,-50,4,2,1,5,0,1
34031,-50,4,2,1,90,0,1
34320,-50,4,2,1,5,0,1
34361,-66.6666666666667,4,2,1,90,0,0
36343,-50,4,2,1,90,0,1
36467,-50,4,2,1,5,0,1
36508,-50,4,2,1,90,0,1
36632,-50,4,2,1,5,0,1
36673,-50,4,2,1,90,0,1
36962,-50,4,2,1,5,0,1
37003,-66.6666666666667,4,2,1,90,0,0
37333,-50,4,2,1,90,0,0
38324,-66.6666666666667,4,2,1,90,0,0
38985,-50,4,2,1,90,0,1
39274,-50,4,2,1,5,0,1
39315,-50,4,2,1,90,0,1
39604,-50,4,2,1,5,0,1
39645,-66.6666666666667,4,2,1,90,0,0
40306,-50,4,2,1,90,0,0
40966,-66.6666666666667,4,2,1,90,0,0
41627,-50,4,2,1,90,0,1
41751,-50,4,2,1,5,0,1
41792,-50,4,2,1,90,0,1
41916,-50,4,2,1,5,0,1
41957,-50,4,2,1,90,0,1
42246,-50,4,2,1,5,0,1
42287,-66.6666666666667,4,2,1,90,0,0
42617,-50,4,2,1,90,0,0
43608,-66.6666666666667,4,2,1,90,0,0
44269,-50,4,2,1,90,0,1
44558,-50,4,2,1,5,0,1
44599,-50,4,2,1,90,0,1
44888,-50,4,2,1,5,0,1
44929,-66.6666666666667,4,2,1,90,0,0
45590,-50,4,2,1,90,0,0
46250,-66.6666666666667,4,2,1,90,0,0
46911,-50,4,2,1,90,0,1
47034,-50,4,2,1,5,0,1
47076,-50,4,2,1,90,0,1
47200,-50,4,2,1,5,0,1
47241,-50,4,2,1,90,0,1
47530,-50,4,2,1,5,0,1
47571,-133.333333333333,4,2,1,75,0,0
52855,-133.333333333333,4,2,1,5,0,0
53020,-133.333333333333,4,2,1,60,0,0
54176,-133.333333333333,4,2,1,60,0,0
54341,-133.333333333333,4,2,1,60,0,0
55497,-133.333333333333,4,2,1,60,0,0
55662,-133.333333333333,4,2,1,60,0,0
56818,-133.333333333333,4,2,1,60,0,0
56983,-133.333333333333,4,2,1,60,0,0
58139,-1000,4,2,1,5,0,0

[Colours]
Combo1 : 85,29,141
Combo2 : 191,191,191
Combo3 : 53,181,149
Combo4 : 85,85,85

[HitObjects]
256,192,16,12,0,9262,0:0:0:0:
208,31,10583,6,0,B|180:0|290:17|277:98,1,110,2|2,1:2|0:0,0:0:0:0:
321,229,10914,6,0,P|352:211|349:185,1,55,0|0,1:0|0:0,0:0:0:0:
348,185,11079,1,2,0:0:0:0:
326,0,11244,6,0,P|289:78|266:172,1,165,2|0,1:2|0:0,0:0:0:0:
269,165,11574,5,0,1:2:0:0:
508,285,11739,1,2,0:0:0:0:
433,242,11904,5,2,1:2:0:0:
420,253,11987,1,0,0:0:0:0:
423,269,12070,1,2,0:0:0:0:
351,360,12235,6,0,P|419:314|501:284,1,165,2|0,1:2|0:0,0:0:0:0:
508,285,12565,5,2,1:2:0:0:
282,333,12730,1,2,0:0:0:0:
56,381,12895,1,2,1:2:0:0:
56,381,13225,6,0,B|34:370|28:385|-19:301|46:286,1,110,2|2,1:2|0:0,0:0:0:0:
159,167,13556,6,0,P|128:185|131:211,1,55,2|0,1:2|0:0,0:0:0:0:
132,211,13721,1,2,0:0:0:0:
26,212,13886,6,0,P|105:231|178:269,1,165,0|0,1:0|0:0,0:0:0:0:
178,278,14216,2,0,P|123:248|47:221,1,110,0|2,1:2|0:0,0:0:0:0:
0,0,14546,5,2,1:2:0:0:
32,69,14712,1,0,0:0:0:0:
64,139,14877,1,2,1:2:0:0:
64,139,15207,5,0,1:0:0:0:
64,139,15537,5,0,1:0:0:0:
64,139,15867,6,0,B|90:144|84:74|153:91,1,110,2|2,1:2|0:0,0:0:0:0:
256,41,16198,5,2,1:2:0:0:
269,30,16281,1,0,0:0:0:0:
266,14,16364,1,2,0:0:0:0:
180,0,16528,5,2,1:2:0:0:
346,57,16693,1,2,0:0:0:0:
512,114,16858,1,2,1:2:0:0:
512,114,17188,6,0,B|502:94|457:106|492:170|449:191,1,110,2|2,1:2|0:0,0:0:0:0:
456,362,17519,6,0,P|437:366|407:340,1,55,2|0,1:2|0:0,0:0:0:0:
405,334,17684,1,2,0:0:0:0:
392,126,17849,6,0,P|435:196|466:277,1,165,2|0,1:2|0:0,0:0:0:0:
467,284,18179,5,2,1:2:0:0:
304,170,18344,1,2,0:0:0:0:
456,185,18509,6,0,P|475:165|480:138,1,55,2|0,1:2|0:0,0:0:0:0:
479,127,18674,1,2,0:0:0:0:
359,234,18840,5,2,1:2:0:0:
180,180,19005,1,2,0:0:0:0:
144,363,19170,6,0,P|196:340|322:309,1,165,0|0,1:0|0:0,0:0:0:0:
303,320,19500,2,0,P|233:336|166:364,1,110,2|0,1:2|0:0,0:0:0:0:
5,221,19830,5,2,1:2:0:0:
76,247,19996,1,2,0:0:0:0:
148,274,20161,1,2,1:2:0:0:
160,263,20491,5,2,1:2:0:0:
80,233,20656,1,2,0:0:0:0:
0,203,20822,1,2,1:2:0:0:
359,37,21151,6,0,P|331:67|327:91,1,55,2|0,1:2|0:0,0:0:0:0:
208,0,21316,2,0,P|233:44|264:136,2,110,2|2|2,0:0|1:2|0:0,0:0:0:0:
177,147,21812,6,0,P|213:165|225:186,1,55,2|0,1:2|0:0,0:0:0:0:
225,187,21977,1,2,0:0:0:0:
353,221,22142,2,0,P|302:227|269:296,1,110,2|2,1:2|0:0,0:0:0:0:
256,384,22472,5,2,1:2:0:0:
183,361,22637,1,2,0:0:0:0:
386,134,22803,5,2,1:2:0:0:
397,131,22968,1,2,0:0:0:0:
131,26,23133,5,2,1:2:0:0:
131,26,23463,6,0,B|108:31|132:67|80:109|19:64,2,110,2|2|2,1:2|0:0|0:0,0:0:0:0:
309,342,26435,6,0,B|296:259|376:213|447:251|447:251|400:257|391:299,1,288.750011014939,4|0,1:2|0:0,0:0:0:0:
391,298,26766,6,0,P|370:289|348:224,1,82.5000031471254,8|0,1:2|0:0,0:0:0:0:
437,142,26931,1,2,0:1:0:0:
422,228,27096,6,0,P|377:112|319:3,1,247.500009441376,0|0,1:0|0:0,0:0:0:0:
328,0,27426,2,0,P|385:109|430:224,1,247.500009441376,8|0,1:2|0:0,0:0:0:0:
468,332,27756,5,0,1:0:0:0:
512,88,27921,1,2,0:1:0:0:
478,342,28087,5,8,1:2:0:0:
126,240,28252,1,2,0:1:0:0:
248,218,28417,6,0,B|293:186|370:237|315:337|233:303|208:226|208:226|193:176|147:147|92:167,1,385,0|0,1:0|0:0,0:0:0:0:
106,163,28747,6,0,B|74:181|73:222|73:222|144:131|255:109|255:109|201:121|183:182,1,385,8|0,1:2|0:0,0:0:0:0:
188,169,29077,6,0,P|157:147|159:98,1,82.5000031471254,4|2,1:2|0:1,0:0:0:0:
13,90,29242,2,0,P|51:99|83:74,1,82.5000031471254,2|0,0:1|0:0,0:0:0:0:
158,0,29408,5,8,1:2:0:0:
67,300,29573,5,2,0:1:0:0:
99,304,29655,1,0,0:0:0:0:
122,281,29738,2,0,P|239:321|345:384,1,247.500009441376,0|0,1:0|0:0,0:0:0:0:
351,377,30068,2,0,P|244:314|127:274,1,247.500009441376,8|0,1:2|0:0,0:0:0:0:
0,255,30398,5,0,1:0:0:0:
251,86,30563,1,2,0:1:0:0:
6,242,30729,5,8,1:2:0:0:
481,380,30894,1,2,0:1:0:0:
350,88,31059,6,0,B|351:61|322:47|322:47|392:47|395:128,1,165,0|0,1:0|0:0,0:0:0:0:
394,116,31224,6,0,B|389:125|389:125|308:126|253:199,1,165,2|0,0:1|0:0,0:0:0:0:
257,194,31389,6,0,B|227:171|227:171|377:199|377:199|380:203|380:203|534:227|534:227|505:206,1,385,8|0,1:2|0:0,0:0:0:0:
507,207,31719,6,0,P|470:212|452:275,1,82.5000031471254,4|2,1:2|0:1,0:0:0:0:
481,380,31884,1,2,0:1:0:0:
300,284,32049,6,0,P|296:320|351:354,1,82.5000031471254,8|0,1:2|0:0,0:0:0:0:
492,384,32215,1,2,0:1:0:0:
378,282,32380,6,0,P|260:319|150:375,1,247.500009441376,0|0,1:0|0:0,0:0:0:0:
152,384,32710,2,0,P|262:327|379:290,1,247.500009441376,8|0,1:2|0:0,0:0:0:0:
512,303,33040,5,0,1:0:0:0:
96,181,33205,1,2,0:1:0:0:
508,314,33370,5,8,1:2:0:0:
210,13,33536,1,2,0:1:0:0:
316,69,33701,6,0,B|362:75|388:30|388:30|321:31|257:85|262:188|262:188|259:151|228:131,1,385,0|0,1:0|0:0,0:0:0:0:
228,131,34031,6,0,B|191:117|164:142|164:142|292:142|390:227|390:227|387:190|350:175,1,385,8|0,1:2|0:0,0:0:0:0:
350,175,34361,6,0,P|311:186|304:239,1,82.5000031471254,4|2,1:2|0:1,0:0:0:0:
368,367,34526,2,0,P|385:388|371:362,1,82.5000031471254,2|0,0:1|0:0,0:0:0:0:
96,181,34691,5,8,1:2:0:0:
400,14,34857,5,2,0:1:0:0:
425,35,34939,1,0,0:0:0:0:
417,67,35022,2,0,P|361:176|314:321,1,247.500009441376,0|0,1:0|0:0,0:0:0:0:
330,298,35352,2,0,P|369:180|426:70,1,247.500009441376,8|0,1:2|0:0,0:0:0:0:
512,14,35682,5,0,1:0:0:0:
228,131,35847,1,2,0:1:0:0:
507,0,36012,5,8,1:2:0:0:
315,384,36178,1,2,0:1:0:0:
126,142,36343,6,0,B|123:114|148:92|148:92|82:100|88:165,1,165,0|0,1:0|0:0,0:0:0:0:
88,165,36508,6,0,B|94:174|94:174|183:162|223:261,1,165,2|0,0:1|0:0,0:0:0:0:
217,246,36673,6,0,B|207:283|207:283|175:132|175:132|170:128|170:128|141:-19|141:-19|133:21,1,385,8|0,1:2|0:0,0:0:0:0:
134,16,37003,6,0,P|141:44|201:59,1,82.5000031471254,4|2,1:2|0:1,0:0:0:0:
372,8,37168,1,2,0:1:0:0:
127,259,37333,6,0,P|163:105|332:67,1,330,8|0,1:2|0:0,0:0:0:0:
380,331,37664,6,0,P|228:376|111:249,1,330,0|0,1:0|0:0,0:0:0:0:
316,76,37994,6,0,P|431:184|379:349,1,330,8|0,1:2|0:0,0:0:0:0:
414,105,38324,5,0,1:0:0:0:
419,71,38407,1,0,0:0:0:0:
450,59,38489,1,2,0:1:0:0:
512,147,38654,5,8,1:2:0:0:
122,338,38820,1,2,0:1:0:0:
257,384,38985,6,0,B|340:358|269:303|301:226|384:205|427:250|427:250|391:242|360:262|368:276|344:291|322:278,1,385,0|0,1:0|0:0,0:0:0:0:
323,279,39315,6,0,B|239:253|310:198|278:121|195:100|152:145|152:145|188:137|219:157|211:171|235:186|257:173,1,385,8|0,1:2|0:0,0:0:0:0:
256,173,39645,6,0,P|287:153|273:81,1,82.5000031471254,4|2,1:2|0:1,0:0:0:0:
214,0,39810,1,2,0:1:0:0:
122,338,39975,5,8,1:2:0:0:
127,372,40058,1,0,0:0:0:0:
158,384,40140,1,2,0:1:0:0:
392,36,40306,6,0,P|306:132|208:313,1,330,0|0,1:0|0:0,0:0:0:0:
219,313,40636,2,0,P|294:166|400:40,1,330,8|0,1:2|0:0,0:0:0:0:
512,0,40966,5,0,1:0:0:0:
217,109,41131,1,2,0:1:0:0:
507,14,41296,5,8,1:2:0:0:
376,337,41462,1,2,0:1:0:0:
303,287,41627,6,0,B|310:260|336:252|336:252|329:181|263:177,1,165,0|0,1:0|0:0,0:0:0:0:
265,178,41792,6,0,B|240:186|243:214|243:214|391:148,1,165,2|0,0:1|0:0,0:0:0:0:
351,166,41957,6,0,B|423:176|411:254|411:254|283:235|283:235|289:232|289:232|165:212,1,385,8|0,1:2|0:0,0:0:0:0:
165,212,42287,6,0,P|134:228|131:289,1,82.5000031471254,4|2,1:2|0:1,0:0:0:0:
183,384,42452,1,2,0:1:0:0:
0,53,42617,6,0,P|117:167|199:310,1,330,8|0,1:2|0:0,0:0:0:0:
332,0,42948,6,0,P|173:44|9:43,1,330,0|0,1:0|0:0,0:0:0:0:
212,313,43278,6,0,P|252:153|335:11,1,330,8|0,1:2|0:0,0:0:0:0:
105,352,43608,5,0,1:0:0:0:
138,347,43690,1,0,0:0:0:0:
160,374,43773,1,2,0:1:0:0:
303,287,43938,5,8,1:2:0:0:
14,378,44104,1,2,0:1:0:0:
379,310,44269,6,0,B|469:273|438:328|464:350|502:357|502:357|402:356|356:258|408:195,1,385,0|0,1:0|0:0,0:0:0:0:
408,195,44599,6,0,B|335:129|346:191|314:203|275:196|275:196|370:230|447:154|419:78,1,385,8|0,1:2|0:0,0:0:0:0:
420,79,44929,6,0,P|399:47|331:41,1,82.5000031471254,4|2,1:2|0:1,0:0:0:0:
245,97,45094,1,2,0:1:0:0:
447,379,45259,5,8,1:2:0:0:
480,384,45341,1,0,0:0:0:0:
502,357,45424,1,2,0:1:0:0:
144,163,45590,6,0,P|303:203|452:274,1,330,0|0,1:0|0:0,0:0:0:0:
449,284,45920,2,0,P|300:213|140:172,1,330,8|0,1:2|0:0,0:0:0:0:
21,193,46250,5,0,1:0:0:0:
274,16,46415,1,2,0:1:0:0:
26,178,46580,5,8,1:2:0:0:
360,362,46746,1,2,0:1:0:0:
215,197,46911,6,0,B|226:205|254:150|138:140|145:259|200:272,1,165,0|0,1:0|0:0,0:0:0:0:
196,271,47076,6,0,B|192:279|192:279|131:272|84:317|84:317|89:285|118:268,1,165,2|0,0:1|0:0,0:0:0:0:
100,283,47241,6,0,B|222:277|333:379|333:379|283:333|276:262,1,385,8|0,1:2|0:0,0:0:0:0:
277,269,47571,6,0,P|299:237|345:239,1,82.5000031471254,0|2,1:0|0:1,0:0:0:0:
416,180,47901,2,0,P|438:212|478:213,1,82.5000031471254,0|2,1:2|0:1,0:0:0:0:
277,269,48232,6,0,P|299:237|345:239,1,82.5000031471254,0|2,1:0|0:1,0:0:0:0:
416,180,48562,2,0,P|438:212|478:213,1,82.5000031471254,0|2,1:2|0:1,0:0:0:0:
485,299,48892,5,0,1:0:0:0:
487,311,49057,1,2,0:1:0:0:
339,236,49222,5,0,1:2:0:0:
341,224,49387,1,2,0:1:0:0:
207,360,49553,5,0,1:0:0:0:
209,372,49718,1,2,0:1:0:0:
0,325,49883,5,0,1:2:0:0:
2,313,50048,1,2,0:1:0:0:
47,194,50213,6,0,P|79:166|72:122,1,82.5000031471254,0|2,1:0|0:1,0:0:0:0:
142,60,50543,2,0,P|124:22|79:17,1,82.5000031471254,0|2,1:2|0:1,0:0:0:0:
47,194,50874,6,0,P|79:166|72:122,1,82.5000031471254,0|2,1:0|0:1,0:0:0:0:
142,60,51204,2,0,P|124:22|79:17,1,82.5000031471254,0|2,1:2|0:1,0:0:0:0:
5,61,51534,5,0,1:0:0:0:
17,58,51699,1,2,0:1:0:0:
331,126,51864,5,0,1:2:0:0:
319,123,52029,1,2,0:1:0:0:
125,250,52195,5,0,1:0:0:0:
137,247,52360,1,2,0:1:0:0:
209,372,52525,5,0,1:2:0:0:
197,369,52690,2,0,P|204:330|229:273,1,82.5000031471254,2|2,0:1|0:1,0:0:0:0:
256,192,53020,12,2,54176,0:0:0:0:
256,192,54341,12,2,55497,0:0:0:0:
256,192,55662,12,2,56818,0:0:0:0:
256,192,56983,12,4,58139,0:1:0:0:
