osu file format v14

[General]
AudioFilename: audio.mp3
AudioLeadIn: 0
PreviewTime: 23793
Countdown: 0
SampleSet: Soft
StackLeniency: 0.3
Mode: 0
LetterboxInBreaks: 0
WidescreenStoryboard: 1

[Editor]
Bookmarks: 16,9262,10583,21151,23793,26435,37003,47571,52855,58139
DistanceSpacing: 1.5
BeatDivisor: 4
GridSize: 32
TimelineZoom: 1.7

[Metadata]
Title:Bliznetsy (111loggedin Edit) (Cut Ver.)
TitleUnicode:Близнецы (111loggedin Edit) (Cut Ver.)
Artist:CHERNOBURKV
ArtistUnicode:CHERNOBURKV
Creator:Nytrocide_
Version:nyarvis' Insane.
Source:
Tags:nytro ganyumymommy soraka nyarvis heyimjarvis jarvis -envy- envy nv riffy -bakari- bakari russian electronic underground sped up version remix lo-fi house deep bass hex hexd * roxy xxenaa <3 ЛАБИРИНТЫ labyrinth labyrinty labyrinths чернобурка чернобуркв chernoburka who hu tao hutao genshin impact
BeatmapID:4105009
BeatmapSetID:1974817

[Difficulty]
HPDrainRate:5
CircleSize:4
OverallDifficulty:7.8
ApproachRate:8.8
SliderMultiplier:1.8
SliderTickRate:1

[Events]
//Background and Video events
0,0,"the fog is coming.jpg",0,0
//Break Periods
2,23793,25806
//Storyboard Layer 0 (Background)
//Storyboard Layer 1 (Fail)
//Storyboard Layer 2 (Pass)
//Storyboard Layer 3 (Foreground)
//Storyboard Layer 4 (Overlay)
//Storyboard Sound Samples

[TimingPoints]
16,330.247355269097,4,2,1,60,1,0
16,-100,4,2,1,60,0,0
9262,-100,4,2,1,75,0,0
10583,-125,4,2,1,75,0,0
21151,-125,4,2,1,75,0,0
23793,-125,4,2,1,25,0,0
26435,-100,4,2,1,90,0,0
26724,-100,4,2,1,5,0,0
26766,-100,4,2,1,90,0,0
28706,-100,4,2,1,5,0,0
28747,-100,4,2,1,90,0,0
29036,-100,4,2,1,5,0,0
29077,-100,4,2,1,90,0,0
31183,-100,4,2,1,5,0,0
31224,-100,4,2,1,90,0,0
31348,-100,4,2,1,5,0,0
31389,-100,4,2,1,90,0,0
33990,-100,4,2,1,5,0,0
34031,-100,4,2,1,90,0,0
34320,-100,4,2,1,5,0,0
34361,-100,4,2,1,90,0,0
36467,-100,4,2,1,5,0,0
36508,-100,4,2,1,90,0,0
36632,-100,4,2,1,5,0,0
36673,-100,4,2,1,90,0,0
36962,-100,4,2,1,5,0,0
37003,-100,4,2,1,90,0,0
39274,-100,4,2,1,5,0,0
39315,-100,4,2,1,90,0,0
39604,-100,4,2,1,5,0,0
39645,-100,4,2,1,90,0,0
41751,-100,4,2,1,5,0,0
41792,-100,4,2,1,90,0,0
41916,-100,4,2,1,5,0,0
41957,-100,4,2,1,90,0,0
42246,-100,4,2,1,5,0,0
42287,-100,4,2,1,90,0,0
44558,-100,4,2,1,5,0,0
44599,-100,4,2,1,90,0,0
44888,-100,4,2,1,5,0,0
44929,-100,4,2,1,90,0,0
47034,-100,4,2,1,5,0,0
47076,-100,4,2,1,90,0,0
47200,-100,4,2,1,5,0,0
47241,-100,4,2,1,90,0,0
47530,-100,4,2,1,5,0,0
47571,-125,4,2,1,75,0,0
52855,-125,4,2,1,5,0,0
53020,-125,4,2,1,60,0,0
58139,-125,4,2,1,5,0,0

[Colours]
Combo1 : 85,29,141
Combo2 : 191,191,191
Combo3 : 53,181,149
Combo4 : 85,85,85

[HitObjects]
256,192,2657,12,0,9262,0:0:0:0:
404,163,10583,6,0,B|327:154|355:209|261:196,1,144,2|0,1:2|1:0,0:0:0:0:
168,127,11079,1,2,0:0:0:0:
168,127,11244,2,0,P|134:167|147:217,1,108,2|0,1:2|0:0,0:0:0:0:
161,231,11574,5,0,1:2:0:0:
253,305,11739,1,2,0:0:0:0:
345,283,11904,5,2,1:2:0:0:
217,384,12070,1,2,0:0:0:0:
355,273,12235,6,0,P|390:276|425:286,1,72,2|0,1:2|0:0,0:0:0:0:
277,101,12565,5,2,1:2:0:0:
389,188,12730,1,2,0:0:0:0:
268,90,12895,6,0,P|232:93|197:103,1,72,2|0,1:2|0:0,0:0:0:0:
49,219,13225,6,0,P|81:205|93:172,1,72,2|2,1:2|0:0,0:0:0:0:
0,18,13556,2,0,P|11:51|44:64,1,72,2|2,1:2|0:0,0:0:0:0:
190,53,13886,2,0,B|161:134|210:113|177:206,1,144,0|0,1:0|1:2,0:0:0:0:
199,233,14546,6,0,L|188:161,1,72,2|0,1:2|0:0,0:0:0:0:
383,36,14877,2,0,B|358:53|354:84|354:84|346:88|346:88|356:43|330:2,2,144,2|0|0,1:2|1:0|1:0,0:0:0:0:
278,248,15867,5,2,1:2:0:0:
393,306,16032,1,2,0:0:0:0:
221,384,16198,5,2,1:2:0:0:
313,323,16363,1,2,0:0:0:0:
202,197,16528,6,0,P|181:225|186:260,1,72,2|2,1:2|0:0,0:0:0:0:
278,127,16858,2,0,P|237:93|184:99,1,108,2|0,1:2|0:0,0:0:0:0:
176,120,17188,6,0,L|158:46,1,72,2|2,1:2|0:0,0:0:0:0:
286,205,17519,2,0,L|355:222,1,72,2|2,1:2|0:0,0:0:0:0:
487,76,17849,6,0,B|401:91|451:118|356:135,1,144,2|2,1:2|1:2,0:0:0:0:
309,68,18344,1,2,0:0:0:0:
438,139,18509,6,0,B|460:169|460:169|447:200,1,72,2|2,1:2|0:0,0:0:0:0:
299,293,18840,2,0,B|277:263|277:263|289:231,1,72,2|2,1:2|0:0,0:0:0:0:
425,350,19170,1,0,1:0:0:0:
425,350,19335,1,2,0:0:0:0:
286,205,19500,6,0,L|173:219,1,108,2|0,1:2|0:0,0:0:0:0:
137,237,19830,2,0,B|174:244|168:254|210:258,1,72,2|2,1:2|0:0,0:0:0:0:
297,109,20161,1,2,1:2:0:0:
203,125,20326,1,0,0:0:0:0:
373,172,20491,6,0,B|410:165|404:155|446:151,1,72,2|2,1:2|0:0,0:0:0:0:
364,341,20821,2,0,P|312:333|285:288,1,108,2|0,1:2|0:0,0:0:0:0:
287,269,21151,6,0,P|276:303|264:337,1,72,2|2,1:2|0:0,0:0:0:0:
124,384,21482,2,0,P|111:350|101:315,1,72,2|2,1:2|0:0,0:0:0:0:
195,130,21812,6,0,P|205:164|217:198,1,72,2|2,1:2|0:0,0:0:0:0:
173,268,22142,2,0,P|185:234|195:199,1,72,2|2,1:2|0:0,0:0:0:0:
314,56,22472,5,2,1:2:0:0:
359,121,22637,1,2,0:0:0:0:
225,10,22803,5,2,1:2:0:0:
150,66,22968,1,2,0:0:0:0:
377,2,23133,5,2,1:2:0:0:
356,0,26435,6,0,P|377:7|396:18,1,45,4|0,1:2|0:0,0:0:0:0:
504,51,26600,2,0,P|482:58|463:69,1,45,2|0,0:1|0:0,0:0:0:0:
422,85,26766,2,0,B|429:37|446:51|455:-14,1,90,8|2,1:2|0:1,0:0:0:0:
330,97,27096,6,0,B|343:177|370:137|384:228,1,135,0|0,1:0|0:0,0:0:0:0:
330,276,27426,1,8,1:2:0:0:
330,276,27756,6,0,P|348:315|390:328,1,90,0|2,1:0|0:1,0:0:0:0:
271,205,28087,2,0,P|226:210|183:223,1,90,8|2,1:2|0:1,0:0:0:0:
15,346,28417,6,0,P|77:330|86:266,1,135,0|0,1:0|0:0,0:0:0:0:
74,254,28747,2,0,P|82:317|144:334,1,135,8|0,1:2|0:0,0:0:0:0:
218,370,29077,6,0,P|225:348|234:327,1,45,4|2,1:2|0:1,0:0:0:0:
292,271,29242,2,0,P|285:249|276:228,1,45,2|0,0:1|0:0,0:0:0:0:
373,346,29408,1,8,1:2:0:0:
197,178,29573,5,2,0:1:0:0:
197,178,29655,1,0,0:0:0:0:
197,178,29738,2,0,P|213:112|236:48,1,135,0|0,1:0|0:0,0:0:0:0:
304,11,30068,1,8,1:2:0:0:
304,11,30398,6,0,B|352:25|330:40|389:61,1,90,0|2,1:0|0:1,0:0:0:0:
506,113,30729,2,0,B|458:127|480:142|421:163,1,90,8|2,1:2|0:1,0:0:0:0:
319,238,31059,5,0,1:0:0:0:
471,301,31224,1,2,0:1:0:0:
310,248,31389,5,8,1:2:0:0:
476,315,31554,1,2,0:1:0:0:
354,113,31719,6,0,P|334:122|322:141,1,45,4|2,1:2|0:1,0:0:0:0:
306,155,31884,2,0,P|294:136|274:126,1,45,2|0,0:1|0:0,0:0:0:0:
447,54,32049,6,0,L|429:154,1,90,8|2,1:2|0:1,0:0:0:0:
204,281,32380,6,0,B|225:266|227:236|227:236|236:232|236:232|225:279|266:315,1,135,0|0,1:0|0:0,0:0:0:0:
200,361,32710,1,8,1:2:0:0:
200,361,33040,6,0,P|243:359|272:326,1,90,0|2,1:0|0:1,0:0:0:0:
150,225,33370,2,0,P|140:181|125:138,1,90,8|2,1:2|0:1,0:0:0:0:
261,75,33701,6,0,B|296:63|308:29|308:29|334:3|389:17,1,135,0|0,1:0|0:0,0:0:0:0:
424,84,34031,2,0,B|387:94|361:68|361:68|349:34|314:22,1,135,8|0,1:2|0:0,0:0:0:0:
163,7,34361,6,0,L|120:21,1,45,4|2,1:2|0:1,0:0:0:0:
247,117,34526,2,0,L|261:74,1,45,2|0,0:1|0:0,0:0:0:0:
115,161,34691,1,8,1:2:0:0:
268,251,34857,5,2,0:1:0:0:
268,251,34939,1,0,0:0:0:0:
268,251,35022,2,0,B|345:233|305:206|403:188,1,135,0|0,1:0|0:0,0:0:0:0:
451,236,35352,1,8,1:2:0:0:
451,235,35682,6,0,P|472:197|461:154,1,90,0|2,1:0|0:1,0:0:0:0:
312,340,36012,2,0,P|356:346|400:356,1,90,8|2,1:2|0:1,0:0:0:0:
268,164,36343,5,0,1:0:0:0:
173,308,36508,1,2,0:1:0:0:
179,116,36673,5,8,1:2:0:0:
255,278,36838,1,2,0:1:0:0:
234,53,37003,6,0,P|197:27|154:33,1,90,4|2,1:2|0:1,0:0:0:0:
268,164,37333,2,0,P|311:169|347:144,1,90,8|2,1:2|0:1,0:0:0:0:
419,25,37664,6,0,B|403:103|453:73|438:172,1,135,0|0,1:0|0:0,0:0:0:0:
389,217,37994,1,8,1:2:0:0:
389,217,38324,6,0,P|433:225|476:236,1,90,0|2,1:0|0:1,0:0:0:0:
327,102,38654,2,0,P|282:110|239:121,1,90,8|2,1:2|0:1,0:0:0:0:
140,301,38985,5,0,1:0:0:0:
191,203,39150,1,2,0:1:0:0:
297,374,39315,5,8,1:2:0:0:
253,254,39480,1,2,0:1:0:0:
70,347,39645,6,0,P|100:379|143:385,1,90,4|2,1:2|0:1,0:0:0:0:
253,254,39975,2,0,P|237:211|217:171,1,90,8|2,1:2|0:1,0:0:0:0:
32,123,40306,6,0,P|52:61|115:43,1,135,0|0,1:0|0:0,0:0:0:0:
162,100,40636,1,8,1:2:0:0:
162,100,40966,6,0,P|206:107|248:122,1,90,0|2,1:0|0:1,0:0:0:0:
330,204,41296,2,0,P|372:188|416:181,1,90,8|2,1:2|0:1,0:0:0:0:
497,120,41627,5,0,1:0:0:0:
368,76,41792,1,2,0:1:0:0:
512,235,41957,5,8,1:2:0:0:
396,270,42122,1,2,0:1:0:0:
510,376,42287,6,0,B|452:369|468:355|417:347,1,90,4|2,1:2|0:1,0:0:0:0:
330,222,42617,2,0,B|272:229|288:243|237:251,1,90,8|2,1:2|0:1,0:0:0:0:
95,366,42948,6,0,P|157:354|164:292,1,135,0|0,1:0|0:0,0:0:0:0:
94,260,43278,1,8,1:2:0:0:
94,259,43608,6,0,P|114:221|156:209,1,90,0|2,1:0|0:1,0:0:0:0:
0,77,43938,2,0,P|20:115|63:126,1,90,8|2,1:2|0:1,0:0:0:0:
242,68,44269,5,0,1:0:0:0:
130,0,44434,1,2,0:1:0:0:
226,158,44599,2,0,P|269:146|314:142,1,90,8|2,1:2|0:1,0:0:0:0:
469,17,44929,6,0,L|454:105,1,90,4|2,1:2|0:1,0:0:0:0:
330,231,45259,2,0,L|315:142,1,90,8|2,1:2|0:1,0:0:0:0:
496,317,45590,6,0,B|417:305|442:355|356:342,1,135,0|0,1:0|0:0,0:0:0:0:
298,306,45920,1,8,1:2:0:0:
298,306,46250,6,0,L|400:331,1,90,0|2,1:0|0:1,0:0:0:0:
223,225,46580,2,0,L|135:246,1,90,8|2,1:2|0:1,0:0:0:0:
289,138,46911,5,0,1:0:0:0:
341,38,47076,1,2,0:1:0:0:
228,0,47241,5,8,1:2:0:0:
392,237,47571,6,0,P|357:233|327:214,1,72,0|2,1:0|0:1,0:0:0:0:
226,183,47901,2,0,P|210:150|212:115,1,72,0|2,1:2|0:1,0:0:0:0:
392,251,48232,6,0,P|356:247|326:228,1,72,0|2,1:0|0:1,0:0:0:0:
233,307,48562,2,0,P|217:339|219:374,1,72,0|2,1:2|0:1,0:0:0:0:
311,214,48892,6,0,P|316:179|327:145,1,72,0|2,1:0|0:1,0:0:0:0:
410,75,49222,2,0,P|404:39|393:5,1,72,0|2,1:2|0:1,0:0:0:0:
299,217,49553,6,0,P|304:181|315:147,1,72,0|2,1:0|0:1,0:0:0:0:
212,85,49883,2,0,P|206:49|195:15,1,72,0|2,1:2|0:1,0:0:0:0:
109,168,50213,5,0,1:0:0:0:
109,168,50378,1,2,0:1:0:0:
41,90,50543,2,0,P|67:66|102:63,1,72,0|2,1:2|0:1,0:0:0:0:
172,226,50874,5,0,1:0:0:0:
172,226,51039,1,2,0:1:0:0:
103,318,51204,2,0,P|129:341|164:344,1,72,0|2,1:2|0:1,0:0:0:0:
293,256,51534,6,0,P|288:221|277:187,3,72,0|2|0|2,1:0|0:1|1:2|0:1,0:0:0:0:
432,315,52195,6,0,P|421:349|415:384,3,72,0|2|0|2,1:0|0:1|1:2|0:1,0:0:0:0:
256,192,52855,12,4,58139,0:1:0:0:
