osu file format v14

[General]
AudioFilename: audio.mp3
AudioLeadIn: 0
PreviewTime: 23793
Countdown: 0
SampleSet: Soft
StackLeniency: 0.3
Mode: 0
LetterboxInBreaks: 0
WidescreenStoryboard: 1

[Editor]
Bookmarks: 16,9262,10583,21151,23793,26435,37003,47571,52855,58139
DistanceSpacing: 0.9
BeatDivisor: 4
GridSize: 32
TimelineZoom: 1.7

[Metadata]
Title:Bliznetsy (111loggedin Edit) (Cut Ver.)
TitleUnicode:Близнецы (111loggedin Edit) (Cut Ver.)
Artist:CHERNOBURKV
ArtistUnicode:CHERNOBURKV
Creator:Nytrocide_
Version:Soraka's Extra.
Source:
Tags:nytro ganyumymommy soraka nyarvis heyimjarvis jarvis -envy- envy nv riffy -bakari- bakari russian electronic underground sped up version remix lo-fi house deep bass hex hexd * roxy xxenaa <3 ЛАБИРИНТЫ labyrinth labyrinty labyrinths чернобурка чернобуркв chernoburka who hu tao hutao genshin impact
BeatmapID:4099451
BeatmapSetID:1974817

[Difficulty]
HPDrainRate:4.8
CircleSize:4.2
OverallDifficulty:8
ApproachRate:9.2
SliderMultiplier:2.1
SliderTickRate:1

[Events]
//Background and Video events
0,0,"the fog is coming.jpg",0,0
//Break Periods
2,23993,25865
//Storyboard Layer 0 (Background)
//Storyboard Layer 1 (Fail)
//Storyboard Layer 2 (Pass)
//Storyboard Layer 3 (Foreground)
//Storyboard Layer 4 (Overlay)
//Storyboard Sound Samples

[TimingPoints]
16,330.247355269097,4,2,1,60,1,0
16,-96.1538461538461,4,2,1,60,0,0
9262,-119.047619047619,4,2,1,75,0,0
10583,-96.1538461538461,4,2,1,75,0,0
10914,-119.047619047619,4,2,1,75,0,0
11244,-96.1538461538461,4,2,1,75,0,0
12235,-119.047619047619,4,2,1,75,0,0
12565,-96.1538461538461,4,2,1,75,0,0
12895,-119.047619047619,4,2,1,75,0,0
13225,-96.1538461538461,4,2,1,75,0,0
13556,-119.047619047619,4,2,1,75,0,0
13886,-96.1538461538461,4,2,1,75,0,0
14546,-119.047619047619,4,2,1,75,0,0
15867,-96.1538461538461,4,2,1,75,0,0
16198,-119.047619047619,4,2,1,75,0,0
16858,-119.047619047619,4,2,1,75,0,0
17188,-96.1538461538461,4,2,1,75,0,0
17519,-119.047619047619,4,2,1,75,0,0
18509,-96.1538461538461,4,2,1,75,0,0
18840,-119.047619047619,4,2,1,75,0,0
19830,-96.1538461538461,4,2,1,75,0,0
20161,-119.047619047619,4,2,1,75,0,0
21151,-96.1538461538461,4,2,1,75,0,0
21482,-119.047619047619,4,2,1,75,0,0
22803,-96.1538461538461,4,2,1,75,0,0
23463,-119.047619047619,4,2,1,75,0,0
23793,-119.047619047619,4,2,1,25,0,0
26435,-57.4712643678161,4,2,1,90,0,0
26683,-57.4712643678161,4,2,1,90,0,0
26724,-57.4712643678161,4,2,1,5,0,0
26766,-74.6268656716418,4,2,1,90,0,0
27096,-57.4712643678161,4,2,1,90,0,0
27343,-57.4712643678161,4,2,1,90,0,0
27426,-74.6268656716418,4,2,1,90,0,0
27674,-74.6268656716418,4,2,1,90,0,0
27756,-64.9350649350649,4,2,1,90,0,0
28417,-57.4712643678161,4,2,1,90,0,1
28706,-57.4712643678161,4,2,1,5,0,1
28747,-74.6268656716418,4,2,1,90,0,1
28995,-74.6268656716418,4,2,1,90,0,1
29036,-74.6268656716418,4,2,1,5,0,1
29077,-74.6268656716418,4,2,1,90,0,0
29738,-57.4712643678161,4,2,1,90,0,0
29985,-57.4712643678161,4,2,1,90,0,0
30068,-74.6268656716418,4,2,1,90,0,0
30316,-74.6268656716418,4,2,1,90,0,0
30398,-64.9350649350649,4,2,1,90,0,0
31059,-57.4712643678161,4,2,1,90,0,1
31183,-57.4712643678161,4,2,1,5,0,1
31224,-57.4712643678161,4,2,1,90,0,1
31348,-57.4712643678161,4,2,1,5,0,1
31389,-74.6268656716418,4,2,1,90,0,1
31637,-74.6268656716418,4,2,1,90,0,1
31719,-74.6268656716418,4,2,1,90,0,0
32049,-64.9350649350649,4,2,1,90,0,0
32380,-57.4712643678161,4,2,1,90,0,0
32710,-74.6268656716418,4,2,1,90,0,0
33040,-64.9350649350649,4,2,1,90,0,0
33701,-57.4712643678161,4,2,1,90,0,1
33990,-57.4712643678161,4,2,1,5,0,1
34031,-74.6268656716418,4,2,1,90,0,1
34279,-74.6268656716418,4,2,1,90,0,1
34320,-74.6268656716418,4,2,1,5,0,1
34361,-57.4712643678161,4,2,1,90,0,0
34609,-57.4712643678161,4,2,1,90,0,0
34691,-74.6268656716418,4,2,1,90,0,0
35022,-57.4712643678161,4,2,1,90,0,0
35269,-57.4712643678161,4,2,1,90,0,0
35352,-74.6268656716418,4,2,1,90,0,0
35600,-74.6268656716418,4,2,1,90,0,0
35682,-64.9350649350649,4,2,1,90,0,0
36343,-64.9350649350649,4,2,1,90,0,1
36467,-64.9350649350649,4,2,1,5,0,1
36508,-64.9350649350649,4,2,1,90,0,1
36632,-64.9350649350649,4,2,1,5,0,1
36673,-74.6268656716418,4,2,1,90,0,1
36921,-74.6268656716418,4,2,1,90,0,1
36962,-74.6268656716418,4,2,1,5,0,1
37003,-57.4712643678161,4,2,1,90,0,0
37251,-57.4712643678161,4,2,1,90,0,0
37333,-74.6268656716418,4,2,1,90,0,0
38324,-57.4712643678161,4,2,1,90,0,0
38985,-57.4712643678161,4,2,1,90,0,1
39232,-57.4712643678161,4,2,1,90,0,1
39274,-57.4712643678161,4,2,1,5,0,1
39315,-74.6268656716418,4,2,1,90,0,1
39563,-74.6268656716418,4,2,1,90,0,1
39604,-74.6268656716418,4,2,1,5,0,1
39645,-57.4712643678161,4,2,1,90,0,0
39893,-57.4712643678161,4,2,1,90,0,0
39975,-74.6268656716418,4,2,1,90,0,0
40966,-57.4712643678161,4,2,1,90,0,0
41544,-57.4712643678161,4,2,1,90,0,0
41627,-57.4712643678161,4,2,1,90,0,1
41751,-57.4712643678161,4,2,1,5,0,1
41792,-57.4712643678161,4,2,1,90,0,1
41874,-57.4712643678161,4,2,1,90,0,1
41916,-57.4712643678161,4,2,1,5,0,1
41957,-74.6268656716418,4,2,1,90,0,1
42205,-74.6268656716418,4,2,1,90,0,1
42246,-74.6268656716418,4,2,1,5,0,1
42287,-57.4712643678161,4,2,1,90,0,0
42535,-57.4712643678161,4,2,1,90,0,0
42617,-74.6268656716418,4,2,1,90,0,0
43608,-57.4712643678161,4,2,1,90,0,0
44269,-57.4712643678161,4,2,1,90,0,1
44516,-57.4712643678161,4,2,1,90,0,1
44558,-57.4712643678161,4,2,1,5,0,1
44599,-74.6268656716418,4,2,1,90,0,1
44847,-74.6268656716418,4,2,1,90,0,1
44888,-74.6268656716418,4,2,1,5,0,1
44929,-57.4712643678161,4,2,1,90,0,0
45177,-57.4712643678161,4,2,1,90,0,0
45259,-74.6268656716418,4,2,1,90,0,0
46250,-57.4712643678161,4,2,1,90,0,0
46911,-57.4712643678161,4,2,1,90,0,1
47034,-57.4712643678161,4,2,1,5,0,1
47076,-57.4712643678161,4,2,1,90,0,1
47158,-57.4712643678161,4,2,1,90,0,1
47200,-57.4712643678161,4,2,1,5,0,1
47241,-74.6268656716418,4,2,1,90,0,1
47489,-74.6268656716418,4,2,1,90,0,1
47530,-74.6268656716418,4,2,1,5,0,1
47571,-119.047619047619,4,2,1,75,0,0
52855,-119.047619047619,4,2,1,5,0,0
53020,-119.047619047619,4,2,1,60,0,0
54176,-119.047619047619,4,2,1,60,0,0
54341,-119.047619047619,4,2,1,60,0,0
55497,-119.047619047619,4,2,1,60,0,0
55662,-119.047619047619,4,2,1,60,0,0
56818,-119.047619047619,4,2,1,60,0,0
56983,-119.047619047619,4,2,1,60,0,0
58139,-119.047619047619,4,2,1,5,0,0

[Colours]
Combo1 : 85,29,141
Combo2 : 191,191,191
Combo3 : 53,181,149
Combo4 : 85,85,85

[HitObjects]
256,192,16,12,0,9262,0:0:0:0:
33,2,10583,6,1,B|69:-9|95:23|95:23|93:44|110:65,1,109.199999333496,2|2,1:2|0:0,0:0:0:0:
175,84,10831,1,0,0:0:0:0:
175,84,10914,2,0,B|169:68|149:65|149:65|95:89,1,88.1999973083497,0|2,1:0|0:0,0:0:0:0:
224,190,11244,2,0,P|241:138|260:87,1,109.199999333496,2|0,1:2|0:0,0:0:0:0:
87,207,11574,5,0,1:2:0:0:
140,258,11739,1,2,0:0:0:0:
58,383,11904,6,0,P|42:323|66:276,1,109.199999333496,2|2,1:2|0:0,0:0:0:0:
224,190,12235,2,0,B|272:202|259:211|311:227,1,88.1999973083497,2|0,1:2|0:0,0:0:0:0:
136,28,12565,6,0,P|92:73|110:127,1,109.199999333496,2|2,1:2|0:0,0:0:0:0:
224,190,12895,2,0,B|272:202|259:211|311:227,1,88.1999973083497,2|0,1:2|0:0,0:0:0:0:
503,39,13225,6,1,B|476:51|439:27|439:27|459:41|463:64,1,109.199999333496,2|2,1:2|0:0,0:0:0:0:
409,116,13473,1,0,0:0:0:0:
409,116,13556,2,0,B|367:126|367:126|361:133|361:133|312:147,1,88.1999973083497,2|2,1:2|0:0,0:0:0:0:
477,235,13886,2,0,P|508:211|494:137,1,109.199999333496,0|0,1:0|0:0,0:0:0:0:
353,33,14216,5,0,1:2:0:0:
289,77,14381,1,2,0:0:0:0:
144,4,14546,6,0,P|185:17|227:31,1,88.1999973083497,2|0,1:2|0:0,0:0:0:0:
202,125,14877,2,0,P|160:111|118:97,1,88.1999973083497,2|2,1:2|0:0,0:0:0:0:
38,26,15207,5,0,1:0:0:0:
35,18,15537,1,0,1:0:0:0:
160,312,15867,6,1,B|125:320|98:289|98:289|100:268|83:247,1,109.199999333496,2|2,1:2|0:0,0:0:0:0:
17,237,16115,1,0,0:0:0:0:
17,237,16198,2,0,B|33:263|117:203|117:203,1,88.1999973083497,2|2,1:2|0:0,0:0:0:0:
16,380,16528,5,2,1:2:0:0:
73,315,16693,1,2,0:0:0:0:
166,298,16858,2,0,B|168:305|181:311|181:311|218:328|254:324,1,88.1999973083497,2|0,1:2|0:0,0:0:0:0:
336,377,17188,6,1,B|363:365|400:389|400:389|380:375|376:352,1,109.199999333496,2|2,1:2|0:0,0:0:0:0:
430,300,17436,1,0,0:0:0:0:
430,300,17519,2,0,B|472:290|472:290|478:283|478:283|527:269,1,88.1999973083497,2|2,1:2|0:0,0:0:0:0:
289,239,17849,2,1,B|263:194|296:204|267:150,1,88.1999973083497,2|0,1:2|0:0,0:0:0:0:
353,33,18179,1,2,1:2:0:0:
475,128,18344,5,2,0:0:0:0:
475,128,18427,1,0,0:0:0:0:
475,128,18509,2,1,B|439:117|413:149|413:149|415:170|398:191,1,109.199999333496,2|2,1:2|0:0,0:0:0:0:
216,147,18840,6,0,B|222:151|222:151|257:129|294:128|294:128|300:123,1,88.1999973083497,2|2,1:2|0:0,0:0:0:0:
315,118,19087,1,0,0:0:0:0:
315,118,19170,1,0,1:0:0:0:
239,53,19335,5,2,0:0:0:0:
279,221,19500,2,0,B|297:267|297:267|290:220,1,88.1999973083497,2|0,1:2|0:0,0:0:0:0:
154,81,19830,6,1,B|123:92|123:92|101:127|101:127|64:144,1,109.199999333496,2|2,1:2|0:0,0:0:0:0:
16,94,20078,1,0,0:0:0:0:
16,94,20161,2,1,B|-1:66|-30:72|-30:72|-2:78|9:101,1,88.1999973083497,2|0,1:2|0:0,0:0:0:0:
150,199,20491,5,2,1:2:0:0:
91,257,20656,1,2,0:0:0:0:
221,339,20821,2,1,B|271:352|241:369|299:386,1,88.1999973083497,2|0,1:2|0:0,0:0:0:0:
501,208,21151,6,1,B|474:220|437:196|437:196|457:210|461:233,1,109.199999333496,2|2,1:2|0:0,0:0:0:0:
407,285,21399,1,0,0:0:0:0:
407,285,21482,2,0,B|365:295|365:295|359:302|359:302|310:316,1,88.1999973083497,2|2,1:2|0:0,0:0:0:0:
486,123,21812,5,2,1:2:0:0:
501,208,21977,1,2,0:0:0:0:
330,160,22142,6,0,P|369:146|413:123,1,88.1999973083497,2|2,1:2|0:0,0:0:0:0:
315,0,22472,5,2,1:2:0:0:
264,62,22637,1,2,0:0:0:0:
47,5,22803,6,1,B|83:-6|109:26|109:26|107:47|124:68,1,109.199999333496,2|2,1:2|0:0,0:0:0:0:
187,26,23050,1,0,0:0:0:0:
187,26,23133,1,2,1:2:0:0:
100,347,23463,6,1,B|50:334|80:317|22:300,1,88.1999973083497,2|2,1:2|0:0,0:0:0:0:
256,192,23793,5,2,0:0:0:0:
168,128,26435,6,1,B|183:124|199:139|199:139|157:58|63:76|63:76|90:111|81:150,1,274.050002299919,4|0,1:2|0:0,0:0:0:0:
73,166,26766,6,0,B|70:170|70:170|35:170|7:186,1,70.3499966722871,8|0,1:2|0:0,0:0:0:0:
183,15,26931,1,2,0:1:0:0:
324,297,27096,6,1,B|309:263|269:263|269:263|316:224|419:256|409:350,1,274.050002299919,0|0,1:0|0:0,0:0:0:0:
259,370,27426,6,1,P|284:269|342:154,1,211.049990016861,8|0,1:2|0:0,0:0:0:0:
377,26,27756,6,0,B|393:17|405:-6|405:-6|397:17|404:38,1,80.849998396225,0|0,1:0|0:0,0:0:0:0:
365,97,27921,1,2,0:1:0:0:
120,107,28087,5,8,1:2:0:0:
278,0,28252,1,2,0:1:0:0:
351,242,28417,6,1,B|400:252|411:303|411:303|404:251|449:224,1,182.700001533279,0|2,1:0|0:1,0:0:0:0:
510,282,28664,5,0,0:0:0:0:
510,282,28747,2,0,P|432:289|302:318,1,211.049990016861,8|0,1:2|0:0,0:0:0:0:
206,265,29077,5,4,1:2:0:0:
372,384,29242,1,2,0:1:0:0:
439,197,29408,5,8,1:2:0:0:
372,374,29573,1,2,0:1:0:0:
273,116,29738,6,1,B|232:71|265:-12|351:-8|351:-8|311:17|328:69,1,274.050002299919,0|0,1:0|0:0,0:0:0:0:
398,57,30068,6,0,P|279:19|145:-5,1,211.049990016861,8|0,1:2|0:0,0:0:0:0:
0,169,30398,6,0,P|25:161|50:115,1,80.849998396225,0|0,1:0|0:0,0:0:0:0:
75,37,30563,1,2,0:1:0:0:
220,82,30729,6,0,P|196:94|146:79,1,80.849998396225,8|0,1:2|0:0,0:0:0:0:
75,37,30894,1,2,0:1:0:0:
129,287,31059,6,1,B|178:285|201:332|201:332|182:283|220:247,1,182.700001533279,0|2,1:0|0:1,0:0:0:0:
301,287,31306,5,0,0:0:0:0:
301,287,31389,2,0,P|226:311|106:368,1,211.049990016861,8|0,1:2|0:0,0:0:0:0:
22,323,31719,5,4,1:2:0:0:
252,384,31884,1,2,0:1:0:0:
326,128,32049,6,0,B|333:108|324:86|324:86|336:108|352:118,1,80.849998396225,8|0,1:2|0:0,0:0:0:0:
435,275,32215,2,0,B|451:284|463:307|463:307|455:284|461:265,1,80.849998396225,2|0,0:1|0:0,0:0:0:0:
512,143,32380,6,1,B|452:106|413:183|450:152|403:233|339:193,1,182.700001533279,0|2,1:0|0:1,0:0:0:0:
72,101,32710,6,0,P|58:69|37:41,1,70.3499966722871,8|0,1:2|0:0,0:0:0:0:
149,64,32875,2,0,P|128:35|114:3,1,70.3499966722871,2|0,0:1|0:0,0:0:0:0:
156,222,33040,6,0,B|172:231|184:254|184:254|176:231|183:210,1,80.849998396225,0|0,1:0|0:0,0:0:0:0:
143,149,33205,1,2,0:1:0:0:
0,337,33370,5,8,1:2:0:0:
74,184,33536,1,2,0:1:0:0:
300,303,33701,6,1,B|349:301|372:348|372:348|353:299|391:263,1,182.700001533279,0|2,1:0|0:1,0:0:0:0:
463,292,33948,5,0,0:0:0:0:
463,292,34031,2,0,P|388:316|268:373,1,211.049990016861,8|0,1:2|0:0,0:0:0:0:
46,265,34361,6,1,B|31:261|15:276|15:276|57:195|151:213|151:213|124:248|133:287,1,274.050002299919,4|0,1:2|0:0,0:0:0:0:
230,283,34691,6,0,P|232:278|220:289,1,70.3499966722871,8|0,1:2|0:0,0:0:0:0:
94,142,34857,1,2,0:1:0:0:
377,380,35022,6,1,B|427:316|376:234|296:239|296:239|318:275|300:314,1,274.050002299919,0|0,1:0|0:0,0:0:0:0:
255,384,35352,6,0,P|375:278|481:277,1,211.049990016861,8|0,1:2|0:0,0:0:0:0:
512,62,35682,6,0,P|487:70|462:116,1,80.849998396225,0|0,1:0|0:0,0:0:0:0:
437,194,35847,1,2,0:1:0:0:
292,149,36013,6,0,P|316:137|366:152,1,80.849998396225,8|0,1:2|0:0,0:0:0:0:
437,194,36178,1,2,0:1:0:0:
242,18,36343,5,0,1:0:0:0:
326,215,36508,1,2,0:1:0:0:
29,173,36673,6,0,P|107:141|232:97,1,211.049990016861,8|0,1:2|0:0,0:0:0:0:
457,306,37003,6,1,B|487:320|483:368|483:368|432:293|354:296|354:296|385:307|401:342,1,274.050002299919,4|0,1:2|0:0,0:0:0:0:
318,384,37333,6,0,P|310:377|324:384,1,70.3499966722871,8|0,1:2|0:0,0:0:0:0:
433,216,37499,1,2,0:1:0:0:
315,23,37664,5,0,1:0:0:0:
280,88,37829,1,2,0:1:0:0:
470,142,37994,5,8,1:2:0:0:
437,74,38159,1,2,0:1:0:0:
241,230,38324,6,0,P|293:241|317:288,1,91.3500007666397,0|0,1:0|0:0,0:0:0:0:
258,331,38489,2,0,B|248:343|248:343|178:348|153:382,1,91.3500007666397,2|0,0:1|0:0,0:0:0:0:
380,244,38654,6,1,B|423:227|477:275|461:320|461:320|456:291|427:284,1,182.700001533279,8|2,1:2|0:1,0:0:0:0:
161,206,38985,6,1,B|89:194|58:92|121:39|121:39|120:82|156:103,1,274.050002299919,0|0,1:0|0:0,0:0:0:0:
27,180,39315,6,0,P|120:131|217:90,1,211.049990016861,8|0,1:2|0:0,0:0:0:0:
485,123,39645,6,1,B|516:134|516:134|474:53|380:71|380:71|407:106|398:145,1,274.050002299919,4|0,1:2|0:0,0:0:0:0:
326,151,39975,6,0,B|291:151|291:151|320:132,1,70.3499966722871,8|0,1:2|0:0,0:0:0:0:
500,10,40141,1,2,0:1:0:0:
512,207,40306,5,0,1:0:0:0:
441,250,40471,1,2,0:1:0:0:
364,356,40636,5,8,1:2:0:0:
460,384,40801,1,2,0:1:0:0:
206,235,40966,6,0,B|186:243|160:241|160:241|129:261|130:293,1,91.3500007666397,0|0,1:0|0:0,0:0:0:0:
188,353,41131,2,0,B|198:365|198:365|268:370|293:404,1,91.3500007666397,2|0,0:1|0:0,0:0:0:0:
94,200,41296,6,1,B|108:172|136:167|136:167|28:136|-7:243|-7:243|20:236|51:252,1,274.050002299919,8|0,1:2|0:0,0:0:0:0:
286,263,41627,6,1,B|320:283|315:334|315:334|243:228|145:240,1,274.050002299919,0|0,1:0|0:0,0:0:0:0:
188,353,41957,6,0,P|324:286|421:274,1,211.049990016861,8|0,1:2|0:0,0:0:0:0:
472,76,42287,6,1,B|423:25|326:60|302:132|357:185|401:176|419:128,1,274.050002299919,4|0,1:2|0:0,0:0:0:0:
361,50,42617,6,0,P|344:31|352:55,1,70.3499966722871,8|0,1:2|0:0,0:0:0:0:
487,178,42783,1,2,0:1:0:0:
385,351,42948,5,0,1:0:0:0:
459,303,43113,1,2,0:1:0:0:
343,198,43278,5,8,1:2:0:0:
382,268,43443,1,2,0:1:0:0:
231,241,43608,6,0,P|179:252|155:299,1,91.3500007666397,0|0,1:0|0:0,0:0:0:0:
197,353,43773,2,0,B|207:365|207:365|277:370|302:404,1,91.3500007666397,2|0,0:1|0:0,0:0:0:0:
93,326,43938,6,0,B|75:320|75:320|69:231|-11:148,1,182.700001533279,8|2,1:2|0:1,0:0:0:0:
262,65,44269,6,1,B|262:21|315:15|315:15|365:83|305:159|211:149,1,274.050002299919,0|0,1:0|0:0,0:0:0:0:
207,0,44599,6,1,P|311:34|423:83,1,211.049990016861,8|0,1:2|0:0,0:0:0:0:
431,302,44929,6,1,B|367:352|285:301|290:221|290:221|326:243|354:229,1,274.050002299919,4|0,1:2|0:0,0:0:0:0:
340,143,45259,6,0,P|315:136|334:154,1,70.3499966722871,8|0,1:2|0:0,0:0:0:0:
486,244,45425,1,2,0:1:0:0:
255,335,45590,5,0,1:0:0:0:
335,384,45755,1,2,0:1:0:0:
352,229,45920,5,8,1:2:0:0:
273,253,46085,1,2,0:1:0:0:
112,161,46250,6,0,B|95:139|95:139|106:113|96:82|82:79,1,91.3500007666397,0|0,1:0|0:0,0:0:0:0:
190,201,46415,2,0,B|203:204|228:175|228:175|214:150|229:127,1,91.3500007666397,2|0,0:1|0:0,0:0:0:0:
46,279,46580,6,0,B|71:232|120:238|120:238|147:290|228:278,1,182.700001533279,8|2,1:2|0:1,0:0:0:0:
344,56,46911,6,1,B|321:86|335:139|379:152|379:152|394:152|394:152|431:154|473:209|423:261,1,274.050002299919,0|0,1:0|0:0,0:0:0:0:
442,85,47241,6,1,B|454:110|436:149|401:153|401:153|389:151|389:151|361:148|322:183|353:230,1,211.049990016861,8|0,1:2|0:0,0:0:0:0:
430,339,47571,5,0,1:0:0:0:
362,383,47736,1,2,0:1:0:0:
286,273,47901,5,0,1:2:0:0:
292,350,48066,1,2,0:1:0:0:
351,228,48232,5,0,1:0:0:0:
424,259,48397,1,2,0:1:0:0:
461,134,48562,5,0,1:2:0:0:
491,204,48727,1,2,0:1:0:0:
351,228,48892,6,0,L|264:202,1,88.1999973083497,0|2,1:0|0:1,0:0:0:0:
420,66,49222,2,0,L|335:91,1,88.1999973083497,0|2,1:2|0:1,0:0:0:0:
346,232,49553,6,0,L|259:206,1,88.1999973083497,0|2,1:0|0:1,0:0:0:0:
430,56,49883,2,0,L|345:81,1,88.1999973083497,0|2,1:2|0:1,0:0:0:0:
202,26,50213,6,0,P|226:57|221:108,1,88.1999973083497,0|2,1:0|0:1,0:0:0:0:
74,0,50543,2,0,P|50:31|55:82,1,88.1999973083497,0|2,1:2|0:1,0:0:0:0:
212,36,50874,6,0,P|236:67|231:118,1,88.1999973083497,0|2,1:0|0:1,0:0:0:0:
64,10,51204,2,0,P|40:41|45:92,1,88.1999973083497,0|2,1:2|0:1,0:0:0:0:
157,219,51534,5,0,1:0:0:0:
99,172,51699,1,2,0:1:0:0:
10,293,51864,2,0,P|71:274|109:271,1,88.1999973083497,0|2,1:2|0:1,0:0:0:0:
191,309,52195,5,0,1:0:0:0:
249,262,52360,1,2,0:1:0:0:
338,383,52525,2,0,P|277:364|239:361,2,88.1999973083497,0|2|2,1:2|0:1|0:1,0:0:0:0:
256,192,53020,12,2,54176,0:0:0:0:
256,192,54341,12,2,55497,0:0:0:0:
256,192,55662,12,2,56818,0:0:0:0:
256,192,56983,12,4,58139,0:1:0:0:
