osu file format v14

[General]
AudioFilename: audio.mp3
AudioLeadIn: 0
PreviewTime: 23793
Countdown: 0
SampleSet: Soft
StackLeniency: 0.3
Mode: 0
LetterboxInBreaks: 0
WidescreenStoryboard: 1

[Editor]
Bookmarks: 16,9262,10583,21151,23793,26435,37003,47571,52855,58139
DistanceSpacing: 1.2
BeatDivisor: 4
GridSize: 32
TimelineZoom: 1.7

[Metadata]
Title:Bliznetsy (111loggedin Edit) (Cut Ver.)
TitleUnicode:Близнецы (111loggedin Edit) (Cut Ver.)
Artist:CHERNOBURKV
ArtistUnicode:CHERNOBURKV
Creator:Nytrocide_
Version:Hard.
Source:
Tags:nytro ganyumymommy soraka nyarvis heyimjarvis jarvis -envy- envy nv riffy -bakari- bakari russian electronic underground sped up version remix lo-fi house deep bass hex hexd * roxy xxenaa <3 ЛАБИРИНТЫ labyrinth labyrinty labyrinths чернобурка чернобуркв chernoburka who hu tao hutao genshin impact
BeatmapID:4100146
BeatmapSetID:1974817

[Difficulty]
HPDrainRate:4.4
CircleSize:4
OverallDifficulty:7.4
ApproachRate:7.8
SliderMultiplier:1.4
SliderTickRate:1

[Events]
//Background and Video events
0,0,"the fog is coming.jpg",0,0
//Break Periods
2,23993,25656
//Storyboard Layer 0 (Background)
//Storyboard Layer 1 (Fail)
//Storyboard Layer 2 (Pass)
//Storyboard Layer 3 (Foreground)
//Storyboard Layer 4 (Overlay)
//Storyboard Sound Samples

[TimingPoints]
16,330.247355269097,4,2,1,60,1,0
16,-111.111111111111,4,2,1,60,0,0
9262,-111.111111111111,4,2,1,75,0,0
10583,-100,4,2,1,75,0,0
21151,-100,4,2,1,75,0,0
23793,-100,4,2,1,25,0,0
26435,-90.9090909090909,4,2,1,90,0,0
26724,-90.9090909090909,4,2,1,5,0,0
26766,-90.9090909090909,4,2,1,90,0,0
28417,-90.9090909090909,4,2,1,90,0,1
28706,-90.9090909090909,4,2,1,5,0,1
28747,-90.9090909090909,4,2,1,90,0,1
29036,-90.9090909090909,4,2,1,5,0,1
29077,-90.9090909090909,4,2,1,90,0,0
31059,-90.9090909090909,4,2,1,90,0,1
31183,-90.9090909090909,4,2,1,5,0,1
31224,-90.9090909090909,4,2,1,90,0,1
31348,-90.9090909090909,4,2,1,5,0,1
31389,-90.9090909090909,4,2,1,90,0,1
31719,-90.9090909090909,4,2,1,90,0,0
33701,-90.9090909090909,4,2,1,90,0,1
33990,-90.9090909090909,4,2,1,5,0,1
34031,-90.9090909090909,4,2,1,90,0,1
34320,-90.9090909090909,4,2,1,5,0,1
34361,-90.9090909090909,4,2,1,90,0,0
36343,-90.9090909090909,4,2,1,90,0,1
36467,-90.9090909090909,4,2,1,5,0,1
36508,-90.9090909090909,4,2,1,90,0,1
36632,-90.9090909090909,4,2,1,5,0,1
36673,-90.9090909090909,4,2,1,90,0,1
36962,-90.9090909090909,4,2,1,5,0,1
37003,-83.3333333333333,4,2,1,90,0,0
38985,-83.3333333333333,4,2,1,90,0,1
39274,-83.3333333333333,4,2,1,5,0,1
39315,-83.3333333333333,4,2,1,90,0,1
39604,-83.3333333333333,4,2,1,5,0,1
39645,-83.3333333333333,4,2,1,90,0,0
41627,-83.3333333333333,4,2,1,90,0,1
41751,-83.3333333333333,4,2,1,5,0,1
41792,-83.3333333333333,4,2,1,90,0,1
41916,-83.3333333333333,4,2,1,5,0,1
41957,-83.3333333333333,4,2,1,90,0,1
42246,-83.3333333333333,4,2,1,5,0,1
42287,-83.3333333333333,4,2,1,90,0,0
44269,-83.3333333333333,4,2,1,90,0,1
44558,-83.3333333333333,4,2,1,5,0,1
44599,-83.3333333333333,4,2,1,90,0,1
44888,-83.3333333333333,4,2,1,5,0,1
44929,-83.3333333333333,4,2,1,90,0,0
46911,-83.3333333333333,4,2,1,90,0,1
47034,-83.3333333333333,4,2,1,5,0,1
47076,-83.3333333333333,4,2,1,90,0,1
47200,-83.3333333333333,4,2,1,5,0,1
47241,-83.3333333333333,4,2,1,90,0,1
47530,-83.3333333333333,4,2,1,5,0,1
47571,-100,4,2,1,75,0,0
52855,-100,4,2,1,5,0,0
53020,-100,4,2,1,60,0,0
58139,-100,4,2,1,5,0,0

[Colours]
Combo1 : 85,29,141
Combo2 : 191,191,191
Combo3 : 53,181,149
Combo4 : 85,85,85

[HitObjects]
256,192,16,12,0,9262,0:0:0:0:
66,72,10583,6,0,B|112:49|156:86|120:131|177:142,1,140,2|0,1:2|1:0,0:0:0:0:
247,110,11079,1,2,0:0:0:0:
302,173,11244,2,0,P|265:204|275:275,1,105,2|0,1:2|0:0,0:0:0:0:
274,267,11574,2,0,L|367:252,1,70,0|2,1:2|0:0,0:0:0:0:
407,202,11904,5,2,1:2:0:0:
483,236,12070,1,2,0:0:0:0:
412,190,12235,1,2,1:2:0:0:
362,350,12565,5,2,1:2:0:0:
286,384,12731,1,2,0:0:0:0:
357,338,12896,1,2,1:2:0:0:
191,313,13225,6,0,B|200:305|200:305|177:259|125:276|131:292|107:294|73:269,1,140,2|2,1:2|1:2,0:0:0:0:
63,196,13721,1,2,0:0:0:0:
120,135,13886,2,0,P|102:93|85:34,1,105,0|0,1:0|0:0,0:0:0:0:
87,22,14216,2,0,P|105:49|147:52,1,70,0|2,1:2|0:0,0:0:0:0:
204,0,14546,5,2,1:2:0:0:
129,150,14877,5,2,1:2:0:0:
279,225,15207,5,0,1:0:0:0:
204,375,15537,5,0,1:0:0:0:
291,231,15867,6,0,B|306:226|306:226|329:162|329:162|384:127,1,140,2|2,1:2|1:2,0:0:0:0:
457,154,16363,1,2,0:0:0:0:
380,119,16528,2,0,L|369:47,2,70,2|2|2,1:2|0:0|1:2,0:0:0:0:
221,174,17188,5,2,1:2:0:0:
136,161,17353,1,2,0:0:0:0:
121,78,17519,1,2,1:2:0:0:
196,39,17684,1,2,0:0:0:0:
256,96,17849,1,2,1:2:0:0:
310,254,18179,6,0,B|297:258|297:258|279:322,1,70,2|2,1:2|0:0,0:0:0:0:
206,350,18509,6,0,B|211:359|211:359|151:383|151:383|153:387|153:387|101:334,1,140,2|2,1:2|1:2,0:0:0:0:
119,259,19005,1,2,0:0:0:0:
93,339,19170,2,0,L|4:351,2,70,0|2|2,1:0|0:0|1:2,0:0:0:0:
63,173,19830,5,2,1:2:0:0:
8,108,19995,1,2,0:0:0:0:
73,161,20161,1,2,1:2:0:0:
212,67,20491,5,2,1:2:0:0:
277,14,20657,1,2,0:0:0:0:
222,79,20822,1,2,1:2:0:0:
281,235,21151,6,0,B|355:250|306:306|386:320,1,140,2|2,1:2|1:2,0:0:0:0:
458,282,21647,1,2,0:0:0:0:
420,206,21812,2,0,P|440:181|437:137,1,70,2|2,1:2|0:0,0:0:0:0:
489,76,22142,2,0,P|470:50|426:41,1,70,2|2,1:2|0:0,0:0:0:0:
361,0,22472,6,0,B|332:14|330:47|330:47|232:82,1,140,2|2,1:2|1:2,0:0:0:0:
170,60,22968,1,2,0:0:0:0:
139,138,23133,1,2,1:2:0:0:
242,270,23463,5,2,1:2:0:0:
273,348,23628,1,2,0:0:0:0:
257,265,23793,1,2,0:0:0:0:
409,200,26435,6,0,P|381:266|438:309,1,154.000004699707,4|8,1:2|1:2,0:0:0:0:
512,267,26931,1,2,0:1:0:0:
447,321,27096,2,0,P|353:353|306:387,1,154.000004699707,0|8,1:0|1:2,0:0:0:0:
230,351,27591,1,2,0:1:0:0:
262,272,27756,2,0,L|226:174,2,77.0000023498536,0|2|8,1:0|0:1|1:2,0:0:0:0:
121,367,28417,6,0,L|60:201,2,154.000004699707,0|8|4,1:0|1:2|1:2,0:0:0:0:
150,199,29408,6,0,P|159:164|122:127,1,77.0000023498536,8|2,1:2|0:1,0:0:0:0:
54,113,29738,2,0,B|131:101|131:101|135:97|135:97|228:83,1,154.000004699707,0|8,1:0|1:2,0:0:0:0:
273,38,30233,1,2,0:1:0:0:
332,98,30398,2,0,P|310:128|318:164,2,77.0000023498536,0|2|8,1:0|0:1|1:2,0:0:0:0:
471,0,31059,5,0,1:0:0:0:
512,74,31224,1,2,0:1:0:0:
460,5,31389,2,0,B|473:33|473:33|457:87|457:87|427:98,1,115.50000352478,8|0,1:2|0:0,0:0:0:0:
416,103,31719,6,0,L|461:278,1,154.000004699707,4|8,1:2|1:2,0:0:0:0:
506,319,32215,1,2,0:1:0:0:
443,262,32380,2,0,B|350:283|420:340|310:353,1,154.000004699707,0|8,1:0|1:2,0:0:0:0:
249,317,32875,1,2,0:1:0:0:
281,238,33040,2,0,P|260:211|200:217,2,77.0000023498536,0|2|8,1:0|0:1|1:2,0:0:0:0:
202,87,33701,6,0,P|153:144|78:151,2,154.000004699707,0|8|4,1:0|1:2|1:2,0:0:0:0:
347,0,34691,6,0,P|384:4|399:63,1,77.0000023498536,8|2,1:2|0:1,0:0:0:0:
487,57,35022,2,0,P|409:77|328:129,1,154.000004699707,0|8,1:0|1:2,0:0:0:0:
324,195,35517,1,2,0:1:0:0:
389,249,35682,2,0,P|426:245|441:186,2,77.0000023498536,0|2|8,1:0|0:1|1:2,0:0:0:0:
222,281,36343,5,0,1:0:0:0:
181,355,36508,1,2,0:1:0:0:
233,286,36673,2,0,B|216:340|216:340|272:404,1,115.50000352478,8|0,1:2|0:0,0:0:0:0:
272,382,37003,6,0,L|366:363,1,83.9999974365235,4|2,1:2|0:1,0:0:0:0:
445,384,37333,2,0,B|478:376|478:376|440:205,2,167.999994873047,8|0|8,1:2|1:0|1:2,0:0:0:0:
334,235,38324,5,0,1:0:0:0:
264,174,38489,1,2,0:1:0:0:
300,89,38654,1,8,1:2:0:0:
137,0,38985,6,0,P|84:65|5:60,2,167.999994873047,0|8|4,1:0|1:2|1:2,0:0:0:0:
127,184,39975,6,0,P|104:223|95:261,1,83.9999974365235,8|2,1:2|0:1,0:0:0:0:
2,267,40306,2,0,P|82:285|143:342,1,167.999994873047,0|8,1:0|1:2,0:0:0:0:
233,379,40801,1,2,0:1:0:0:
233,379,40966,2,0,P|267:355|244:296,2,83.9999974365235,0|2|8,1:0|0:1|1:2,0:0:0:0:
246,194,41627,5,0,1:0:0:0:
325,147,41792,1,2,0:1:0:0:
254,207,41957,1,8,1:2:0:0:
147,56,42287,6,0,L|53:29,1,83.9999974365235,4|2,1:2|0:1,0:0:0:0:
0,97,42617,2,0,B|-10:131|-10:131|135:173,2,167.999994873047,8|0|8,1:2|1:0|1:2,0:0:0:0:
11,281,43608,5,0,1:0:0:0:
98,311,43773,1,2,0:1:0:0:
155,384,43938,1,8,1:2:0:0:
332,330,44269,6,0,P|357:251|420:197,2,167.999994873047,0|8|4,1:0|1:2|1:2,0:0:0:0:
195,206,45259,6,0,P|165:191|177:118,1,83.9999974365235,8|2,1:2|0:1,0:0:0:0:
121,57,45590,2,0,P|202:119|274:122,1,167.999994873047,0|8,1:0|1:2,0:0:0:0:
345,75,46085,1,2,0:1:0:0:
345,75,46250,2,0,P|351:42|376:-2,2,83.9999974365235,0|2|8,1:0|0:1|1:2,0:0:0:0:
426,241,46911,5,0,1:0:0:0:
512,207,47076,1,2,0:1:0:0:
432,254,47241,1,8,1:2:0:0:
350,384,47571,6,0,P|321:367|269:358,1,70,0|2,1:0|0:1,0:0:0:0:
237,289,47901,2,0,P|203:297|172:314,1,70,0|2,1:2|0:1,0:0:0:0:
96,351,48232,2,0,P|49:341|49:247,1,140,0|0,1:0|1:2,0:0:0:0:
108,218,48727,1,2,0:1:0:0:
50,157,48892,6,0,P|32:101|-13:5,2,140,0|0|0,1:0|1:2|1:0,0:0:0:0:
108,218,49718,1,2,0:1:0:0:
179,173,49883,1,0,1:2:0:0:
316,76,50213,6,0,P|342:50|386:53,1,70,0|2,1:0|0:1,0:0:0:0:
443,0,50543,2,0,P|474:18|483:61,1,70,0|2,1:2|0:1,0:0:0:0:
451,126,50874,2,0,P|410:186|391:249,1,140,0|0,1:0|1:2,0:0:0:0:
412,330,51369,1,2,0:1:0:0:
338,370,51534,6,0,P|272:373|256:308,2,140,0|0|0,1:0|1:2|1:0,0:0:0:0:
412,330,52360,1,2,0:1:0:0:
476,383,52525,2,0,P|497:360|536:359,2,70,0|2|2,1:2|0:1|0:1,0:0:0:0:
256,192,53020,12,4,58139,0:1:0:0:
