osu file format v14

[General]
AudioFilename: audio.mp3
AudioLeadIn: 0
PreviewTime: 23793
Countdown: 0
SampleSet: Soft
StackLeniency: 0.3
Mode: 0
LetterboxInBreaks: 0
WidescreenStoryboard: 1

[Editor]
Bookmarks: 16,9262,10583,21151,23793,26435,37003,47571,52855,58139
DistanceSpacing: 0.9
BeatDivisor: 4
GridSize: 32
TimelineZoom: 1.7

[Metadata]
Title:Bliznetsy (111loggedin Edit) (Cut Ver.)
TitleUnicode:Близнецы (111loggedin Edit) (Cut Ver.)
Artist:CHERNOBURKV
ArtistUnicode:CHERNOBURKV
Creator:Nytrocide_
Version:Easy.
Source:
Tags:nytro ganyumymommy soraka nyarvis heyimjarvis jarvis -envy- envy nv riffy -bakari- bakari russian electronic underground sped up version remix lo-fi house deep bass hex hexd * roxy xxenaa <3 ЛАБИРИНТЫ labyrinth labyrinty labyrinths чернобурка чернобуркв chernoburka who hu tao hutao genshin impact
BeatmapID:4105039
BeatmapSetID:1974817

[Difficulty]
HPDrainRate:3
CircleSize:2.6
OverallDifficulty:3
ApproachRate:3
SliderMultiplier:1
SliderTickRate:1

[Events]
//Background and Video events
0,0,"the fog is coming.jpg",0,0
//Break Periods
2,23993,24995
//Storyboard Layer 0 (Background)
//Storyboard Layer 1 (Fail)
//Storyboard Layer 2 (Pass)
//Storyboard Layer 3 (Foreground)
//Storyboard Layer 4 (Overlay)
//Storyboard Sound Samples

[TimingPoints]
16,330.247355269097,4,2,1,60,1,0
16,-100,4,2,1,60,0,0
9262,-100,4,2,1,75,0,0
10583,-100,4,2,1,75,0,0
21151,-100,4,2,1,75,0,0
23793,-100,4,2,1,25,0,0
26435,-100,4,2,1,90,0,0
26724,-100,4,2,1,5,0,0
26766,-100,4,2,1,90,0,0
28417,-100,4,2,1,90,0,1
28706,-100,4,2,1,5,0,1
28747,-100,4,2,1,90,0,1
29036,-100,4,2,1,5,0,1
29077,-100,4,2,1,90,0,0
31059,-100,4,2,1,90,0,1
31183,-100,4,2,1,5,0,1
31224,-100,4,2,1,90,0,1
31348,-100,4,2,1,5,0,1
31389,-100,4,2,1,90,0,1
31678,-100,4,2,1,90,0,1
31719,-100,4,2,1,90,0,0
33701,-100,4,2,1,90,0,1
33990,-100,4,2,1,5,0,1
34031,-100,4,2,1,90,0,1
34320,-100,4,2,1,5,0,1
34361,-100,4,2,1,90,0,0
36343,-100,4,2,1,90,0,1
36467,-100,4,2,1,5,0,1
36508,-100,4,2,1,90,0,1
36632,-100,4,2,1,5,0,1
36673,-100,4,2,1,90,0,1
36962,-100,4,2,1,5,0,1
37003,-100,4,2,1,90,0,0
37333,-100,4,2,1,90,0,0
38324,-100,4,2,1,90,0,0
38985,-100,4,2,1,90,0,1
39274,-100,4,2,1,5,0,1
39315,-100,4,2,1,90,0,1
39604,-100,4,2,1,5,0,1
39645,-100,4,2,1,90,0,0
40306,-100,4,2,1,90,0,0
40966,-100,4,2,1,90,0,0
41627,-100,4,2,1,90,0,1
41751,-100,4,2,1,5,0,1
41792,-100,4,2,1,90,0,1
41916,-100,4,2,1,5,0,1
41957,-100,4,2,1,90,0,1
42246,-100,4,2,1,5,0,1
42287,-100,4,2,1,90,0,0
42617,-100,4,2,1,90,0,0
43608,-100,4,2,1,90,0,0
44269,-100,4,2,1,90,0,1
44558,-100,4,2,1,5,0,1
44599,-100,4,2,1,90,0,1
44888,-100,4,2,1,5,0,1
44929,-100,4,2,1,90,0,0
45590,-100,4,2,1,90,0,0
46250,-100,4,2,1,90,0,0
46911,-100,4,2,1,90,0,1
47034,-100,4,2,1,5,0,1
47076,-100,4,2,1,90,0,1
47200,-100,4,2,1,5,0,1
47241,-100,4,2,1,90,0,1
47530,-100,4,2,1,5,0,1
47571,-100,4,2,1,75,0,0
52855,-100,4,2,1,5,0,0
53020,-100,4,2,1,60,0,0
58139,-100,4,2,1,5,0,0

[Colours]
Combo1 : 85,29,141
Combo2 : 191,191,191
Combo3 : 53,181,149
Combo4 : 85,85,85

[HitObjects]
256,192,16,12,0,9262,0:0:0:0:
135,45,10583,6,0,P|58:89|62:195,1,200,2|2,1:2|1:2,0:0:0:0:
144,220,11574,1,0,1:2:0:0:
115,305,11904,2,0,P|69:317|25:359,2,100,2|2|2,1:2|1:2|1:2,0:0:0:0:
200,335,12895,1,2,1:2:0:0:
268,276,13225,6,0,P|363:252|364:161,1,200,2|0,1:2|1:0,0:0:0:0:
310,92,14216,1,0,1:2:0:0:
370,25,14546,2,0,L|471:5,2,100,2|2|0,1:2|1:2|1:0,0:0:0:0:
209,107,15867,6,0,B|184:99|184:99|182:92|182:92|110:67,1,100,2|2,1:2|1:2,0:0:0:0:
47,125,16528,2,0,L|-11:139,2,50,2|2|2,1:2|0:0|1:2,0:0:0:0:
100,197,17188,2,0,P|76:240|55:307,1,100,2|2,1:2|1:2,0:0:0:0:
111,361,17849,1,2,1:2:0:0:
192,323,18179,1,2,1:2:0:0:
264,376,18509,6,0,P|307:362|314:303,1,100,2|2,1:2|1:2,0:0:0:0:
276,232,19170,2,0,L|225:219,2,50,0|2|2,1:0|0:0|1:2,0:0:0:0:
359,198,19830,2,0,P|382:153|416:117,1,100,2|2,1:2|1:2,0:0:0:0:
464,40,20491,2,0,L|515:27,2,50,2|2|2,1:2|0:0|1:2,0:0:0:0:
383,0,21151,6,0,B|373:-9|373:-9|271:17,1,100,2|2,1:2|1:2,0:0:0:0:
209,54,21812,2,0,P|196:37|158:26,2,50,2|2|2,1:2|0:0|1:2,0:0:0:0:
239,138,22472,1,2,1:2:0:0:
175,202,22803,1,2,1:2:0:0:
224,277,23133,1,2,1:2:0:0:
160,340,23463,6,0,P|136:348|121:368,2,50,2|2|2,1:2|0:0|0:0,0:0:0:0:
459,357,26435,6,0,B|476:286|404:252|404:252|322:296,1,200,4|0,1:2|1:0,0:0:0:0:
285,354,27426,1,8,1:2:0:0:
203,317,27756,2,0,L|189:261,2,50,0|2|8,1:0|0:1|1:2,0:0:0:0:
132,373,28417,6,0,P|87:376|53:326,1,100,0|8,1:0|1:2,0:0:0:0:
0,265,29077,6,0,B|29:238|2:209|71:128|152:171,1,200,4|0,1:2|1:0,0:0:0:0:
223,122,30068,1,8,1:2:0:0:
286,186,30398,2,0,P|334:174|374:144,1,100,0|8,1:0|1:2,0:0:0:0:
424,70,31059,6,0,L|408:17,2,50,0|2|8,1:0|0:1|1:2,0:0:0:0:
501,114,31719,6,0,B|472:259|500:166|468:313,1,200,4|0,1:2|1:0,0:0:0:0:
411,381,32710,1,8,1:2:0:0:
327,346,33040,2,0,P|302:352|282:371,2,50,0|2|8,1:0|0:1|1:2,0:0:0:0:
361,262,33701,6,0,P|346:223|287:214,1,100,0|8,1:0|1:2,0:0:0:0:
226,272,34361,6,0,B|214:312|161:331|171:284|97:311|138:339|79:360|38:331,1,200,4|0,1:2|1:0,0:0:0:0:
1,262,35352,1,8,1:2:0:0:
64,198,35682,2,0,P|87:161|65:112,1,100,0|8,1:0|1:2,0:0:0:0:
48,24,36343,6,0,L|-8:11,2,50,0|2|8,1:0|0:1|1:2,0:0:0:0:
135,0,37003,5,4,1:2:0:0:
199,62,37333,2,0,P|256:59|276:19,2,100,8|0|8,1:2|1:0|1:2,0:0:0:0:
172,148,38324,2,0,P|196:196|212:249,1,100,0|8,1:0|1:2,0:0:0:0:
267,309,38985,5,0,1:0:0:0:
348,271,39315,1,8,1:2:0:0:
411,335,39645,6,0,B|455:355|506:320|465:259|508:226|490:172,1,200,4|0,1:2|1:0,0:0:0:0:
429,126,40636,1,8,1:2:0:0:
349,167,40966,2,0,P|303:151|288:105,1,100,0|8,1:0|1:2,0:0:0:0:
293,19,41627,5,0,1:0:0:0:
293,19,41792,2,0,L|229:3,1,50,2|8,0:1|1:2,0:0:0:0:
162,44,42287,5,4,1:2:0:0:
97,106,42617,2,0,P|62:77|7:61,2,100,8|0|8,1:2|1:0|1:2,0:0:0:0:
133,188,43608,2,0,P|92:210|81:265,1,100,0|8,1:0|1:2,0:0:0:0:
123,338,44269,5,0,1:0:0:0:
204,300,44599,1,8,1:2:0:0:
265,365,44929,6,0,B|370:356|306:333|367:321|381:286|324:314|450:285,1,200,4|0,1:2|1:0,0:0:0:0:
507,229,45920,1,8,1:2:0:0:
462,150,46250,2,0,P|459:127|387:109,1,100,0|8,1:0|1:2,0:0:0:0:
321,153,46911,5,0,1:0:0:0:
321,153,47076,2,0,L|311:210,1,50,2|8,0:1|1:2,0:0:0:0:
347,284,47571,6,0,B|297:298|323:351|261:340|215:390|214:327|156:340,1,200,0|0,1:0|1:0,0:0:0:0:
112,273,48562,1,0,1:2:0:0:
153,193,48892,2,0,P|141:158|75:143,2,100,0|0|0,1:0|1:2|1:0,0:0:0:0:
274,59,50213,6,0,P|286:24|352:9,1,100,0|0,1:0|1:2,0:0:0:0:
419,50,50874,1,0,1:0:0:0:
380,131,51204,1,0,1:2:0:0:
444,193,51534,2,0,B|503:172|530:215|525:217|477:263|504:329,1,200,0|0,1:0|1:0,0:0:0:0:
430,382,52525,2,0,P|391:358|333:348,1,100,0|2,1:2|0:1,0:0:0:0:
256,192,53020,12,4,58139,0:1:0:0:
