osu file format v14

[General]
AudioFilename: audio.mp3
AudioLeadIn: 0
PreviewTime: 49665
Countdown: 0
SampleSet: Normal
StackLeniency: 0.7
Mode: 0
LetterboxInBreaks: 0
WidescreenStoryboard: 0

[Editor]
Bookmarks: 30788,50380,69972,89563,109155,128747,148339,167931,187523,207114
DistanceSpacing: 1.1
BeatDivisor: 4
GridSize: 4
TimelineZoom: 1

[Metadata]
Title:Want U Back
TitleUnicode:Want U Back
Artist:Cher Lloyd
ArtistUnicode:Cher Lloyd
Creator:ezek
Version:Hard
Source:
Tags:Alvieee
BeatmapID:1722498
BeatmapSetID:821851

[Difficulty]
HPDrainRate:6.6
CircleSize:4
OverallDifficulty:7
ApproachRate:7
SliderMultiplier:2.3
SliderTickRate:1

[Events]
//Background and Video events
Video,-103,"Not U.mp4"
0,0,"hhhmp.jpg",0,0
//Break Periods
//Storyboard Layer 0 (Background)
//Storyboard Layer 1 (Fail)
//Storyboard Layer 2 (Pass)
//Storyboard Layer 3 (Foreground)
//Storyboard Sound Samples

[TimingPoints]
11196.527079906,612.244897959184,4,1,0,100,1,0
50380,-83.3333333333333,4,1,0,100,0,1
60023,-83.3333333333333,4,1,0,100,0,0
60176,-83.3333333333333,4,1,0,100,0,1
69972,-100,4,1,0,100,0,0
109155,-83.3333333333333,4,1,0,100,0,1
118798,-83.3333333333333,4,1,0,100,0,0
118951,-83.3333333333333,4,1,0,100,0,1
128747,-83.3333333333333,4,1,0,100,0,1
148339,-83.3333333333333,4,1,0,100,0,0
167931,-83.3333333333333,4,1,0,100,0,1
177574,-83.3333333333333,4,1,0,100,0,0
177727,-83.3333333333333,4,1,0,100,0,1
187369,-83.3333333333333,4,1,0,100,0,0
187523,-83.3333333333333,4,1,0,100,0,1
207114,-100,4,1,0,100,0,0

[Colours]
Combo1 : 173,173,173
Combo2 : 230,197,119
Combo3 : 168,121,70
Combo4 : 217,66,66

[HitObjects]
160,316,11196,5,2,0:0:0:0:
256,376,11502,1,0,0:0:0:0:
352,316,11808,1,2,0:2:0:0:
336,144,12267,6,0,B|300:172|256:180|212:172|176:144,1,172.5
198,31,13033,1,2,0:2:0:0:
314,31,13339,1,0,0:0:0:0:
256,128,13645,5,2,0:0:0:0:
256,244,13951,1,0,0:0:0:0:
256,360,14257,1,2,0:2:0:0:
112,264,14716,6,0,B|64:192|64:192|112:120,1,172.5
226,134,15482,1,2,0:2:0:0:
226,250,15788,1,0,0:0:0:0:
324,192,16094,5,2,0:0:0:0:
423,134,16400,1,0,0:0:0:0:
423,250,16706,1,2,0:2:0:0:
284,352,17165,6,0,L|284:176,1,172.5
284,64,17931,1,2,0:2:0:0:
168,64,18237,1,0,0:0:0:0:
12,192,18543,5,2,0:0:0:0:
256,368,19155,1,2,0:2:0:0:
500,192,19767,1,0,0:0:0:0:
256,16,20380,1,4,0:2:0:0:
108,192,20992,5,2,0:0:0:0:
112,308,21298,1,0,0:0:0:0:
212,252,21604,1,2,0:2:0:0:
212,80,22063,2,0,B|264:48|336:60|368:108,1,172.5
436,200,22829,1,2,0:2:0:0:
436,316,23135,1,0,0:0:0:0:
340,252,23441,5,2,0:0:0:0:
224,248,23747,1,0,0:0:0:0:
108,248,24053,1,2,0:2:0:0:
232,132,24512,6,0,B|216:72|160:36|100:44,1,172.5
16,120,25278,1,2,0:2:0:0:
16,236,25584,1,0,0:0:0:0:
116,180,25890,5,2,0:0:0:0:
112,296,26196,1,0,0:0:0:0:
212,356,26502,1,2,0:2:0:0:
220,184,26961,2,0,B|224:128|280:80|344:80,1,172.5
456,80,27727,1,0,0:0:0:0:
456,196,28033,1,0,0:0:0:0:
456,312,28339,6,0,B|404:336|392:296|344:320,1,115,2|0,0:0|0:0,0:0:0:0:
312,208,28951,2,0,B|260:232|248:192|200:216,1,115,2|0,0:2|0:0,0:0:0:0:
156,324,29563,2,0,B|104:348|92:308|44:332,1,115
12,220,30176,1,4,0:2:0:0:
208,100,30788,6,0,B|256:132|256:132|304:100,1,115,2|0,0:0|0:0,0:0:0:0:
404,156,31400,1,2,0:2:0:0:
368,264,31706,1,0,0:0:0:0:
256,292,32012,1,0,0:0:0:0:
144,264,32318,1,0,0:0:0:0:
108,156,32624,1,2,0:2:0:0:
340,152,33237,5,2,0:0:0:0:
256,76,33543,1,0,0:0:0:0:
172,152,33849,1,2,0:2:0:0:
252,236,34155,1,0,0:0:0:0:
172,320,34461,2,0,L|52:320,2,115,0|0|2,0:0|0:0|0:2,0:0:0:0:
400,348,35686,6,0,B|396:288|452:252,1,115,2|0,0:0|0:0,0:0:0:0:
452,132,36298,2,0,B|396:96|400:36,1,115,2|0,0:2|0:0,0:0:0:0:
296,84,36910,1,0,0:0:0:0:
336,192,37216,1,0,0:0:0:0:
296,300,37523,1,2,0:2:0:0:
124,308,37982,5,0,0:0:0:0:
124,308,38135,1,0,0:0:0:0:
128,192,38441,1,0,0:0:0:0:
128,192,38594,1,0,0:0:0:0:
132,76,38900,1,0,0:0:0:0:
132,76,39053,1,0,0:0:0:0:
236,128,39359,2,0,B|288:160|344:128,1,115
448,76,39972,1,4,0:2:0:0:
312,264,40584,6,0,B|256:284|200:264,1,115,2|0,0:0|0:0,0:0:0:0:
84,280,41196,1,2,0:2:0:0:
160,364,41502,1,0,0:0:0:0:
256,300,41808,1,0,0:0:0:0:
352,364,42114,1,0,0:0:0:0:
428,280,42420,1,2,0:2:0:0:
388,52,43033,5,2,0:0:0:0:
356,160,43339,1,0,0:0:0:0:
256,220,43645,1,2,0:2:0:0:
156,160,43951,1,0,0:0:0:0:
124,52,44257,2,0,L|248:52,2,115,0|0|2,0:0|0:0|0:2,0:0:0:0:
64,272,45482,6,0,B|120:300|127:362,1,115,2|0,0:0|0:0,0:0:0:0:
198,272,46094,1,2,0:2:0:0:
314,272,46400,1,0,0:0:0:0:
384,362,46706,2,0,B|392:300|448:272,1,115
512,176,47318,5,2,0:2:0:0:
256,192,47778,12,2,49767,0:2:0:0:
256,44,50380,6,0,B|200:40|200:40|180:56|180:56|120:52,1,137.999995788574,4|0,0:0|0:0,0:0:0:0:
48,44,50839,1,0,0:0:0:0:
12,112,50992,2,0,B|-16:152|-16:200|12:252,1,137.999995788574,2|0,0:2|0:0,0:0:0:0:
56,300,51451,1,0,0:0:0:0:
108,244,51604,2,0,L|268:244,1,137.999995788574
364,340,52216,1,2,0:2:0:0:
364,340,52523,1,0,0:0:0:0:
364,188,52829,5,2,0:0:0:0:
364,188,52982,1,0,0:0:0:0:
364,188,53135,1,0,0:0:0:0:
364,188,53288,1,0,0:0:0:0:
364,188,53441,2,0,B|384:124|332:120|350:54,1,137.999995788574,2|0,0:2|0:0,0:0:0:0:
256,172,54053,1,0,0:0:0:0:
161,54,54359,2,0,B|180:120|128:124|148:188,1,137.999995788574,0|2,0:0|0:2,0:0:0:0:
256,296,54972,1,0,0:0:0:0:
104,292,55278,5,2,0:0:0:0:
256,296,55584,1,0,0:0:0:0:
408,296,55890,1,2,0:2:0:0:
200,204,56349,1,0,0:0:0:0:
200,204,56502,1,2,0:0:0:0:
352,208,56808,1,0,0:0:0:0:
504,208,57114,1,2,0:2:0:0:
420,80,57421,1,0,0:0:0:0:
276,32,57727,6,0,B|232:56|232:116|272:148,1,137.999995788574
356,272,58339,2,0,B|396:240|396:180|352:156,1,137.999995788574
284,304,58951,1,0,0:0:0:0:
284,304,59563,1,4,1:2:0:0:
32,232,60176,6,0,B|92:228|124:216|154:178,1,137.999995788574,4|0,0:0|0:0,0:0:0:0:
208,124,60635,1,0,0:0:0:0:
264,72,60788,2,0,B|294:34|326:22|386:18,1,137.999995788574,2|0,0:2|0:0,0:0:0:0:
460,36,61247,1,0,0:0:0:0:
496,100,61400,2,0,L|516:240,1,137.999995788574
424,360,62012,2,0,L|404:220,1,137.999995788574,2|0,0:2|0:0,0:0:0:0:
312,104,62625,5,2,0:0:0:0:
312,104,62778,1,0,0:0:0:0:
312,104,62931,1,0,0:0:0:0:
312,104,63084,1,0,0:0:0:0:
312,104,63237,2,0,B|328:144|312:184|312:184|321:238,1,137.999995788574,2|0,0:2|0:0,0:0:0:0:
256,376,63849,1,0,0:0:0:0:
190,238,64155,2,0,B|199:183|199:183|183:143|199:103,1,137.999995788574,0|2,0:0|0:2,0:0:0:0:
256,244,64767,1,0,0:0:0:0:
408,240,65074,5,2,0:0:0:0:
256,244,65380,1,0,0:0:0:0:
104,244,65686,1,2,0:2:0:0:
312,152,66145,1,0,0:0:0:0:
312,152,66298,1,2,0:0:0:0:
160,156,66604,1,0,0:0:0:0:
8,156,66910,1,2,0:2:0:0:
92,28,67217,1,0,0:0:0:0:
84,180,67523,6,0,B|80:248|80:248|120:312,1,137.999995788574
260,356,68135,2,0,B|264:288|264:288|224:224,1,137.999995788574,2|0,0:2|0:0,0:0:0:0:
144,100,68747,1,0,0:0:0:0:
144,100,69359,1,4,1:2:0:0:
348,252,69972,5,2,0:0:0:0:
256,336,70278,1,0,0:0:0:0:
164,252,70584,1,2,0:2:0:0:
176,64,71043,6,0,B|228:64|256:92|256:92|284:64|336:64,1,172.5
320,188,71808,1,2,0:2:0:0:
192,188,72114,1,0,0:0:0:0:
256,296,72421,5,2,0:0:0:0:
256,168,72727,1,0,0:0:0:0:
256,40,73033,1,2,0:2:0:0:
68,68,73492,6,0,B|32:96|32:192|64:228,1,172.5
136,332,74257,1,2,0:2:0:0:
256,368,74563,1,0,0:0:0:0:
376,332,74869,5,2,0:0:0:0:
276,252,75176,1,0,0:0:0:0:
376,176,75482,1,2,0:2:0:0:
256,28,75941,6,0,L|80:28,1,172.5
80,156,76706,1,2,0:2:0:0:
208,156,77012,1,0,0:0:0:0:
212,284,77318,5,0,0:0:0:0:
464,284,77931,1,2,0:2:0:0:
464,32,78543,1,0,0:0:0:0:
212,32,79155,1,4,0:2:0:0:
