osu file format v14

[General]
AudioFilename: audio.mp3
AudioLeadIn: 0
PreviewTime: 63514
Countdown: 0
SampleSet: Soft
StackLeniency: 0.7
Mode: 0
LetterboxInBreaks: 0
WidescreenStoryboard: 1

[Editor]
Bookmarks: 13477
DistanceSpacing: 1.1
BeatDivisor: 4
GridSize: 4
TimelineZoom: 1

[Metadata]
Title:Mamma Mia
TitleUnicode:Mamma Mia
Artist:Cher
ArtistUnicode:Cher
Creator:MkGuh
Version:Average
Source:
Tags:Mamma Mia! Here We Go Again english pop dancing queen midnight mix abba seventies 70's 1970s 1970 old style classic retro remastered meryl streep cover inis mama
BeatmapID:2693518
BeatmapSetID:864377

[Difficulty]
HPDrainRate:3
CircleSize:3.5
OverallDifficulty:5
ApproachRate:5.5
SliderMultiplier:1.3
SliderTickRate:1

[Events]
//Background and Video events
0,0,"610416.jpg",0,0
//Break Periods
2,49609,55053
2,80903,85929
2,123185,128630
2,193019,198703
//Storyboard Layer 0 (Background)
//Storyboard Layer 1 (Fail)
//Storyboard Layer 2 (Pass)
//Storyboard Layer 3 (Foreground)
//Storyboard Layer 4 (Overlay)
//Storyboard Sound Samples

[TimingPoints]
120,437.956204379562,4,2,1,50,1,0
120,-81.3008130081301,4,2,1,50,0,0
13477,-81.3008130081301,4,2,1,70,0,0
41287,-81.3008130081301,4,2,1,75,0,0
48514,-81.3008130081301,4,2,1,65,0,0
48842,-81.3008130081301,4,2,1,40,0,0
49171,-81.3008130081301,4,2,69,50,0,0
56178,-97.0873786407767,4,2,1,55,0,0
62528,-81.3008130081301,4,2,1,65,0,0
63185,-81.3008130081301,4,2,1,72,0,1
63623,-81.3008130081301,4,2,1,80,0,1
75229,-81.3008130081301,4,2,1,55,0,1
75448,-81.3008130081301,4,2,1,80,0,1
80703,-81.3008130081301,4,2,1,50,0,0
85959,-81.3008130081301,4,2,1,40,0,0
86251,-81.3008130081301,4,2,1,30,0,0
86397,-81.3008130081301,4,2,1,50,0,0
87711,-81.3008130081301,4,2,1,70,0,0
99755,-81.3008130081301,4,2,1,50,0,0
99864,-81.3008130081301,4,2,1,70,0,0
114864,-81.3008130081301,4,2,1,75,0,0
123185,-81.3008130081301,4,2,69,45,0,0
129755,-97.0873786407767,4,2,69,50,0,0
136105,-81.3008130081301,4,2,1,65,0,0
136762,-81.3008130081301,4,2,1,72,0,1
137200,-81.3008130081301,4,2,1,80,0,1
155813,-81.3008130081301,4,2,1,55,0,1
156032,-81.3008130081301,4,2,1,80,0,1
156251,-81.3008130081301,4,2,1,55,0,1
156470,-81.3008130081301,4,2,1,80,0,1
156689,-81.3008130081301,4,2,1,55,0,1
156908,-81.3008130081301,4,2,1,80,0,1
162820,-81.3008130081301,4,2,1,55,0,1
163039,-81.3008130081301,4,2,1,80,0,1
166762,-81.3008130081301,4,2,1,55,0,1
166981,-81.3008130081301,4,2,1,80,0,1
169828,-81.3008130081301,4,2,1,45,0,1
170047,-81.3008130081301,4,2,1,80,0,1
174645,-81.3008130081301,4,2,1,55,0,0
175302,-81.3008130081301,4,2,1,72,0,1
175740,-81.3008130081301,4,2,1,80,0,1
178587,-81.3008130081301,4,2,1,55,0,1
178806,-81.3008130081301,4,2,1,80,0,1
185594,-81.3008130081301,4,2,1,50,0,1
185813,-81.3008130081301,4,2,1,55,0,0
187127,-81.3008130081301,4,2,1,65,0,0
187565,-81.3008130081301,4,2,1,80,0,1
192820,-100,4,2,1,70,0,0
206835,-81.3008130081301,4,2,1,30,0,0
208587,-81.3008130081301,4,2,1,20,0,0
209244,-81.3008130081301,4,2,1,10,0,0
209901,-81.3008130081301,4,2,1,5,0,0

[Colours]
Combo1 : 255,157,206
Combo2 : 255,181,145
Combo3 : 128,64,64

[HitObjects]
480,192,13477,5,4,0:3:0:0:
480,192,13696,1,0,1:0:0:0:
340,264,14134,6,0,P|307:193|340:122,1,159.90000243988,4|0,1:0|1:0,0:0:0:0:
171,122,15010,2,0,P|204:193|172:264,1,159.90000243988,2|0,0:0|1:0,0:0:0:0:
96,284,15667,2,0,P|32:191|104:96,1,239.850003659821,2|0,0:0|1:0,0:0:0:0:
156,44,16543,1,2,0:0:0:0:
156,44,16762,1,2,0:0:0:0:
356,44,17200,1,0,1:0:0:0:
356,44,17419,1,4,0:3:0:0:
315,112,17638,6,0,P|255:156|194:112,1,159.90000243988,4|0,0:3|1:0,0:0:0:0:
102,262,18514,1,2,0:0:0:0:
256,348,18952,1,0,1:0:0:0:
256,348,19171,1,2,0:0:0:0:
410,262,19609,1,2,0:0:0:0:
410,262,19828,1,0,1:0:0:0:
256,180,20265,1,2,0:0:0:0:
344,44,20703,1,0,1:0:0:0:
256,44,20922,1,2,0:0:0:0:
168,44,21141,6,0,L|4:44,1,159.90000243988,4|0,3:0|1:0,0:0:0:0:
8,192,22017,2,0,L|172:192,1,159.90000243988,2|0,0:0|1:0,0:0:0:0:
252,192,22674,2,0,P|286:83|398:70,1,239.850003659821,2|0,0:0|1:0,0:0:0:0:
472,116,23550,1,0,0:0:0:0:
472,116,23769,2,0,P|497:191|472:266,1,159.90000243988,2|0,0:0|1:0,0:0:0:0:
394,289,24426,1,4,0:3:0:0:
315,271,24645,6,0,P|255:227|194:271,1,159.90000243988,4|0,0:3|1:0,0:0:0:0:
102,122,25521,1,2,0:0:0:0:
256,36,25959,1,0,1:0:0:0:
256,36,26178,1,4,3:0:0:0:
410,122,26616,1,2,0:0:0:0:
410,122,26835,1,0,1:0:0:0:
256,204,27272,1,4,3:0:0:0:
344,340,27710,1,0,1:0:0:0:
256,340,27929,1,0,1:0:0:0:
172,344,28149,6,0,P|91:344|37:263,1,159.90000243988,4|0,1:0|1:0,0:0:0:0:
39,199,28806,2,0,P|90:115|135:203,1,239.850003659821,2|0,0:0|1:0,0:0:0:0:
194,272,29682,1,4,3:0:0:0:
256,340,29901,1,2,0:0:0:0:
342,190,30338,2,0,L|290:112,1,79.9500012199402,0|0,1:0|0:0,0:0:0:0:
213,124,30776,2,0,L|169:191,2,79.9500012199402,4|4|0,3:0|3:0|1:0,0:0:0:0:
340,344,31652,6,0,P|421:344|475:263,1,159.90000243988,4|0,3:0|1:0,0:0:0:0:
472,200,32309,2,0,P|432:116|384:212,1,239.850003659821,2|0,0:0|1:0,0:0:0:0:
318,272,33185,1,4,3:0:0:0:
256,340,33404,1,4,3:0:0:0:
80,346,33842,2,0,B|50:313|50:313|34:264,1,79.9500012199402,0|2,1:0|0:0,0:0:0:0:
119,241,34280,2,0,B|108:207|108:207|78:174,2,79.9500012199402,2|4|0,0:0|3:0|1:0,0:0:0:0:
256,340,35156,5,4,3:0:0:0:
257,189,35594,1,0,1:0:0:0:
132,91,36032,1,2,0:0:0:0:
177,25,36251,2,0,L|336:25,1,159.90000243988,4|0,0:3|0:0,0:0:0:0:
380,91,36908,1,4,0:3:0:0:
322,239,37346,6,0,P|255:278|191:240,2,159.90000243988,0|4|0,1:0|0:3|1:0,0:0:0:0:
363,171,38441,2,0,P|255:124|147:169,1,239.850003659821,2|0,0:0|1:0,0:0:0:0:
50,295,39536,2,0,L|123:354,1,79.9500012199402,4|4,3:0|0:3,0:0:0:0:
178,299,39974,1,0,1:0:0:0:
334,299,40411,1,4,0:3:0:0:
399,345,40631,2,0,L|462:295,1,79.9500012199402,4|0,0:3|1:0,0:0:0:0:
420,112,41287,5,4,1:0:0:0:
256,112,41725,1,4,1:0:0:0:
92,112,42163,1,4,1:0:0:0:
96,272,42601,5,2,1:2:0:0:
96,272,42820,1,4,0:3:0:0:
179,276,43039,2,0,P|255:352|332:275,2,239.850003659821,2|4|2,1:2|0:3|1:2,0:0:0:0:
92,112,44791,5,4,1:0:0:0:
256,112,45229,1,4,1:0:0:0:
420,112,45667,1,4,1:0:0:0:
416,272,46105,5,0,1:0:0:0:
416,272,46324,1,4,0:3:0:0:
333,276,46543,2,0,P|256:352|179:275,2,239.850003659821,2|4|2,1:2|0:3|1:2,0:0:0:0:
347,116,48295,2,0,L|290:44,1,79.9500012199402,4|0,1:0|1:0,0:0:0:0:
214,53,48733,2,0,L|165:116,1,79.9500012199402,0|8,1:0|0:3,0:0:0:0:
205,191,49171,5,4,1:0:0:0:
68,107,56178,6,0,P|255:46|448:111,1,401.699996628799,2|2,0:0|0:0,0:0:0:0:
444,277,57930,2,0,P|256:337|64:273,1,401.699996628799,2|2,0:0|0:0,0:0:0:0:
191,239,59682,6,0,P|256:253|321:240,2,133.899998876266,2|2|2,0:0|0:0|0:0,0:0:0:0:
166,33,61214,2,0,P|260:-1|357:41,1,200.8499983144,2|2,0:0|0:0,0:0:0:0:
256,128,62309,1,2,0:0:0:0:
216,192,62528,1,8,0:3:0:0:
296,192,62747,1,0,1:0:0:0:
359,329,63185,5,4,1:0:0:0:
359,329,63623,2,2,P|262:378|142:320,1,239.850003659821,8|4,1:0|3:0,1:0:0:0:
213,269,64499,1,0,1:0:0:0:
300,269,64718,1,4,3:0:0:0:
337,100,65156,1,2,0:0:0:0:
337,100,65594,2,0,L|149:100,1,159.90000243988,2|2,0:0|0:0,0:0:0:0:
88,100,66251,1,0,1:0:0:0:
153,329,66689,5,4,3:0:0:0:
153,329,67127,2,2,P|250:378|370:320,1,239.850003659821,0|4,1:0|3:0,0:1:0:0:
299,269,68003,1,0,1:0:0:0:
212,269,68222,1,4,3:0:0:0:
175,100,68660,1,2,0:0:0:0:
175,100,69098,2,0,L|363:100,1,159.90000243988,2|4,0:0|3:0,0:0:0:0:
424,100,69755,1,0,1:0:0:0:
331,246,70192,6,0,P|255:269|179:245,2,159.90000243988,4|0|2,1:0|1:0|0:0,0:0:0:0:
424,100,71506,1,0,1:0:0:0:
372,28,71725,2,0,L|132:28,1,239.850003659821,4|0,1:0|1:0,0:0:0:0:
80,192,72820,1,4,1:0:0:0:
256,192,73258,1,0,1:0:0:0:
344,192,73477,1,0,1:0:0:0:
432,192,73696,6,0,P|384:292|328:320,1,159.90000243988,4|0,1:0|1:0,0:0:0:0:
256,316,74353,1,2,0:0:0:0:
167,314,74572,2,0,P|104:266|80:192,1,159.90000243988,4|0,3:0|1:0,0:0:0:0:
123,111,75229,1,4,0:0:0:0:
168,36,75448,1,4,3:0:0:0:
344,36,75886,1,0,1:0:0:0:
432,192,76324,1,4,3:0:0:0:
294,303,76762,2,0,P|255:314|217:303,1,79.9500012199402,0|0,1:0|1:0,0:0:0:0:
159,240,77200,5,4,3:0:0:0:
346,120,77638,1,0,1:0:0:0:
167,48,78076,1,4,3:0:0:0:
147,317,78733,2,0,P|255:361|364:317,1,239.850003659821,4|0,0:0|1:0,0:0:0:0:
300,256,79609,1,0,0:0:0:0:
213,256,79828,1,4,0:0:0:0:
168,88,80265,1,0,1:0:0:0:
256,88,80484,1,4,3:0:0:0:
344,88,80703,1,4,1:0:0:0:
32,192,87054,5,4,0:3:0:0:
32,192,87273,1,0,1:0:0:0:
172,264,87711,6,0,P|205:193|172:122,1,159.90000243988,4|0,1:0|1:0,0:0:0:0:
341,122,88587,2,0,P|308:193|340:264,1,159.90000243988,2|0,0:0|1:0,0:0:0:0:
420,272,89244,2,0,B|448:228|400:160|432:116,1,159.90000243988,2|0,0:0|0:0,0:0:0:0:
460,44,89901,1,0,1:0:0:0:
460,44,90119,1,2,0:0:0:0:
300,24,90557,1,4,0:3:0:0:
256,92,90776,1,0,1:0:0:0:
212,24,90995,1,4,0:3:0:0:
136,52,91214,6,0,P|60:52|16:140,1,159.90000243988,4|0,0:3|1:0,0:0:0:0:
16,276,92090,2,0,P|59:339|136:339,1,159.90000243988,2|0,0:0|1:0,0:0:0:0:
180,272,92747,2,0,P|180:172|236:120,1,159.90000243988,4|4,0:3|0:3,0:0:0:0:
296,128,93404,1,0,1:0:0:0:
440,196,93842,1,4,0:3:0:0:
296,268,94280,2,0,B|308:308|308:308|348:336,1,79.9500012199402,0|2,1:0|0:0,0:0:0:0:
374,257,94718,6,0,L|334:83,1,159.90000243988,4|0,0:3|1:0,0:0:0:0:
173,101,95594,2,0,L|138:257,1,159.90000243988,2|0,0:0|1:0,0:0:0:0:
116,334,96251,2,0,P|66:330|15:231,1,159.90000243988,4|2,0:3|0:0,0:0:0:0:
75,192,96908,1,0,1:0:0:0:
12,140,97127,2,0,P|41:69|116:50,1,159.90000243988,2|4,0:0|0:3,0:0:0:0:
196,50,97784,1,0,1:0:0:0:
257,101,98003,1,4,0:3:0:0:
316,47,98222,6,0,L|489:16,1,159.90000243988,4|0,0:3|1:0,0:0:0:0:
506,175,99098,2,0,P|443:227|379:173,1,159.90000243988,2|0,0:0|1:0,0:0:0:0:
323,143,99755,2,0,P|256:108|202:159,1,159.90000243988,4|4,0:1|0:3,0:0:0:0:
171,233,100411,1,0,1:0:0:0:
19,180,100849,1,4,0:3:0:0:
101,43,101287,1,0,1:0:0:0:
155,101,101506,1,4,0:3:0:0:
101,160,101725,6,0,P|67:242|110:318,1,159.90000243988,4|0,1:0|1:0,0:0:0:0:
170,320,102382,2,0,P|255:248|341:319,1,239.850003659821,2|0,0:0|1:0,0:0:0:0:
423,342,103258,1,4,0:3:0:0:
423,342,103477,1,4,0:3:0:0:
478,192,103915,1,0,1:0:0:0:
423,42,104353,1,2,0:0:0:0:
423,42,104572,1,4,0:3:0:0:
423,42,104791,1,0,1:0:0:0:
257,45,105229,6,0,P|179:28|74:59,1,159.90000243988,4|0,0:3|1:0,0:0:0:0:
51,106,105886,2,0,P|121:193|50:279,1,239.850003659821,2|0,0:0|1:0,0:0:0:0:
55,363,106762,1,4,0:3:0:0:
55,363,106981,1,4,0:3:0:0:
194,284,107419,2,0,B|226:204,2,79.9500012199402,0|2|0,1:0|0:0|0:0,0:0:0:0:
230,355,108076,2,0,P|314:368|414:348,1,159.90000243988,4|4,0:3|0:3,0:0:0:0:
455,311,108733,5,2,0:0:0:0:
307,251,109171,1,0,1:0:0:0:
380,91,109609,1,2,0:0:0:0:
335,25,109828,2,0,L|176:25,1,159.90000243988,4|2,0:3|0:0,0:0:0:0:
132,91,110485,1,4,0:3:0:0:
190,239,110922,5,0,1:0:0:0:
190,239,111141,2,0,P|257:278|322:238,2,159.90000243988,2|2|2,0:0|0:0|0:0,0:0:0:0:
255,179,112236,2,0,P|320:140|386:179,1,159.90000243988,4|0,3:0|1:0,0:0:0:0:
463,315,113112,2,0,L|390:374,1,79.9500012199402,4|4,3:0|0:3,0:0:0:0:
335,319,113550,1,0,1:0:0:0:
179,319,113987,1,4,0:3:0:0:
114,365,114207,2,0,L|51:315,1,79.9500012199402,4|0,0:3|1:0,0:0:0:0:
92,112,114864,5,4,1:0:0:0:
256,112,115302,1,4,1:0:0:0:
420,112,115740,1,4,1:0:0:0:
416,272,116178,5,2,1:2:0:0:
416,272,116397,1,4,0:3:0:0:
333,276,116616,2,0,P|257:352|180:275,2,239.850003659821,2|2|2,1:2|0:0|1:2,0:0:0:0:
420,112,118368,5,4,1:0:0:0:
256,112,118806,1,4,1:0:0:0:
92,112,119244,1,4,1:0:0:0:
96,272,119682,5,2,1:2:0:0:
96,272,119901,1,4,0:3:0:0:
179,276,120120,2,0,P|256:352|333:275,2,239.850003659821,2|4|2,1:2|0:3|1:2,0:0:0:0:
165,116,121872,2,0,L|222:44,1,79.9500012199402,0|0,1:0|1:0,0:0:0:0:
298,53,122310,2,0,L|347:116,1,79.9500012199402,0|0,1:0|0:0,0:0:0:0:
309,191,122747,5,4,0:0:0:0:
444,107,129755,6,0,P|257:46|64:111,1,401.699996628799,2|2,0:0|0:0,0:0:0:0:
68,277,131507,2,0,P|256:337|448:273,1,401.699996628799,2|2,0:0|0:0,0:0:0:0:
321,239,133259,6,0,P|256:253|191:240,2,133.899998876266,2|2|2,0:0|0:0|0:0,0:0:0:0:
346,33,134791,2,0,P|252:-1|155:41,1,200.8499983144,2|2,0:0|0:0,0:0:0:0:
256,128,135886,1,2,0:0:0:0:
296,192,136105,1,4,0:3:0:0:
216,192,136324,1,0,1:0:0:0:
153,329,136762,5,4,1:0:0:0:
153,329,137200,2,2,P|250:378|370:320,1,239.850003659821,8|4,1:0|3:3,1:0:0:0:
299,269,138076,1,0,1:0:0:0:
212,269,138295,1,4,3:3:0:0:
175,100,138733,1,2,0:0:0:0:
175,100,139171,2,0,L|363:100,1,159.90000243988,2|4,0:0|3:0,0:0:0:0:
424,100,139828,1,0,1:0:0:0:
359,329,140266,5,4,3:0:0:0:
359,329,140704,2,2,P|262:378|142:320,1,239.850003659821,0|4,1:0|3:0,0:1:0:0:
213,269,141580,1,0,1:0:0:0:
300,269,141799,1,4,3:0:0:0:
337,100,142237,1,2,0:0:0:0:
337,100,142675,2,0,L|149:100,1,159.90000243988,2|4,0:0|3:0,0:0:0:0:
88,100,143332,1,0,1:0:0:0:
181,246,143769,6,0,P|257:269|333:245,2,159.90000243988,4|0|2,1:0|1:0|0:0,0:0:0:0:
88,100,145083,1,0,1:0:0:0:
140,28,145302,2,0,L|380:28,1,239.850003659821,4|0,3:0|1:0,0:0:0:0:
432,192,146397,1,4,3:0:0:0:
256,192,146835,1,0,1:0:0:0:
168,192,147054,1,0,1:0:0:0:
80,192,147273,6,0,P|128:292|184:320,1,159.90000243988,4|0,1:0|1:0,0:0:0:0:
256,316,147930,1,2,0:0:0:0:
345,314,148149,2,0,P|408:266|432:192,1,159.90000243988,4|0,3:0|1:0,0:0:0:0:
388,112,148806,1,4,0:1:0:0:
344,36,149025,1,4,3:0:0:0:
168,36,149463,2,0,L|130:121,1,79.9500012199402,0|2,1:0|0:0,0:0:0:0:
48,121,149901,2,0,L|8:201,1,79.9500012199402,4|0,3:0|0:0,0:0:0:0:
32,278,150338,2,0,P|88:318|167:260,1,159.90000243988,0|4,1:0|3:0,0:0:0:0:
256,160,151214,5,0,1:0:0:0:
141,34,151652,2,0,P|256:6|377:37,2,239.850003659821,2|2|0,0:0|0:0|1:0,0:0:0:0:
88,108,153185,1,4,3:0:0:0:
88,108,153404,1,4,0:1:0:0:
256,148,153842,1,0,1:0:0:0:
432,192,154280,6,0,P|384:292|328:320,1,159.90000243988,4|0,1:0|1:0,0:0:0:0:
256,316,154937,1,2,0:0:0:0:
167,314,155156,2,0,P|104:266|80:192,1,159.90000243988,2|0,0:0|1:0,0:0:0:0:
124,112,155813,1,4,0:0:0:0:
168,36,156032,1,4,3:0:0:0:
344,36,156470,2,0,L|382:121,1,79.9500012199402,0|4,1:0|0:0,0:0:0:0:
464,121,156908,2,0,L|504:201,1,79.9500012199402,4|0,3:0|0:0,0:0:0:0:
468,275,157346,2,0,P|423:313|340:273,1,159.90000243988,0|4,1:0|3:0,0:0:0:0:
256,160,158221,5,0,1:0:0:0:
371,34,158660,2,0,P|254:10|138:35,2,239.850003659821,4|4|0,3:0|1:0|1:0,0:0:0:0:
456,60,160192,1,2,0:0:0:0:
456,60,160411,1,4,1:0:0:0:
340,192,160849,1,0,1:0:0:0:
396,260,161068,1,4,3:0:0:0:
448,332,161287,6,0,P|384:364|292:352,1,159.90000243988,4|0,1:0|1:0,0:0:0:0:
256,276,161944,1,2,0:0:0:0:
213,354,162163,2,0,P|135:365|64:332,1,159.90000243988,4|0,3:0|1:0,0:0:0:0:
16,256,162820,1,4,0:2:0:0:
16,256,163039,1,4,3:0:0:0:
136,132,163477,2,0,L|107:57,1,79.9500012199402,0|2,1:0|0:0,0:0:0:0:
44,120,163915,2,0,L|74:193,1,79.9500012199402,4|4,3:0|3:0,0:0:0:0:
112,276,164353,2,0,B|184:256|184:256|224:152,1,159.90000243988,0|4,1:0|0:0,0:0:0:0:
356,72,165229,5,0,1:0:0:0:
484,192,165667,2,0,P|448:320|324:320,1,239.850003659821,4|2,3:0|0:0,0:0:0:0:
256,192,166762,1,4,0:0:0:0:
296,112,166981,1,0,1:0:0:0:
152,12,167419,1,4,3:0:0:0:
28,136,167857,1,0,1:0:0:0:
64,332,168295,6,0,P|128:364|220:352,1,159.90000243988,4|0,1:0|1:0,0:0:0:0:
256,276,168952,1,2,0:0:0:0:
299,354,169171,2,0,P|377:365|448:332,1,159.90000243988,2|0,0:0|1:0,0:0:0:0:
496,256,169828,1,4,0:0:0:0:
496,256,170047,1,4,3:0:0:0:
376,132,170485,2,0,L|404:57,1,79.9500012199402,0|0,1:0|0:0,0:0:0:0:
468,120,170923,2,0,L|437:193,1,79.9500012199402,4|4,3:0|3:0,0:0:0:0:
400,276,171361,2,0,B|328:256|328:256|288:152,1,159.90000243988,0|4,1:0|3:0,0:0:0:0:
156,72,172236,5,0,1:0:0:0:
28,192,172674,2,0,P|64:320|188:320,1,239.850003659821,2|4,0:0|0:0,0:0:0:0:
256,192,173769,1,4,3:0:0:0:
216,112,173988,1,0,1:0:0:0:
360,8,174426,1,4,0:0:0:0:
496,120,174864,2,0,L|468:196,1,79.9500012199402,0|8,1:0|3:0,0:0:0:0:
432,280,175302,5,4,1:0:0:0:
432,280,175740,2,2,P|368:188|388:56,1,239.850003659821,8|4,1:0|3:0,1:0:0:0:
300,36,176616,1,0,1:0:0:0:
212,36,176835,1,4,3:0:0:0:
119,172,177273,1,2,0:0:0:0:
200,316,177711,2,0,P|255:364|308:316,1,159.90000243988,2|4,0:0|3:0,0:0:0:0:
256,244,178368,1,0,1:0:0:0:
80,280,178806,5,4,3:0:0:0:
80,280,179244,2,2,P|144:188|124:56,1,239.850003659821,0|4,1:0|3:3,0:1:0:0:
212,36,180120,1,0,1:0:0:0:
300,36,180339,1,4,3:0:0:0:
393,172,180776,1,2,0:0:0:0:
312,316,181215,2,0,P|256:364|204:316,1,159.90000243988,2|4,0:0|3:0,0:0:0:0:
260,248,181871,1,0,1:0:0:0:
196,188,182090,1,0,1:0:0:0:
140,256,182309,6,0,P|72:236|60:148,2,159.90000243988,4|0|4,1:0|1:0|3:0,0:0:0:0:
204,92,183623,1,0,1:0:0:0:
140,32,183842,2,0,P|253:0|367:33,1,239.850003659821,4|0,0:0|1:0,0:0:0:0:
308,92,184718,1,2,0:0:0:0:
308,92,184937,1,4,3:0:0:0:
168,192,185375,1,0,1:0:0:0:
256,192,185594,1,4,0:0:0:0:
344,192,185813,1,4,0:3:0:0:
296,356,187127,6,0,L|212:356,2,79.9500012199402,0|0|4,1:0|1:0|1:0,0:0:0:0:
439,253,188003,2,0,P|482:191|440:129,1,159.90000243988,0|4,1:0|3:0,0:0:0:0:
302,19,188879,1,0,1:0:0:0:
256,92,189098,1,0,1:0:0:0:
210,19,189317,5,4,1:0:0:0:
256,192,189755,1,4,1:2:0:0:
302,365,190192,1,4,3:0:0:0:
44,144,190849,6,0,P|72:56|136:12,1,159.90000243988,6|4,0:0|3:0,0:0:0:0:
210,19,191506,1,0,1:0:0:0:
256,192,191944,1,4,0:0:0:0:
302,365,192382,2,0,B|340:352|340:352|372:320,2,79.9500012199402,0|4|4,1:0|3:0|1:0,0:0:0:0:
200,51,199828,6,0,P|256:23|314:53,1,130,2|0,0:0|0:0,0:0:0:0:
356,107,200484,2,0,B|307:122|256:187|256:187|214:123|148:104,1,260,2|2,0:0|0:0,0:0:0:0:
112,316,202017,1,2,0:0:0:0:
256,316,202455,1,0,0:0:0:0:
400,316,202893,1,2,0:0:0:0:
312,204,203331,6,0,P|256:232|198:202,1,130,2|0,0:0|0:0,0:0:0:0:
156,146,203988,2,0,B|205:131|256:66|256:66|298:130|365:149,1,260,2|2,0:0|0:0,0:0:0:0:
204,300,205521,2,0,B|204:264|204:264|224:236,1,65,2|0,0:0|0:0,0:0:0:0:
292,241,205959,2,0,B|308:264|308:264|308:300,1,65,2|0,0:0|0:0,0:0:0:0:
256,348,206397,1,2,0:0:0:0:
256,192,206835,12,0,210338,0:0:0:0:
