osu file format v14

[General]
AudioFilename: audio.mp3
AudioLeadIn: 0
PreviewTime: -1
Countdown: 0
SampleSet: Normal
StackLeniency: 0.7
Mode: 0
LetterboxInBreaks: 0
WidescreenStoryboard: 1

[Editor]
DistanceSpacing: 0.2
BeatDivisor: 16
GridSize: 32
TimelineZoom: 0.7

[Metadata]
Title:Just You And Me
TitleUnicode:Just You And Me (Chỉ cần em)
Artist:Cheng, REV, Nht Nguyn
ArtistUnicode:Cheng, REV, Nhật Nguyễn
Creator:Sushi1120
Version:Insane
Source:
Tags:
BeatmapID:4531156
BeatmapSetID:2150341

[Difficulty]
HPDrainRate:5
CircleSize:6
OverallDifficulty:9
ApproachRate:10
SliderMultiplier:1.4
SliderTickRate:1

[Events]
//Background and Video events
0,0,"1219697.jpg",0,0
//Break Periods
2,72134,79381
2,168068,180646
//Storyboard Layer 0 (Background)
//Storyboard Layer 1 (Fail)
//Storyboard Layer 2 (Pass)
//Storyboard Layer 3 (Foreground)
//Storyboard Layer 4 (Overlay)
//Storyboard Sound Samples

[TimingPoints]
21712.1983471074,247.933884297521,4,1,0,100,1,0

[HitObjects]
256,192,10012,12,0,17047,0:0:0:0:
171,112,17574,6,0,B|169:195|195:180|250:155,10,131.25
171,112,20844,2,0,B|213:116|318:131|295:144|474:128,6,297.5
128,96,24842,2,0,P|157:307|183:290,6,446.25
209,169,30095,1,0,0:0:0:0:
262,206,30265,1,0,0:0:0:0:
310,163,30436,1,0,0:0:0:0:
251,103,30637,1,0,0:0:0:0:
166,157,30963,5,0,0:0:0:0:
246,200,31226,1,0,0:0:0:0:
412,179,31861,1,0,0:0:0:0:
332,234,32590,1,0,0:0:0:0:
168,249,32915,1,0,0:0:0:0:
183,159,33396,1,0,0:0:0:0:
221,242,34263,1,0,0:0:0:0:
186,116,34682,1,0,0:0:0:0:
327,232,35100,1,0,0:0:0:0:
306,154,35519,1,0,0:0:0:0:
237,266,35968,1,0,0:0:0:0:
208,56,36882,1,0,0:0:0:0:
129,149,37053,1,0,0:0:0:0:
229,216,37301,1,0,0:0:0:0:
303,167,37517,1,0,0:0:0:0:
214,104,37703,1,0,0:0:0:0:
318,152,38602,1,0,0:0:0:0:
229,175,38897,1,0,0:0:0:0:
137,164,39052,1,0,0:0:0:0:
232,241,39284,1,0,0:0:0:0:
384,218,40989,1,0,0:0:0:0:
311,229,41190,1,0,0:0:0:0:
240,181,41407,1,0,0:0:0:0:
250,278,41639,1,0,0:0:0:0:
137,261,41887,1,0,0:0:0:0:
237,100,42120,1,0,0:0:0:0:
169,151,42337,1,0,0:0:0:0:
279,247,42771,1,0,0:0:0:0:
305,137,43204,1,0,0:0:0:0:
195,188,43514,1,0,0:0:0:0:
270,233,43871,1,0,0:0:0:0:
307,113,44134,1,0,0:0:0:0:
190,74,44584,1,0,0:0:0:0:
110,128,45513,1,0,0:0:0:0:
169,187,45715,1,0,0:0:0:0:
203,220,45932,1,0,0:0:0:0:
259,263,46195,1,0,0:0:0:0:
175,133,47202,1,0,0:0:0:0:
201,170,47373,1,0,0:0:0:0:
232,203,47590,1,0,0:0:0:0:
270,234,47838,1,0,0:0:0:0:
261,208,48984,1,0,0:0:0:0:
304,154,49155,1,0,0:0:0:0:
61,158,49403,1,0,0:0:0:0:
134,209,49635,1,0,0:0:0:0:
200,117,50333,2,0,B|417:297|401:291,8,262.5
202,175,54888,1,0,0:0:0:0:
347,209,55105,1,0,0:0:0:0:
176,269,55307,1,0,0:0:0:0:
266,267,55679,1,0,0:0:0:0:
356,70,55911,1,0,0:0:0:0:
372,173,56407,1,0,0:0:0:0:
107,168,56996,1,0,0:0:0:0:
213,239,57383,1,0,0:0:0:0:
256,134,57616,1,0,0:0:0:0:
262,89,58328,1,0,0:0:0:0:
274,217,59243,1,0,0:0:0:0:
199,258,59537,1,0,0:0:0:0:
172,264,59754,1,0,0:0:0:0:
88,253,59986,1,0,0:0:0:0:
208,141,60901,1,0,0:0:0:0:
267,215,61211,1,0,0:0:0:0:
310,244,61412,1,0,0:0:0:0:
378,296,61598,1,0,0:0:0:0:
176,153,62605,1,0,0:0:0:0:
243,217,62884,1,0,0:0:0:0:
297,147,63163,1,0,0:0:0:0:
234,88,63411,1,0,0:0:0:0:
161,107,63891,2,0,P|462:175|458:116,3,577.5
146,148,68525,1,0,0:0:0:0:
274,204,68788,1,0,0:0:0:0:
336,204,69067,1,0,0:0:0:0:
309,141,69331,1,0,0:0:0:0:
192,119,69656,1,0,0:0:0:0:
248,251,70152,1,0,0:0:0:0:
287,133,70725,1,0,0:0:0:0:
168,161,71144,1,0,0:0:0:0:
257,211,71376,1,0,0:0:0:0:
284,104,71934,1,0,0:0:0:0:
154,145,80131,6,0,P|389:148|387:131,2,393.75
207,144,82161,1,0,0:0:0:0:
294,296,82409,1,0,0:0:0:0:
320,139,82626,1,0,0:0:0:0:
261,88,82874,1,0,0:0:0:0:
99,201,83168,1,0,0:0:0:0:
215,204,83897,2,0,L|447:191,4,227.5
183,176,85818,1,0,0:0:0:0:
246,208,86051,1,0,0:0:0:0:
277,104,86376,1,0,0:0:0:0:
195,99,86732,1,0,0:0:0:0:
165,173,87089,1,0,0:0:0:0:
260,212,87461,1,0,0:0:0:0:
298,91,87802,1,0,0:0:0:0:
186,87,88266,1,0,0:0:0:0:
157,199,88514,1,0,0:0:0:0:
273,206,89289,1,0,0:0:0:0:
330,101,89506,1,0,0:0:0:0:
174,105,89925,1,0,0:0:0:0:
131,210,90281,1,0,0:0:0:0:
262,219,90823,1,0,0:0:0:0:
270,134,91056,1,0,0:0:0:0:
88,146,91288,1,0,0:0:0:0:
115,253,91753,1,0,0:0:0:0:
278,196,91939,1,0,0:0:0:0:
256,192,92481,12,0,97657,0:0:0:0:
191,176,98199,5,0,0:0:0:0:
263,211,98633,1,0,0:0:0:0:
300,169,98850,1,0,0:0:0:0:
154,198,99501,6,0,L|232:44,1,166.25
163,235,100245,1,0,0:0:0:0:
244,233,100570,1,0,0:0:0:0:
250,146,100818,1,0,0:0:0:0:
149,111,101020,1,0,0:0:0:0:
32,224,102042,1,0,0:0:0:0:
316,263,102352,1,0,0:0:0:0:
344,151,102569,1,0,0:0:0:0:
138,110,102755,1,0,0:0:0:0:
209,122,103793,1,0,0:0:0:0:
261,207,104010,1,0,0:0:0:0:
361,178,104212,1,0,0:0:0:0:
155,218,104460,1,0,0:0:0:0:
133,152,105436,2,0,P|490:148|481:318,7,630
120,153,113959,1,0,0:0:0:0:
176,181,114238,1,0,0:0:0:0:
222,154,114470,1,0,0:0:0:0:
208,71,114687,1,0,0:0:0:0:
129,200,115772,1,0,0:0:0:0:
203,226,116051,1,0,0:0:0:0:
193,152,116252,1,0,0:0:0:0:
122,114,116438,1,0,0:0:0:0:
181,179,117538,1,0,0:0:0:0:
253,228,117802,1,0,0:0:0:0:
263,134,118034,1,0,0:0:0:0:
216,109,118220,1,0,0:0:0:0:
153,200,119072,1,0,0:0:0:0:
241,224,119320,1,0,0:0:0:0:
258,165,119537,1,0,0:0:0:0:
185,128,119754,1,0,0:0:0:0:
78,154,120017,1,0,0:0:0:0:
372,190,120234,1,0,0:0:0:0:
284,168,120653,1,0,0:0:0:0:
228,210,120885,1,0,0:0:0:0:
170,239,121071,1,0,0:0:0:0:
102,169,121288,1,0,0:0:0:0:
95,96,121505,1,0,0:0:0:0:
197,183,123396,1,0,0:0:0:0:
269,240,123675,1,0,0:0:0:0:
326,186,123860,1,0,0:0:0:0:
267,137,124062,1,0,0:0:0:0:
177,87,124263,1,0,0:0:0:0:
113,159,124496,1,0,0:0:0:0:
166,265,124713,1,0,0:0:0:0:
271,281,124961,1,0,0:0:0:0:
128,189,125627,1,0,0:0:0:0:
226,223,125999,1,0,0:0:0:0:
280,154,126278,1,0,0:0:0:0:
118,82,126882,1,0,0:0:0:0:
289,210,127796,1,0,0:0:0:0:
122,170,128044,1,0,0:0:0:0:
23,143,128308,1,0,0:0:0:0:
232,237,129408,1,0,0:0:0:0:
276,144,129687,1,0,0:0:0:0:
231,138,129873,1,0,0:0:0:0:
170,152,130059,1,0,0:0:0:0:
303,184,131051,1,0,0:0:0:0:
195,168,131314,1,0,0:0:0:0:
192,210,131531,1,0,0:0:0:0:
265,236,131779,1,0,0:0:0:0:
178,172,133127,1,0,0:0:0:0:
266,246,133328,1,0,0:0:0:0:
318,129,133592,1,0,0:0:0:0:
153,179,134785,1,0,0:0:0:0:
199,129,135033,1,0,0:0:0:0:
269,198,135234,1,0,0:0:0:0:
135,225,135808,1,0,0:0:0:0:
247,248,136009,1,0,0:0:0:0:
281,134,136211,1,0,0:0:0:0:
180,155,137125,1,0,0:0:0:0:
250,208,137373,1,0,0:0:0:0:
288,103,137621,1,0,0:0:0:0:
186,60,137946,1,0,0:0:0:0:
0,164,138272,1,0,0:0:0:0:
249,252,138798,1,0,0:0:0:0:
272,155,139356,1,0,0:0:0:0:
153,153,139775,1,0,0:0:0:0:
248,294,140038,1,0,0:0:0:0:
352,165,140611,1,0,0:0:0:0:
215,149,141433,2,0,P|292:309|297:305,2,323.75
154,149,143168,1,0,0:0:0:0:
270,180,143463,1,0,0:0:0:0:
302,124,143664,1,0,0:0:0:0:
215,55,143850,1,0,0:0:0:0:
171,200,144981,1,0,0:0:0:0:
312,239,145260,1,0,0:0:0:0:
298,104,145462,1,0,0:0:0:0:
195,66,145617,1,0,0:0:0:0:
153,160,146887,1,0,0:0:0:0:
219,234,147120,1,0,0:0:0:0:
321,116,147321,1,0,0:0:0:0:
32,178,148545,2,0,L|542:164,2,507.5
201,166,150746,2,0,B|229:193|234:180|231:175,28,35
181,119,153055,1,0,0:0:0:0:
218,188,153427,1,0,0:0:0:0:
305,166,153659,1,0,0:0:0:0:
186,75,154263,1,0,0:0:0:0:
202,146,157858,1,0,0:0:0:0:
280,194,158075,1,0,0:0:0:0:
349,113,158277,1,0,0:0:0:0:
298,82,158509,1,0,0:0:0:0:
197,121,158742,1,0,0:0:0:0:
201,216,158974,1,0,0:0:0:0:
320,250,159191,1,0,0:0:0:0:
374,137,159377,1,0,0:0:0:0:
305,102,159609,1,0,0:0:0:0:
176,110,159811,1,0,0:0:0:0:
112,200,159997,1,0,0:0:0:0:
294,191,161190,1,0,0:0:0:0:
313,104,161422,1,0,0:0:0:0:
238,89,161624,1,0,0:0:0:0:
156,171,161825,1,0,0:0:0:0:
216,244,162042,1,0,0:0:0:0:
335,249,162244,1,0,0:0:0:0:
338,124,162492,1,0,0:0:0:0:
265,89,162709,1,0,0:0:0:0:
137,133,162910,1,0,0:0:0:0:
178,259,163158,1,0,0:0:0:0:
292,258,163344,1,0,0:0:0:0:
314,150,163530,1,0,0:0:0:0:
203,174,164537,1,0,0:0:0:0:
306,221,164754,1,0,0:0:0:0:
323,135,164940,1,0,0:0:0:0:
263,93,165172,1,0,0:0:0:0:
143,148,165389,1,0,0:0:0:0:
194,243,165591,1,0,0:0:0:0:
273,245,165792,1,0,0:0:0:0:
322,140,166195,1,0,0:0:0:0:
201,136,166629,2,0,B|232:184|252:142|235:132,10,70
220,170,181846,5,0,0:0:0:0:
176,121,182590,1,0,0:0:0:0:
198,150,182931,1,0,0:0:0:0:
244,167,183132,1,0,0:0:0:0:
274,85,183349,1,0,0:0:0:0:
134,115,184387,1,0,0:0:0:0:
201,204,184697,1,0,0:0:0:0:
239,206,184868,1,0,0:0:0:0:
241,117,185085,1,0,0:0:0:0:
181,133,186045,1,0,0:0:0:0:
233,203,186293,1,0,0:0:0:0:
289,151,186541,1,0,0:0:0:0:
239,88,186774,1,0,0:0:0:0:
256,192,187858,12,0,193886,0:0:0:0:
177,189,194336,5,0,0:0:0:0:
221,218,194739,1,0,0:0:0:0:
300,145,194956,1,0,0:0:0:0:
215,111,195405,1,0,0:0:0:0:
246,185,196350,1,0,0:0:0:0:
280,234,196629,1,0,0:0:0:0:
307,196,196815,1,0,0:0:0:0:
287,117,197016,1,0,0:0:0:0:
188,196,197977,1,0,0:0:0:0:
266,230,198334,1,0,0:0:0:0:
276,153,198535,1,0,0:0:0:0:
219,96,198783,1,0,0:0:0:0:
190,169,199682,1,0,0:0:0:0:
237,223,199992,1,0,0:0:0:0:
277,146,200224,1,0,0:0:0:0:
210,106,200472,1,0,0:0:0:0:
187,172,201340,1,0,0:0:0:0:
264,230,201557,1,0,0:0:0:0:
290,158,201743,1,0,0:0:0:0:
222,134,202022,1,0,0:0:0:0:
129,198,202486,1,0,0:0:0:0:
228,246,202936,1,0,0:0:0:0:
277,161,203199,1,0,0:0:0:0:
108,152,203571,1,0,0:0:0:0:
186,136,203773,2,0,B|610:131|244:266,2,437.5
137,133,205772,1,0,0:0:0:0:
232,180,206035,1,0,0:0:0:0:
273,135,206236,1,0,0:0:0:0:
210,64,206438,1,0,0:0:0:0:
151,53,206639,1,0,0:0:0:0:
136,182,206887,1,0,0:0:0:0:
319,209,207306,1,0,0:0:0:0:
210,137,207879,1,0,0:0:0:0:
272,237,208297,1,0,0:0:0:0:
442,136,208561,1,0,0:0:0:0:
212,141,209181,1,0,0:0:0:0:
256,192,209336,12,0,212295,0:0:0:0:
