osu file format v14

[General]
AudioFilename: audio.mp3
AudioLeadIn: 0
PreviewTime: 8937
Countdown: 0
SampleSet: Soft
StackLeniency: 0.4
Mode: 0
LetterboxInBreaks: 0
WidescreenStoryboard: 1

[Editor]
DistanceSpacing: 0.8
BeatDivisor: 4
GridSize: 4
TimelineZoom: 1

[Metadata]
Title:Ai Tsing E Phian Tsu Gua Mng Li
TitleUnicode:愛情的騙子我問你
Artist:Chen Xiao Yun
ArtistUnicode:陳小雲
Creator:Regraz
Version:Normal
Source:
Tags:闽南语 Hokkien Taiwanese Aiqing Pianzi Wowenni 蒋锦鸿 俞隆华 福建烧酒金曲 陈小云 爱情的骗子我问你 Ai Qing De Pian Zi Wo Wen Ni Siao Yun Siao-yun Xiaoyun Lau A
BeatmapID:1702220
BeatmapSetID:810391

[Difficulty]
HPDrainRate:3.6
CircleSize:3.5
OverallDifficulty:4
ApproachRate:5
SliderMultiplier:1.4
SliderTickRate:1

[Events]
//Background and Video events
0,0,"01.jpg",0,0
//Break Periods
//Storyboard Layer 0 (Background)
//Storyboard Layer 1 (Fail)
//Storyboard Layer 2 (Pass)
//Storyboard Layer 3 (Foreground)
//Storyboard Sound Samples

[TimingPoints]
1265.35487120538,494.947411837492,4,2,1,56,1,0
38881,504.201680672269,4,2,1,56,1,0
40393,500,4,2,1,56,1,0
40893,494.947411837492,4,2,1,56,1,0
68362,526.315789473684,4,2,1,56,1,0
68625,494.947411837492,4,2,1,56,1,0
74564,497.92531120332,4,2,1,56,1,0
77053,500.625782227785,4,2,1,56,1,0
78554,494.947411837492,4,2,1,56,1,0
81523,487.80487804878,4,2,1,56,1,0
82010,504.201680672269,4,2,1,56,1,0
82513,494.947411837492,4,2,1,56,1,0
84492,-100,4,2,1,37,0,0
86472,-100,4,2,1,30,0,0
88452,-100,4,2,1,22,0,0
89442,-100,4,2,1,18,0,0

[Colours]
Combo1 : 223,23,129
Combo2 : 207,116,33
Combo3 : 2,121,200

[HitObjects]
40,279,1265,6,0,P|120:302|183:268,1,140,4|0,0:3|1:0,0:0:0:0:
200,234,2007,1,0,0:0:0:0:
200,234,2255,2,0,L|354:248,1,140,4|0,0:3|1:0,0:0:0:0:
438,298,3245,2,0,P|488:262|484:177,1,140,4|0,0:3|1:0,0:0:0:0:
454,146,3987,1,0,0:0:0:0:
454,146,4235,2,0,L|368:151,2,70,4|0|0,0:3|0:0|1:0,0:0:0:0:
443,34,5224,6,0,L|287:39,1,140,4|0,0:3|1:0,0:0:0:0:
258,72,5967,1,0,0:0:0:0:
258,72,6214,2,0,L|102:77,1,140,4|0,0:3|1:0,0:0:0:0:
50,166,7204,2,0,P|37:258|63:299,1,140,4|0,0:3|1:0,0:0:0:0:
107,323,7947,1,0,0:0:0:0:
107,323,8194,2,0,L|189:306,1,70,8|8,0:3|0:3,0:0:0:0:
227,330,8689,1,8,0:3:0:0:
319,266,9184,6,0,P|384:251|441:317,2,140,4|0|4,0:3|1:0|0:3,0:0:0:0:
270,294,10421,1,0,0:0:0:0:
270,294,10669,2,0,L|274:206,1,70,0|0,1:0|0:0,0:0:0:0:
277,168,11164,2,0,P|231:185|149:146,1,140,4|0,0:3|1:0,0:0:0:0:
181,41,12154,1,4,0:3:0:0:
230,66,12401,2,0,L|313:55,1,70,0|0,0:0|1:0,0:0:0:0:
409,35,13144,6,0,P|462:123|436:168,1,140,4|0,0:3|1:0,0:0:0:0:
400,170,13886,1,0,0:0:0:0:
400,170,14133,2,0,L|418:327,1,140,4|0,0:3|1:0,0:0:0:0:
304,321,15123,2,0,L|288:181,1,140,4|0,0:3|1:0,0:0:0:0:
278,126,15866,1,0,0:0:0:0:
278,126,16113,2,0,P|336:147|374:138,1,70,4|0,0:3|0:0,0:0:0:0:
400,122,16608,1,0,1:0:0:0:
314,49,17103,6,0,P|222:60|192:122,1,140,4|0,0:3|1:0,0:0:0:0:
147,118,17846,1,0,0:0:0:0:
147,118,18093,2,0,L|147:202,1,70,4|0,0:3|0:0,0:0:0:0:
124,239,18588,1,0,1:0:0:0:
177,338,19083,2,0,P|253:344|281:276,1,140,4|0,0:3|1:0,0:0:0:0:
280,239,19825,1,0,0:0:0:0:
280,239,20073,2,0,L|371:245,2,70,4|0|0,0:3|0:0|1:0,0:0:0:0:
190,170,21063,6,0,L|36:184,1,140,4|0,0:3|1:0,0:0:0:0:
32,235,21805,1,0,0:0:0:0:
32,235,22053,2,0,P|26:295|92:342,2,140,4|0|4,0:3|1:0|0:3,0:0:0:0:
140,264,23537,1,0,1:0:0:0:
195,253,23785,1,2,0:0:0:0:
248,237,24032,2,0,L|242:144,2,70,4|2|0,0:3|0:0|1:0,0:0:0:0:
355,267,25022,5,4,0:3:0:0:
427,182,25517,1,0,1:0:0:0:
427,182,25765,1,0,0:0:0:0:
427,182,26012,2,0,L|421:103,1,70,4|0,0:3|0:0,0:0:0:0:
416,56,26507,1,0,1:0:0:0:
321,116,27002,2,0,P|262:126|197:62,1,140,4|0,0:3|1:0,0:0:0:0:
207,22,27745,1,0,0:0:0:0:
207,22,27992,2,0,L|105:29,2,70,4|0|0,0:3|0:0|1:0,0:0:0:0:
318,25,28982,6,0,L|484:36,1,140,4|0,0:3|1:0,0:0:0:0:
482,84,29724,1,0,0:0:0:0:
482,84,29972,2,0,P|490:136|474:178,1,70,4|0,0:3|0:0,0:0:0:0:
459,201,30467,2,0,L|376:196,1,70,0|0,1:0|0:0,0:0:0:0:
336,177,30962,2,0,P|343:247|317:330,1,140,4|0,0:3|1:0,0:0:0:0:
216,287,31952,2,0,P|220:338|215:367,2,70,4|0|0,0:3|0:0|1:0,0:0:0:0:
169,256,32694,1,0,0:0:0:0:
169,256,32941,6,0,P|84:253|65:203,1,140,4|0,0:3|1:0,0:0:0:0:
58,155,33684,1,0,0:0:0:0:
58,155,33931,2,0,P|128:167|198:118,1,140,4|0,0:3|1:0,0:0:0:0:
245,38,34921,2,0,P|322:30|362:86,1,140,4|0,0:3|1:0,0:0:0:0:
327,119,35664,1,0,0:0:0:0:
327,119,35911,2,0,L|319:208,1,70,4|0,0:3|0:0,0:0:0:0:
355,232,36406,1,0,1:0:0:0:
256,285,36901,5,4,0:3:0:0:
200,285,37149,2,0,P|194:342|209:370,2,70,0|0|0,0:0|1:0|0:0,0:0:0:0:
143,280,37891,1,4,0:3:0:0:
26,144,38881,2,0,P|21:90|36:57,2,70,4|0|4,1:3|1:0|1:3,0:0:0:0:
138,146,39889,2,0,P|143:92|128:59,1,70,4|4,1:3|1:3,0:0:0:0:
121,21,40393,2,0,L|213:33,1,70,4|4,1:3|1:3,0:0:0:0:
239,43,40893,6,0,L|394:29,1,140,4|0,0:0|1:0,0:0:0:0:
430,10,41635,1,0,0:0:0:0:
430,10,41882,2,0,L|419:170,1,140,4|0,0:3|1:0,0:0:0:0:
443,259,42872,2,0,P|392:278|361:267,1,70,4|0,0:3|0:0,0:0:0:0:
334,241,43367,2,0,L|251:250,1,70,0|0,1:0|0:0,0:0:0:0:
221,212,43862,2,0,P|229:276|158:309,1,140,4|0,0:3|1:0,0:0:0:0:
71,259,44852,6,0,L|87:97,1,140,4|0,0:3|1:0,0:0:0:0:
50,74,45595,1,0,0:0:0:0:
50,74,45842,2,0,P|117:106|171:56,1,140,4|0,0:3|1:0,0:0:0:0:
267,116,46832,2,0,L|353:120,2,70,4|0|0,0:3|0:0|1:0,0:0:0:0:
222,149,47574,1,0,0:0:0:0:
222,149,47822,2,0,P|214:240|247:280,1,140,4|0,0:3|1:0,0:0:0:0:
352,266,48812,6,0,L|435:259,1,70,4|0,0:3|0:0,0:0:0:0:
475,275,49307,2,0,L|463:192,1,70,0|0,1:0|0:0,0:0:0:0:
482,153,49802,2,0,P|477:73|403:54,1,140,4|0,0:3|1:0,0:0:0:0:
325,90,50791,2,0,L|240:88,1,70,4|0,0:3|0:0,0:0:0:0:
200,73,51286,1,0,1:0:0:0:
228,182,51781,2,0,P|148:173|85:199,1,140,4|0,0:3|1:0,0:0:0:0:
100,305,52771,6,0,P|165:326|234:316,1,140,4|0,0:3|1:0,0:0:0:0:
277,280,53514,1,0,0:0:0:0:
277,280,53761,2,0,L|269:370,2,70,4|0|0,0:3|0:0|1:0,0:0:0:0:
363,208,54751,1,0,1:0:0:0:
289,123,55246,1,0,1:0:0:0:
163,297,56731,6,0,P|56:310|28:278,1,140,4|0,0:2|1:0,0:0:0:0:
55,241,57473,1,0,0:0:0:0:
55,241,57721,2,0,L|41:149,2,70,4|0|0,0:3|0:0|1:0,0:0:0:0:
166,230,58711,2,0,L|144:75,1,140,4|0,0:3|1:0,0:0:0:0:
238,24,59701,1,0,1:0:0:0:
288,120,60195,1,4,0:0:0:0:
393,77,60690,6,0,L|481:72,2,70,4|0|0,0:1|0:0|1:0,0:0:0:0:
298,136,61680,2,0,L|210:131,2,70,4|0|0,0:3|0:0|1:0,0:0:0:0:
372,219,62670,2,0,L|460:214,2,70,4|0|0,0:3|0:0|1:0,0:0:0:0:
354,273,63413,1,0,0:0:0:0:
354,273,63660,2,0,P|293:315|216:293,1,140,4|0,0:3|1:0,0:0:0:0:
148,229,64650,6,0,L|133:135,2,70,4|0|0,0:3|0:0|1:0,0:0:0:0:
255,196,65640,2,0,L|240:102,2,70,4|0|0,0:3|0:0|1:0,0:0:0:0:
362,164,66630,2,0,L|347:70,2,70,4|0|0,0:3|0:0|1:0,0:0:0:0:
376,218,67372,1,0,0:0:0:0:
376,218,67620,2,0,P|454:210|496:273,1,140,4|0,0:3|1:0,0:0:0:0:
439,350,68625,6,0,L|530:341,2,70,4|0|0,0:3|0:0|1:0,0:0:0:0:
332,314,69614,2,0,L|234:322,2,70,4|0|0,0:3|0:0|1:0,0:0:0:0:
414,238,70604,2,0,L|505:229,2,70,4|0|0,0:3|0:0|1:0,0:0:0:0:
366,207,71347,1,0,0:0:0:0:
366,207,71594,2,0,P|277:237|238:197,1,140,4|0,0:3|1:0,0:0:0:0:
176,127,72584,5,4,0:3:0:0:
120,132,72832,2,0,L|109:46,2,70,0|0|0,0:0|1:0|0:0,0:0:0:0:
94,182,73574,2,0,L|78:269,1,70,4|0,0:3|0:0,0:0:0:0:
117,294,74069,1,0,1:0:0:0:
218,247,74564,6,0,P|276:235|311:245,1,70,0|0,1:0|1:0,0:0:0:0:
330,271,75061,2,0,P|380:283|411:276,1,70,0|0,1:0|1:0,0:0:0:0:
442,245,75559,2,0,P|455:180|430:103,2,140,0|0|0,1:0|1:0|1:0,0:0:0:0:
470,352,77053,1,4,0:0:0:0:
203,340,78554,6,0,P|261:309|258:242,1,140,4|0,0:3|1:0,0:0:0:0:
153,189,79543,2,0,L|-5:206,1,140,4|0,0:3|1:0,0:0:0:0:
14,315,80533,2,0,L|153:300,1,140,4|0,0:3|1:0,0:0:0:0:
208,292,81276,1,2,0:0:0:0:
208,292,81523,2,0,L|212:206,1,70,4|2,0:3|0:0,0:0:0:0:
239,175,82010,2,0,L|235:89,1,70,0|2,1:0|1:2,0:0:0:0:
232,48,82513,5,4,0:1:0:0:
256,192,82636,12,0,89442,0:0:0:0:
