osu file format v14

[General]
AudioFilename: audio.mp3
AudioLeadIn: 0
PreviewTime: 19080
Countdown: 1
SampleSet: Soft
StackLeniency: 0.5
Mode: 0
LetterboxInBreaks: 0
WidescreenStoryboard: 0

[Editor]
Bookmarks: 1808,9488,19088,36368,53648,63248,65168,70928,88208,105488,115088,117008,122768,124688,130448
DistanceSpacing: 1
BeatDivisor: 4
GridSize: 16
TimelineZoom: 1

[Metadata]
Title:Unbelievable
TitleUnicode:Unbelievable
Artist:Chen Tian Wen
ArtistUnicode:陈天文
Creator:mindmaster107
Version:Stunned
Source:Spouse for House
Tags:I so stunned like vegetable 陳天文 Chai Tian Bian Tianwen Mr. Unbelievable
BeatmapID:1857124
BeatmapSetID:888498

[Difficulty]
HPDrainRate:6
CircleSize:4
OverallDifficulty:8
ApproachRate:8.1
SliderMultiplier:1.7
SliderTickRate:1

[Events]
//Background and Video events
Video,170,"MV.mp4"
0,0,"whyamidoingthis.jpg",0,0
//Break Periods
//Storyboard Layer 0 (Background)
//Storyboard Layer 1 (Fail)
//Storyboard Layer 2 (Pass)
//Storyboard Layer 3 (Foreground)
//Storyboard Sound Samples

[TimingPoints]
1850,480,4,2,2,60,1,0
1850,-142.857142857143,4,2,2,60,0,0
9530,-111.111111111111,4,2,2,60,0,0
19130,-100,4,2,2,60,0,0
30650,-100,4,2,0,60,0,0
32090,-100,4,2,2,60,0,0
47930,-100,4,2,0,60,0,0
48410,-100,4,2,2,60,0,0
53690,-83.3333333333333,4,2,0,80,0,1
65210,-83.3333333333333,4,2,0,80,0,0
66650,-125,4,2,2,60,0,0
67130,-111.111111111111,4,2,2,60,0,0
70970,-100,4,2,2,60,0,0
82490,-100,4,2,0,60,0,0
83930,-100,4,2,2,60,0,0
99770,-100,4,2,0,60,0,0
100250,-100,4,2,2,60,0,0
105530,-83.3333333333333,4,2,0,80,0,1
117050,-83.3333333333333,4,2,0,80,0,0
118490,-125,4,2,2,60,0,0
118970,-111.111111111111,4,2,2,60,0,0
122810,-100,4,2,0,80,0,1
124730,-100,4,2,0,60,0,0
130490,-100,4,2,2,5,0,0

[Colours]
Combo1 : 64,98,255
Combo2 : 0,236,106
Combo3 : 102,240,255
Combo4 : 208,100,255

[HitObjects]
284,109,1850,6,0,B|213:20|213:20|496:44,1,356.999989105225,4|0,0:0|0:0,0:0:0:0:
93,172,3770,6,0,P|62:63|138:96,1,237.999992736817,4|0,0:0|0:0,0:0:0:0:
128,79,5210,1,0,0:0:0:0:
6,296,5690,6,0,B|95:260|176:310|176:310|258:361|347:325,1,356.999989105225,4|0,0:0|0:0,0:0:0:0:
512,134,7610,6,0,L|494:404,1,237.999992736817,4|0,0:0|0:0,0:0:0:0:
326,247,8930,1,0,3:0:0:0:
326,247,9050,2,0,P|365:243|405:255,1,59.4999981842042,0|0,3:0|0:0,0:0:0:0:
283,126,9530,6,0,P|208:194|195:287,1,152.999995330811,4|0,1:2|3:0,0:0:0:0:
381,179,10250,1,0,0:0:0:0:
269,20,10490,2,0,L|280:137,1,76.4999976654053,0|0,1:0|0:0,0:0:0:0:
382,160,10970,2,0,L|393:43,1,76.4999976654053,0|0,3:0|0:0,0:0:0:0:
512,186,11450,6,0,P|483:255|419:295,1,152.999995330811,4|0,1:2|3:0,0:0:0:0:
320,244,12170,1,0,0:0:0:0:
330,349,12410,2,0,L|245:339,1,76.4999976654053,0|0,1:0|0:0,0:0:0:0:
144,269,12890,2,0,L|219:260,1,76.4999976654053,0|0,3:0|0:0,0:0:0:0:
71,174,13370,5,8,0:0:0:0:
31,358,13610,1,8,0:0:0:0:
31,358,14090,5,8,0:0:0:0:
71,174,14330,1,8,0:0:0:0:
31,358,14810,6,0,L|18:272,1,76.4999976654053,8|0,0:0|0:0,0:0:0:0:
116,42,15290,5,0,1:0:0:0:
27,120,15530,1,0,0:0:0:0:
215,104,15770,2,0,L|210:147,1,38.2499988327027,0|0,3:0|0:0,0:0:0:0:
290,53,16010,2,0,L|285:10,1,38.2499988327027
355,117,16250,2,0,L|350:160,3,38.2499988327027,0|0|0|0,1:0|0:0|0:0|0:0,0:0:0:0:
393,31,16730,2,0,P|431:63|453:110,1,76.4999976654053,0|0,3:0|0:0,0:0:0:0:
426,235,17210,6,0,L|421:192,18,25.4999992218018,4|0|0|0|0|0|0|0|0|0|0|0|0|0|0|0|0|0|0,1:2|0:0|0:0|0:0|0:0|0:0|0:0|0:0|0:0|0:0|0:0|0:0|3:0|0:0|0:0|0:0|0:0|0:0|0:0,0:0:0:0:
30,348,19130,6,0,L|193:332,1,127.5,2|0,1:2|0:0,0:0:0:0:
288,292,19610,2,0,L|161:304,1,127.5,2|0,1:2|0:0,0:0:0:0:
30,348,20090,2,0,L|193:332,1,127.5,2|0,1:2|0:0,0:0:0:0:
288,292,20570,2,0,L|161:304,1,127.5,2|0,1:2|0:0,0:0:0:0:
30,348,21050,5,6,1:2:0:0:
30,348,21530,2,0,P|19:307|25:264,1,85,0|0,3:0|0:0,0:0:0:0:
174,160,22010,2,0,P|143:189|103:206,1,85,0|0,1:0|0:0,0:0:0:0:
1,94,22490,2,0,L|116:101,1,85,0|0,3:0|0:0,0:0:0:0:
269,109,22970,1,4,1:2:0:0:
269,109,23450,5,0,3:0:0:0:
181,38,23690,1,0,0:0:0:0:
375,63,23930,2,0,L|382:155,1,85,0|0,1:0|0:0,0:0:0:0:
260,219,24410,2,0,L|267:127,1,85,0|0,3:0|0:0,0:0:0:0:
479,133,24890,6,0,P|467:206|363:250,1,170,4|0,1:2|3:0,0:0:0:0:
260,219,25610,1,0,0:0:0:0:
398,384,25850,1,0,1:0:0:0:
389,252,26090,1,0,0:0:0:0:
260,219,26330,1,0,3:0:0:0:
189,331,26570,1,0,0:0:0:0:
389,252,26810,1,4,1:2:0:0:
116,265,27290,6,0,P|84:319|82:362,1,85,0|0,3:0|0:0,0:0:0:0:
214,245,27770,2,0,P|182:190|146:167,1,85,0|0,1:0|0:0,0:0:0:0:
18,216,28250,1,0,3:0:0:0:
18,216,28490,1,0,0:0:0:0:
157,90,28730,6,0,L|333:104,1,170,4|0,1:2|3:0,0:0:0:0:
326,103,29450,1,0,0:0:0:0:
63,55,29690,2,0,P|67:123|89:164,1,85,0|0,1:0|0:0,0:0:0:0:
255,0,30170,1,0,3:0:0:0:
255,0,30650,5,4,1:2:0:0:
476,349,31970,5,0,3:0:0:0:
476,349,32090,1,0,3:0:0:0:
341,238,32330,1,0,3:0:0:0:
483,264,32570,2,0,B|437:258|406:291|406:291|375:324|330:319,1,170,4|0,1:2|3:0,0:0:0:0:
204,264,33290,1,0,0:0:0:0:
349,153,33530,2,0,L|337:267,1,85,0|0,1:0|0:0,0:0:0:0:
215,367,34010,2,0,L|203:253,1,85,0|0,3:0|0:0,0:0:0:0:
0,127,34490,5,8,0:0:0:0:
234,169,34730,1,8,0:0:0:0:
234,169,35210,5,8,0:0:0:0:
0,127,35450,1,8,0:0:0:0:
0,127,35930,6,0,L|9:219,1,85,8|0,0:0|0:0,0:0:0:0:
123,118,36410,6,0,P|166:72|226:51,1,127.5,6|0,1:2|0:0,0:0:0:0:
331,46,36890,2,0,P|273:19|210:20,1,127.5,2|0,1:2|0:0,0:0:0:0:
123,118,37370,2,0,P|166:72|226:51,1,127.5,2|0,1:2|0:0,0:0:0:0:
331,47,37850,2,0,P|273:20|227:19,2,85,2|0|4,1:2|0:0|1:2,0:0:0:0:
331,47,38810,6,0,L|442:39,1,85,0|0,3:0|0:0,0:0:0:0:
427,128,39290,2,0,L|538:120,1,85,0|0,1:0|0:0,0:0:0:0:
274,143,39770,2,0,P|338:175|388:264,1,170,0|4,3:0|1:2,0:0:0:0:
386,257,40730,5,0,3:0:0:0:
487,227,40970,1,0,0:0:0:0:
392,353,41210,2,0,P|350:346|312:326,1,85,0|0,1:0|0:0,0:0:0:0:
293,218,41690,1,0,3:0:0:0:
212,342,41930,1,0,0:0:0:0:
89,198,42170,6,0,L|101:377,1,170,4|0,1:2|3:0,0:0:0:0:
100,367,42890,1,0,0:0:0:0:
178,243,43130,2,0,P|187:187|163:123,1,85,0|0,1:0|0:0,0:0:0:0:
11,150,43610,1,0,3:0:0:0:
11,150,43850,1,0,0:0:0:0:
175,51,44090,2,0,P|134:63|101:89,1,85,4|0,1:2|0:0,0:0:0:0:
285,112,44570,5,0,3:0:0:0:
285,112,45050,2,0,L|464:101,1,170,0|0,1:0|3:0,0:0:0:0:
454,101,45770,1,0,0:0:0:0:
181,159,46010,2,0,P|220:206|348:203,1,170,4|0,1:2|3:0,0:0:0:0:
323,217,46730,1,0,0:0:0:0:
117,277,46970,2,0,L|131:398,1,85,0|0,1:0|0:0,0:0:0:0:
256,86,47450,6,0,L|256:-10,2,85,0|0|4,3:0|0:0|1:2,0:0:0:0:
249,373,49370,5,8,3:2:0:0:
249,373,49610,1,8,0:2:0:0:
201,212,49850,2,0,P|181:249|173:291,1,85,4|0,1:2|0:0,0:0:0:0:
459,197,50330,5,0,3:0:0:0:
481,311,50570,1,0,0:0:0:0:
291,290,50810,1,0,1:0:0:0:
340,183,51050,1,0,0:0:0:0:
459,197,51290,1,0,3:0:0:0:
378,369,51530,1,0,0:0:0:0:
340,183,51770,6,0,B|303:155|259:168|259:168|216:181|179:154,1,170,4|0,1:2|3:0,0:0:0:0:
272,40,52490,1,0,0:0:0:0:
67,155,52730,2,0,L|50:30,1,85,0|0,1:0|0:0,0:0:0:0:
288,255,53210,2,0,L|271:380,1,85,0|0,3:0|0:0,0:0:0:0:
457,2,53690,6,0,P|482:117|407:207,1,203.999993774414,4|0,1:2|3:0,0:0:0:0:
345,79,54410,1,0,0:0:0:0:
509,265,54650,2,0,L|495:366,1,101.999996887207,0|0,1:0|0:0,0:0:0:0:
236,134,55130,2,0,L|222:32,1,101.999996887207,0|0,3:0|0:0,0:0:0:0:
4,354,55610,6,0,B|56:310|56:310|199:322,1,203.999993774414,4|0,1:2|3:0,0:0:0:0:
360,338,56330,1,0,0:0:0:0:
91,127,56570,2,0,P|83:178|89:230,1,101.999996887207,0|0,1:0|0:0,0:0:0:0:
401,76,57050,2,0,P|361:44|312:23,1,101.999996887207,0|0,3:0|0:0,0:0:0:0:
360,338,57530,1,4,1:2:0:0:
427,102,58970,5,8,3:2:0:0:
427,102,59210,1,8,3:2:0:0:
201,175,59450,2,0,B|253:159|297:192|297:192|341:224|394:209,1,203.999993774414,4|0,1:2|3:0,0:0:0:0:
512,179,60170,1,0,0:0:0:0:
235,283,60410,2,0,L|250:410,1,101.999996887207,0|0,1:0|0:0,0:0:0:0:
210,50,60890,1,0,3:0:0:0:
210,50,61370,6,0,P|155:131|50:128,1,203.999993774414,4|0,1:2|3:0,0:0:0:0:
92,0,62090,1,0,0:0:0:0:
34,229,62330,1,0,1:0:0:0:
34,229,62570,1,0,0:0:0:0:
324,161,62810,2,0,L|425:154,1,101.999996887207,0|0,3:0|0:0,0:0:0:0:
189,271,63290,5,0,3:0:0:0:
149,98,63530,1,0,3:0:0:0:
291,306,63770,1,0,3:0:0:0:
345,60,64010,1,0,3:0:0:0:
132,331,64250,5,8,3:2:0:0:
426,155,64490,1,8,3:2:0:0:
61,212,64730,1,8,3:2:0:0:
361,377,64970,1,8,3:2:0:0:
256,0,65210,5,12,3:2:0:0:
36,312,66650,5,8,0:0:0:0:
36,312,66890,1,8,0:0:0:0:
36,312,67130,2,0,P|113:267|176:278,1,152.999995330811,4|0,1:2|3:0,0:0:0:0:
238,355,67850,1,0,0:0:0:0:
284,191,68090,2,0,L|275:267,1,76.4999976654053,0|0,1:0|0:0,0:0:0:0:
462,378,68570,2,0,P|404:329|326:347,1,152.999995330811,0|4,3:0|1:2,0:0:0:0:
327,92,69530,5,0,3:0:0:0:
327,92,69770,1,0,0:0:0:0:
472,153,70010,2,0,P|435:164|397:164,1,76.4999976654053,0|0,1:0|0:0,0:0:0:0:
374,8,70490,2,0,P|402:33|421:66,1,76.4999976654053,0|0,3:0|0:0,0:0:0:0:
217,73,70970,6,0,L|201:236,1,127.5,6|0,1:2|0:2,0:2:0:0:
270,308,71450,2,0,L|258:181,1,127.5,2|0,1:2|0:2,0:2:0:0:
217,73,71930,2,0,L|201:236,1,127.5,2|0,1:2|0:2,0:2:0:0:
270,308,72410,2,0,L|258:181,1,127.5,2|0,1:2|0:2,0:2:0:0:
217,73,72890,5,6,1:2:0:0:
217,73,73370,2,0,P|176:62|133:68,1,85,0|0,3:0|0:0,0:0:0:0:
119,230,73850,2,0,P|148:199|165:159,1,85,0|0,1:0|0:0,0:0:0:0:
20,300,74330,2,0,L|27:415,1,85,0|0,3:0|0:0,0:0:0:0:
14,180,74810,1,4,1:2:0:0:
14,180,75290,5,0,3:0:0:0:
119,230,75530,1,0,0:0:0:0:
215,165,75770,2,0,P|260:184|291:207,1,85,0|0,1:0|0:0,0:0:0:0:
218,356,76250,2,0,P|212:314|216:272,1,85,0|0,3:0|0:0,0:0:0:0:
483,295,76730,6,0,L|295:312,1,170,4|0,1:2|3:0,0:0:0:0:
476,169,77450,1,0,0:0:0:0:
313,310,77690,1,0,1:0:0:0:
262,188,77930,1,0,0:0:0:0:
363,101,78170,1,0,3:0:0:0:
476,169,78410,1,0,0:0:0:0:
262,188,78650,1,4,1:2:0:0:
50,15,79130,6,0,L|38:120,1,85,0|0,3:0|0:0,0:0:0:0:
186,160,79610,2,0,P|154:105|118:82,1,85,0|0,1:0|0:0,0:0:0:0:
0,191,80090,2,0,P|63:190|101:171,1,85,0|0,3:0|0:0,0:0:0:0:
215,357,80570,6,0,P|146:320|57:332,1,170,4|0,1:2|3:0,0:0:0:0:
57,331,81290,1,0,0:0:0:0:
233,244,81530,2,0,L|242:149,1,85,0|0,1:0|0:0,0:0:0:0:
255,0,82010,1,0,3:0:0:0:
255,0,82490,5,4,1:2:0:0:
313,310,83810,5,0,3:0:0:0:
313,310,83930,1,0,3:0:0:0:
504,339,84170,1,0,0:0:0:0:
377,220,84410,2,0,B|421:263|421:263|409:374,1,170,4|0,1:2|3:0,0:0:0:0:
512,233,85130,1,0,0:0:0:0:
359,127,85370,2,0,P|304:159|281:195,1,85,0|0,1:0|0:0,0:0:0:0:
457,163,85850,2,0,P|456:99|437:61,1,85,0|0,3:0|0:0,0:0:0:0:
266,0,86330,5,8,0:0:0:0:
224,234,86570,1,8,0:0:0:0:
224,234,87050,5,8,0:0:0:0:
266,0,87290,1,8,0:0:0:0:
266,0,87770,6,0,L|275:90,1,85,8|0,0:0|0:0,0:0:0:0:
0,160,88250,6,0,P|63:171|123:153,1,127.5,6|0,1:2|0:2,0:2:0:0:
182,36,88730,2,0,P|152:91|99:127,1,127.5,2|0,1:2|0:2,0:2:0:0:
0,160,89210,2,0,P|63:171|123:153,1,127.5,2|0,1:2|0:2,0:2:0:0:
181,36,89690,2,0,P|152:91|115:120,2,85,2|0|4,1:2|0:2|1:2,0:2:0:0:
181,36,90650,6,0,L|276:47,1,85,0|0,3:0|0:0,0:0:0:0:
339,136,91130,2,0,L|244:147,1,85,0|0,1:0|0:0,0:0:0:0:
364,31,91610,2,0,P|428:63|448:173,1,170,0|4,3:0|1:2,0:0:0:0:
260,292,92570,5,0,3:0:0:0:
260,292,92810,1,0,0:0:0:0:
440,272,93050,2,0,L|351:261,1,85,0|0,1:0|0:0,0:0:0:0:
335,367,93530,1,0,3:0:0:0:
282,196,93770,1,0,0:0:0:0:
179,354,94010,6,0,P|99:354|15:295,1,170,4|0,1:2|3:0,0:0:0:0:
24,307,94730,1,0,0:0:0:0:
126,157,94970,2,0,L|132:244,1,85,0|0,1:0|0:0,0:0:0:0:
36,110,95450,1,0,3:0:0:0:
212,203,95690,1,0,0:0:0:0:
199,18,95930,2,0,P|158:30|125:56,1,85,4|0,1:2|0:0,0:0:0:0:
297,162,96410,5,0,3:0:0:0:
297,162,96890,2,0,P|306:238|237:298,1,170,0|0,1:0|3:0,0:0:0:0:
241,296,97610,1,0,0:0:0:0:
411,260,97850,2,0,L|427:91,1,170,4|0,1:2|3:0,0:0:0:0:
427,91,98570,1,0,0:0:0:0:
221,220,98810,2,0,P|178:226|136:220,1,85,0|0,1:0|0:0,0:0:0:0:
256,1,99290,6,0,L|256:86,2,85,0|0|4,3:0|0:0|1:2,0:0:0:0:
476,266,101210,5,8,3:2:0:0:
476,266,101450,1,8,0:2:0:0:
367,154,101690,2,0,L|282:160,1,85,4|0,1:2|0:0,0:0:0:0:
25,177,102170,5,0,3:0:0:0:
106,5,102410,1,0,0:0:0:0:
144,191,102650,1,0,1:0:0:0:
3,63,102890,1,0,0:0:0:0:
193,84,103130,1,0,3:0:0:0:
3,63,103370,1,0,0:0:0:0:
144,191,103610,6,0,B|160:302|160:302|132:354,1,170,4|0,1:2|3:0,0:0:0:0:
60,275,104330,1,0,0:0:0:0:
238,377,104570,2,0,L|334:369,1,85,0|0,1:0|0:0,0:0:0:0:
512,213,105050,2,0,L|416:205,1,85,0|0,3:0|0:0,0:0:0:0:
23,110,105530,6,0,B|75:154|75:154|218:142,1,203.999993774414,4|0,1:2|3:0,0:0:0:0:
462,122,106250,1,0,0:0:0:0:
196,0,106490,2,0,P|150:20|112:57,1,101.999996887207,0|0,1:0|0:0,0:0:0:0:
350,178,106970,2,0,P|355:127|342:76,1,101.999996887207,0|0,3:0|0:0,0:0:0:0:
183,341,107450,6,0,P|68:366|-22:291,1,203.999993774414,4|0,1:2|3:0,0:0:0:0:
102,239,108170,1,0,0:0:0:0:
414,282,108410,2,0,L|405:383,1,101.999996887207,0|0,1:0|0:0,0:0:0:0:
91,119,108890,2,0,L|82:16,1,101.999996887207,0|0,3:0|0:0,0:0:0:0:
424,162,109370,1,4,1:2:0:0:
171,384,110810,5,8,3:2:0:0:
171,384,111050,1,8,0:2:0:0:
160,96,111290,2,0,B|122:150|122:150|146:294,1,203.999993774414,4|0,1:2|3:0,0:0:0:0:
248,171,112010,1,0,0:0:0:0:
22,78,112250,2,0,P|0:135|7:205,1,101.999996887207,0|0,1:0|0:0,0:0:0:0:
270,61,112730,1,0,3:0:0:0:
270,61,113210,6,0,P|172:62|112:140,1,203.999993774414,4|0,1:2|3:0,0:0:0:0:
395,83,113930,1,0,0:0:0:0:
246,224,114170,1,0,1:0:0:0:
246,224,114410,1,0,0:0:0:0:
502,140,114650,2,0,L|509:241,1,101.999996887207,0|0,3:0|0:0,0:0:0:0:
172,151,115130,5,0,3:2:0:0:
359,129,115370,1,0,3:2:0:0:
135,257,115610,1,0,3:2:0:0:
404,286,115850,1,0,3:2:0:0:
88,357,116090,5,8,3:2:0:0:
267,137,116330,1,8,3:2:0:0:
365,378,116570,1,8,3:2:0:0:
26,292,116810,1,8,3:2:0:0:
256,0,117050,5,12,3:2:0:0:
371,360,118490,5,8,0:0:0:0:
371,360,118730,1,8,0:0:0:0:
371,360,118970,2,0,L|197:344,1,152.999995330811,4|0,1:2|3:0,0:0:0:0:
132,359,119690,1,0,0:0:0:0:
244,193,119930,2,0,P|258:235|258:271,1,76.4999976654053,0|0,1:0|0:0,0:0:0:0:
0,268,120410,2,0,L|174:252,1,152.999995330811,0|0,3:0|1:0,0:0:0:0:
353,247,121370,5,0,3:0:0:0:
349,127,121610,1,0,0:0:0:0:
467,224,121850,2,0,L|459:317,1,76.4999976654053,0|0,1:0|0:0,0:0:0:0:
235,189,122330,2,0,L|227:96,1,76.4999976654053,0|0,1:0|0:0,0:0:0:0:
447,50,122810,5,8,3:2:0:0:
244,311,123050,1,8,3:2:0:0:
79,70,123290,1,8,3:2:0:0:
369,156,123530,1,8,3:2:0:0:
0,240,123770,5,8,3:2:0:0:
512,382,124250,1,8,3:2:0:0:
256,0,124730,5,12,3:2:0:0:
256,192,124850,12,0,130490,0:0:0:0:
