osu file format v14

[General]
AudioFilename: audio.mp3
AudioLeadIn: 0
PreviewTime: 19080
Countdown: 1
SampleSet: Soft
StackLeniency: 0.5
Mode: 0
LetterboxInBreaks: 0
WidescreenStoryboard: 1

[Editor]
Bookmarks: 1808,9488,19088,36368,53648,63248,65168,70928,88208,105488,115088,117008,122768,124688,130448
DistanceSpacing: 1
BeatDivisor: 4
GridSize: 16
TimelineZoom: 1

[Metadata]
Title:Unbelievable
TitleUnicode:Unbelievable
Artist:Chen Tian Wen
ArtistUnicode:陈天文
Creator:mindmaster107
Version:Normal
Source:Spouse for House
Tags:I so stunned like vegetable 陳天文 Chai Tian Bian Tianwen Mr. Unbelievable
BeatmapID:1858567
BeatmapSetID:888498

[Difficulty]
HPDrainRate:4
CircleSize:4
OverallDifficulty:4
ApproachRate:4
SliderMultiplier:1.2
SliderTickRate:1

[Events]
//Background and Video events
Video,170,"MV.mp4"
0,0,"whyamidoingthis.jpg",0,0
//Break Periods
//Storyboard Layer 0 (Background)
//Storyboard Layer 1 (Fail)
//Storyboard Layer 2 (Pass)
//Storyboard Layer 3 (Foreground)
//Storyboard Sound Samples

[TimingPoints]
1850,480,4,2,2,60,1,0
1850,-100,4,2,2,60,0,0
9530,-100,4,2,2,60,0,0
19130,-100,4,2,2,60,0,0
30650,-100,4,2,0,60,0,0
32090,-100,4,2,2,60,0,0
47930,-100,4,2,0,60,0,0
48410,-100,4,2,2,60,0,0
53690,-90.9090909090909,4,2,0,80,0,1
65210,-100,4,2,0,80,0,0
66650,-100,4,2,2,60,0,0
67130,-100,4,2,2,60,0,0
70970,-100,4,2,2,60,0,0
82490,-100,4,2,0,60,0,0
83930,-100,4,2,2,60,0,0
99770,-100,4,2,0,60,0,0
100250,-100,4,2,2,60,0,0
105530,-90.9090909090909,4,2,0,80,0,1
117050,-100,4,2,0,80,0,0
118490,-100,4,2,2,60,0,0
118970,-100,4,2,2,60,0,0
122810,-90.9090909090909,4,2,0,80,0,1
124730,-100,4,2,0,60,0,0
130490,-100,4,2,2,5,0,0

[Colours]
Combo1 : 64,98,255
Combo2 : 0,236,106
Combo3 : 102,240,255
Combo4 : 208,100,255

[HitObjects]
329,48,1850,6,0,B|415:128|415:128|153:101,1,360,4|0,0:0|0:0,0:0:0:0:
53,48,3770,6,0,B|0:105|0:105|19:287,1,240,4|0,0:0|0:0,0:0:0:0:
31,384,5210,1,0,0:0:0:0:
129,315,5690,6,0,B|211:263|300:299|300:299|391:335|473:284,1,360,4|0,0:0|0:0,0:0:0:0:
382,205,7610,6,0,P|283:202|214:89,1,240,4|0,0:0|0:0,0:0:0:0:
334,97,9050,1,0,3:0:0:0:
406,0,9530,6,0,B|457:50|457:50|436:199,1,180,4|0,1:2|0:0,0:0:0:0:
430,213,10490,1,0,1:0:0:0:
318,252,10970,1,0,3:0:0:0:
401,337,11450,2,0,P|459:339|514:308,2,120,4|0|0,1:2|3:0|1:0,0:0:0:0:
318,252,12890,1,0,3:0:0:0:
200,273,13370,5,8,0:0:0:0:
200,273,13610,1,8,0:0:0:0:
82,294,14090,5,8,0:0:0:0:
82,294,14330,1,8,0:0:0:0:
122,182,14810,5,8,0:0:0:0:
122,182,15050,1,0,0:0:0:0:
122,182,15290,1,0,1:0:0:0:
256,192,15530,12,0,18170,3:0:0:0:
0,15,19130,6,0,P|-1:76|45:141,1,120,2|2,1:2|1:2,0:0:0:0:
114,44,20090,2,0,P|173:44|223:76,1,120,2|2,1:2|1:2,0:0:0:0:
141,160,21050,1,6,1:2:0:0:
253,201,21530,1,0,3:0:0:0:
158,275,22010,2,0,P|126:325|125:384,2,120,0|0|4,1:0|3:0|1:2,0:0:0:0:
329,330,23690,5,0,0:0:0:0:
329,330,23930,2,0,P|406:330|449:355,1,120,0|0,1:0|3:0,0:0:0:0:
400,237,24890,1,4,1:2:0:0:
400,117,25370,5,0,3:0:0:0:
359,4,25850,1,0,1:0:0:0:
246,45,26330,1,0,3:0:0:0:
287,158,26810,6,0,P|196:151|144:117,1,120,4|0,1:2|3:0,0:0:0:0:
84,55,27770,2,0,L|69:205,1,120,0|0,1:0|3:0,0:0:0:0:
69,234,28490,1,0,0:0:0:0:
69,234,28730,2,0,B|189:244|189:244|229:300,1,180,4|0,1:2|0:0,0:0:0:0:
257,342,29690,2,0,P|314:327|351:281,2,120,0|0|4,1:0|3:0|1:2,0:0:0:0:
427,30,32090,5,0,3:0:0:0:
427,30,32330,1,0,3:0:0:0:
427,30,32570,2,0,L|271:44,1,120,4|0,1:2|3:0,0:0:0:0:
258,74,33290,2,0,L|168:65,1,60,0|0,0:0|1:0,0:0:0:0:
78,60,34010,1,0,3:0:0:0:
127,169,34490,5,8,0:0:0:0:
127,169,34730,1,8,0:0:0:0:
115,288,35210,5,8,0:0:0:0:
115,288,35450,1,8,0:0:0:0:
223,240,35930,5,8,0:0:0:0:
331,291,36410,6,0,P|377:328|435:337,1,120,6|2,1:2|1:2,0:0:0:0:
426,220,37370,2,0,P|436:161|413:107,1,120,2|2,1:2|1:2,0:0:0:0:
368,70,38090,1,0,0:0:0:0:
368,70,38330,1,4,1:2:0:0:
318,173,38810,1,0,3:0:0:0:
198,159,39290,2,0,L|213:1,2,120,0|0|4,1:0|3:0|1:2,0:0:0:0:
281,318,40970,5,0,0:0:0:0:
281,318,41210,2,0,B|241:285|241:285|145:296,1,120,0|0,1:0|3:0,0:0:0:0:
115,304,41930,1,0,0:0:0:0:
115,304,42170,1,4,1:2:0:0:
59,197,42650,2,0,L|-15:186,2,60,0|0|0,3:0|0:0|1:0,0:0:0:0:
123,95,43610,2,0,L|197:84,2,60,0|0|4,3:0|0:0|1:2,0:0:0:0:
187,195,44570,5,0,3:0:0:0:
290,133,45050,2,0,P|350:136|433:191,1,120,0|0,1:0|3:0,0:0:0:0:
436,212,45770,1,0,0:0:0:0:
435,212,46010,2,0,B|386:246|386:246|376:366,1,180,4|0,1:2|0:0,0:0:0:0:
317,378,46970,2,0,P|260:363|223:317,2,120,0|0|4,1:0|3:0|1:2,0:0:0:0:
19,174,49370,5,8,3:2:0:0:
19,174,49610,1,8,0:2:0:0:
19,173,49850,2,0,P|67:139|126:135,1,120,4|0,1:2|3:0,0:0:0:0:
184,152,50570,2,0,L|262:140,1,60,0|0,0:0|1:0,0:0:0:0:
334,64,51290,2,0,L|412:76,2,60,0|0|4,3:0|0:0|1:2,0:0:0:0:
353,182,52250,2,0,L|361:263,1,60,0|0,3:0|0:0,0:0:0:0:
364,301,52730,5,0,1:0:0:0:
512,361,53210,1,0,3:0:0:0:
368,305,53690,6,0,P|287:286|227:304,1,132.00000402832,4|0,1:2|3:0,0:0:0:0:
136,377,54650,2,0,L|-24:361,1,132.00000402832,0|0,1:0|3:0,0:0:0:0:
22,299,55370,1,0,0:0:0:0:
22,299,55610,2,0,B|44:167|44:167|14:106,1,198.000006042481,4|0,1:2|0:0,0:0:0:0:
28,44,56570,5,0,1:0:0:0:
159,52,57050,1,0,3:0:0:0:
290,60,57530,1,4,1:2:0:0:
489,301,58970,5,8,3:2:0:0:
489,301,59210,1,8,3:2:0:0:
489,301,59450,2,0,P|432:344|366:348,1,132.00000402832,4|0,1:2|3:0,0:0:0:0:
318,312,60170,1,0,0:0:0:0:
318,312,60410,2,0,L|171:323,1,132.00000402832,0|0,1:0|3:0,0:0:0:0:
103,219,61370,6,0,P|98:283|58:335,1,132.00000402832,4|0,1:2|3:0,0:0:0:0:
10,345,62090,1,0,0:0:0:0:
10,345,62330,1,0,1:0:0:0:
12,173,62810,5,0,3:0:0:0:
12,173,63050,1,0,0:0:0:0:
12,173,63290,2,0,L|115:188,1,66.0000020141602,0|0,3:0|3:0,0:0:0:0:
154,146,63770,6,0,L|257:161,1,66.0000020141602,0|0,3:0|3:0,0:0:0:0:
296,119,64250,6,0,L|399:134,1,66.0000020141602,8|8,3:2|3:2,0:0:0:0:
438,92,64730,6,0,L|541:107,2,66.0000020141602,8|8|12,3:2|3:2|3:2,0:0:0:0:
0,113,67130,6,0,P|69:142|146:131,1,120,4|0,1:2|3:0,0:0:0:0:
171,127,67850,1,0,0:0:0:0:
171,127,68090,2,0,L|183:299,1,120,0|0,1:0|3:0,0:0:0:0:
186,366,69050,1,4,1:2:0:0:
289,305,69530,5,0,3:0:0:0:
289,305,69770,1,0,0:0:0:0:
289,304,70010,2,0,P|348:301|406:314,1,120,0|0,1:0|3:0,0:0:0:0:
494,232,70970,6,0,L|506:100,1,120,6|2,1:2|1:2,0:0:0:0:
388,141,71930,2,0,L|377:21,1,120,2|2,1:2|1:2,0:0:0:0:
271,79,72890,1,6,1:2:0:0:
165,22,73370,1,0,3:0:0:0:
156,141,73850,2,0,P|106:173|47:174,2,120,0|0|4,1:0|3:0|1:2,0:0:0:0:
30,269,75530,5,0,0:0:0:0:
30,269,75770,2,0,P|30:346|55:389,1,120,0|0,1:0|3:0,0:0:0:0:
143,307,76730,1,4,1:2:0:0:
260,329,77210,5,0,3:0:0:0:
379,350,77690,1,0,1:0:0:0:
400,231,78170,1,0,3:0:0:0:
281,210,78650,6,0,P|332:134|388:106,1,120,4|0,1:2|3:0,0:0:0:0:
289,18,79610,2,0,P|230:19|174:-1,1,120,0|0,1:0|3:0,0:0:0:0:
169,58,80330,1,0,0:0:0:0:
169,58,80570,2,0,B|159:178|159:178|103:218,1,180,4|0,1:2|0:0,0:0:0:0:
60,245,81530,2,0,P|45:188|-1:151,2,120,0|0|4,1:0|3:0|1:2,0:0:0:0:
400,362,83930,5,0,3:0:0:0:
400,362,84170,1,0,0:0:0:0:
400,362,84410,2,0,L|244:348,1,120,4|0,1:2|3:0,0:0:0:0:
231,318,85130,2,0,L|141:327,1,60,0|0,0:0|1:0,0:0:0:0:
241,226,85850,1,0,3:0:0:0:
359,245,86330,5,8,0:0:0:0:
359,245,86570,1,8,0:0:0:0:
478,257,87050,5,8,0:0:0:0:
478,257,87290,1,8,0:0:0:0:
430,149,87770,5,8,0:0:0:0:
378,40,88250,6,0,L|234:52,1,120,6|2,1:2|1:2,0:0:0:0:
181,142,89210,2,0,L|37:154,1,120,2|2,1:2|1:2,0:0:0:0:
2,162,89930,1,0,0:2:0:0:
2,162,90170,1,4,1:2:0:0:
50,52,90650,1,0,3:0:0:0:
169,41,91130,2,0,P|206:44|274:107,2,120,0|0|4,1:0|3:0|1:2,0:0:0:0:
348,24,92810,5,0,0:0:0:0:
348,24,93050,2,0,B|381:64|381:64|370:160,1,120,0|0,1:0|3:0,0:0:0:0:
362,190,93770,1,0,0:0:0:0:
362,190,94010,1,4,1:2:0:0:
344,308,94490,2,0,L|333:382,2,60,0|0|0,3:0|0:0|1:0,0:0:0:0:
248,236,95450,2,0,L|237:162,2,60,0|0|4,3:0|0:0|1:2,0:0:0:0:
148,303,96410,5,0,3:0:0:0:
55,378,96890,2,0,P|34:322|36:262,1,120,0|0,1:0|3:0,0:0:0:0:
68,211,97610,1,0,0:0:0:0:
68,211,97850,2,0,B|102:162|102:162|222:152,1,180,4|0,1:2|0:0,0:0:0:0:
200,96,98810,2,0,P|215:39|261:2,2,120,0|0|4,1:0|3:0|1:2,0:0:0:0:
475,328,101210,5,8,3:2:0:0:
475,328,101450,1,8,0:2:0:0:
475,328,101690,2,0,L|338:321,1,120,4|0,1:2|3:0,0:0:0:0:
296,319,102410,2,0,P|310:344|315:374,1,60,0|0,0:0|1:0,0:0:0:0:
224,297,103130,2,0,P|238:271|262:252,2,60,0|0|4,3:0|0:0|1:2,0:0:0:0:
248,178,104090,2,0,P|277:178|305:188,1,60,0|0,3:0|0:0,0:0:0:0:
347,232,104570,5,0,1:0:0:0:
495,172,105050,1,0,3:0:0:0:
435,10,105530,6,0,P|354:29|294:11,1,132.00000402832,4|0,1:2|3:0,0:0:0:0:
176,30,106490,2,0,L|16:46,1,132.00000402832,0|0,1:0|3:0,0:0:0:0:
24,106,107210,1,0,0:0:0:0:
24,106,107450,2,0,B|-4:163|-4:163|17:295,1,198.000006042481,4|0,1:2|0:0,0:0:0:0:
30,360,108410,5,0,1:0:0:0:
161,368,108890,1,0,3:0:0:0:
292,376,109370,1,4,1:2:0:0:
482,29,110810,5,8,3:2:0:0:
482,29,111050,1,8,0:2:0:0:
482,29,111290,2,0,P|439:86|435:152,1,132.00000402832,4|0,1:2|3:0,0:0:0:0:
471,200,112010,1,0,0:0:0:0:
471,200,112250,2,0,L|460:347,1,132.00000402832,0|0,1:0|3:0,0:0:0:0:
348,263,113210,6,0,P|290:235|225:243,1,132.00000402832,4|0,1:2|3:0,0:0:0:0:
172,284,113930,1,0,0:0:0:0:
172,284,114170,1,0,1:0:0:0:
13,250,114650,5,0,3:0:0:0:
13,250,114890,1,0,0:0:0:0:
13,250,115130,2,0,L|-2:147,1,66.0000020141602,0|0,3:2|3:2,0:0:0:0:
88,195,115610,6,0,L|103:92,1,66.0000020141602,0|0,3:2|3:2,0:0:0:0:
183,134,116090,6,0,L|168:31,1,66.0000020141602,8|8,3:2|3:2,0:0:0:0:
258,79,116570,6,0,L|273:-24,2,66.0000020141602,8|8|12,3:2|3:2|3:2,0:0:0:0:
471,196,118970,6,0,P|442:265|453:342,1,120,4|0,1:2|3:0,0:0:0:0:
457,367,119690,1,0,0:0:0:0:
457,367,119930,2,0,L|285:379,1,120,0|0,1:0|3:0,0:0:0:0:
217,383,120890,1,0,1:0:0:0:
275,278,121370,5,0,3:0:0:0:
275,278,121610,1,0,0:0:0:0:
275,278,121850,2,0,P|278:219|265:161,1,120,0|0,1:0|1:0,0:0:0:0:
151,16,122810,6,0,P|179:32|211:38,1,66.0000020141602,8|8,3:2|3:2,0:0:0:0:
300,38,123290,6,0,P|332:32|361:16,1,66.0000020141602,8|8,3:2|3:2,0:0:0:0:
256,112,123770,6,0,B|234:168|234:168|256:236,2,132.00000402832,8|8|12,3:2|3:2|3:2,0:0:0:0:
256,192,124850,12,0,130490,0:0:0:0:
