osu file format v14

[General]
AudioFilename: audio.mp3
AudioLeadIn: 0
PreviewTime: 19080
Countdown: 1
SampleSet: Soft
StackLeniency: 0.5
Mode: 0
LetterboxInBreaks: 0
WidescreenStoryboard: 1

[Editor]
Bookmarks: 1808,9488,19088,36368,53648,63248,65168,70928,88208,105488,115088,117008,122768,124688,130448
DistanceSpacing: 1
BeatDivisor: 2
GridSize: 16
TimelineZoom: 1

[Metadata]
Title:Unbelievable
TitleUnicode:Unbelievable
Artist:Chen Tian Wen
ArtistUnicode:陈天文
Creator:mindmaster107
Version:Hard
Source:Spouse for House
Tags:I so stunned like vegetable 陳天文 Chai Tian Bian Tianwen Mr. Unbelievable
BeatmapID:1858034
BeatmapSetID:888498

[Difficulty]
HPDrainRate:5
CircleSize:4
OverallDifficulty:6.5
ApproachRate:7
SliderMultiplier:1.5
SliderTickRate:1

[Events]
//Background and Video events
Video,170,"MV.mp4"
0,0,"whyamidoingthis.jpg",0,0
//Break Periods
//Storyboard Layer 0 (Background)
//Storyboard Layer 1 (Fail)
//Storyboard Layer 2 (Pass)
//Storyboard Layer 3 (Foreground)
//Storyboard Sound Samples

[TimingPoints]
1850,480,4,2,2,60,1,0
1850,-125,4,2,2,60,0,0
9530,-111.111111111111,4,2,2,60,0,0
19130,-100,4,2,2,60,0,0
30650,-100,4,2,0,60,0,0
32090,-100,4,2,2,60,0,0
47930,-100,4,2,0,60,0,0
48410,-100,4,2,2,60,0,0
53690,-83.3333333333333,4,2,0,80,0,1
65210,-125,4,2,0,80,0,0
66650,-125,4,2,2,60,0,0
67130,-111.111111111111,4,2,2,60,0,0
70970,-100,4,2,2,60,0,0
82490,-100,4,2,0,60,0,0
83930,-100,4,2,2,60,0,0
99770,-100,4,2,0,60,0,0
100250,-100,4,2,2,60,0,0
105530,-83.3333333333333,4,2,0,80,0,1
117050,-125,4,2,0,80,0,0
118490,-125,4,2,2,60,0,0
118970,-111.111111111111,4,2,2,60,0,0
122810,-100,4,2,0,80,0,1
124730,-100,4,2,0,60,0,0
130490,-100,4,2,2,5,0,0

[Colours]
Combo1 : 64,98,255
Combo2 : 0,236,106
Combo3 : 102,240,255
Combo4 : 208,100,255

[HitObjects]
50,298,1850,6,0,P|109:382|125:229,1,360,4|0,0:0|0:0,0:0:0:0:
335,384,3770,6,0,B|397:337|397:337|410:154,1,240,4|0,0:0|0:0,0:0:0:0:
305,278,5210,1,0,0:0:0:0:
420,17,5690,6,0,B|506:97|506:97|244:70,1,360,4|0,0:0|0:0,0:0:0:0:
0,174,7610,6,0,P|108:170|107:62,1,240,4|0,0:0|0:0,0:0:0:0:
133,295,8930,1,0,3:0:0:0:
133,295,9050,2,0,L|208:288,1,60,0|0,3:0|0:0,0:0:0:0:
325,255,9530,6,0,P|288:324|295:387,1,134.999995880127,4|0,1:2|3:0,0:0:0:0:
399,344,10250,1,0,0:0:0:0:
399,344,10490,2,0,L|478:352,1,67.4999979400635,0|0,1:0|0:0,0:0:0:0:
500,233,10970,2,0,L|421:241,1,67.4999979400635,0|0,3:0|0:0,0:0:0:0:
277,162,11450,6,0,B|317:129|317:129|419:144,1,134.999995880127,4|0,1:2|3:0,0:0:0:0:
495,115,12170,1,0,0:0:0:0:
495,115,12410,2,0,P|466:70|362:48,1,134.999995880127,0|0,1:0|3:0,0:0:0:0:
117,86,13370,5,8,0:0:0:0:
97,224,13610,1,8,0:0:0:0:
101,228,14090,5,8,0:0:0:0:
81,366,14330,1,8,0:0:0:0:
85,370,14810,6,0,L|98:288,1,67.4999979400635,8|0,0:0|0:0,0:0:0:0:
263,369,15290,6,0,P|326:369|405:315,1,134.999995880127,0|0,1:0|3:0,0:0:0:0:
302,260,16010,1,0,0:0:0:0:
302,260,16250,2,0,L|294:172,1,67.4999979400635,0|0,1:0|0:0,0:0:0:0:
390,197,16730,2,0,L|396:129,1,67.4999979400635,0|0,3:0|0:0,0:0:0:0:
283,75,17210,1,4,1:2:0:0:
256,192,17330,12,0,18650,0:0:0:0:
22,82,19130,6,0,P|79:73|138:42,1,112.5,2|0,1:2|0:0,0:0:0:0:
153,24,19610,2,0,P|199:55|233:100,1,112.5,2|0,1:2|0:0,0:0:0:0:
244,137,20090,2,0,P|301:128|360:97,1,112.5,2|0,1:2|0:0,0:0:0:0:
376,79,20570,2,0,P|422:110|468:194,1,150,2|6,1:2|1:2,0:0:0:0:
307,341,21530,5,0,3:0:0:0:
307,341,22010,2,0,P|390:340|459:383,2,150,0|0|4,1:0|3:0|1:2,0:0:0:0:
91,352,23450,5,0,3:0:0:0:
91,352,23690,1,0,0:0:0:0:
91,352,23930,2,0,L|102:242,1,75,0|0,1:0|0:0,0:0:0:0:
34,209,24410,2,0,L|23:99,1,75,0|0,3:0|0:0,0:0:0:0:
163,219,24890,6,0,P|208:160|212:86,1,150,4|0,1:2|3:0,0:0:0:0:
124,36,25610,1,0,0:0:0:0:
124,36,25850,2,0,L|44:25,2,75,0|0|0,1:0|0:0|3:0,0:0:0:0:
212,86,26570,2,0,L|292:75,1,75,0|4,0:0|1:2,0:0:0:0:
470,201,27290,5,0,3:0:0:0:
470,201,27770,2,0,P|436:134|439:60,1,150,0|0,1:0|3:0,0:0:0:0:
445,297,28730,6,0,L|262:317,1,150,4|0,1:2|3:0,0:0:0:0:
232,384,29450,1,0,0:0:0:0:
214,261,29690,2,0,B|233:227|233:227|344:215,2,150,0|0|4,1:0|3:0|1:2,0:0:0:0:
49,36,31970,5,0,3:0:0:0:
49,36,32090,2,0,L|44:120,1,75,0|0,3:0|3:0,0:0:0:0:
0,202,32570,2,0,P|55:202|141:269,1,150,4|0,1:2|3:0,0:0:0:0:
125,355,33290,1,0,0:0:0:0:
125,355,33530,2,0,L|286:344,1,150,0|0,1:0|3:0,0:0:0:0:
387,339,34250,1,0,0:0:0:0:
391,343,34490,5,8,0:0:0:0:
411,205,34730,1,8,0:0:0:0:
415,209,35210,5,8,0:0:0:0:
435,71,35450,1,8,0:0:0:0:
439,75,35930,6,0,P|410:97|364:105,1,75,8|0,0:0|0:0,0:0:0:0:
258,31,36410,6,0,L|115:41,1,112.5,6|0,1:2|0:0,0:0:0:0:
108,42,36890,2,0,L|118:185,1,112.5,2|0,1:2|0:0,0:0:0:0:
118,191,37370,2,0,L|261:181,1,112.5,2|0,1:2|0:0,0:0:0:0:
268,180,37850,2,0,L|262:96,2,75,2|0|4,1:2|0:0|1:2,0:0:0:0:
178,324,38810,5,0,3:0:0:0:
178,324,39290,2,0,P|111:357|37:354,2,150,0|0|4,1:0|3:0|1:2,0:0:0:0:
393,375,40970,5,0,0:0:0:0:
393,375,41210,2,0,L|503:364,1,75,0|0,1:0|0:0,0:0:0:0:
505,284,41690,1,0,3:0:0:0:
505,284,41930,1,0,0:0:0:0:
505,284,42170,6,0,P|460:225|456:151,1,150,4|0,1:2|3:0,0:0:0:0:
391,67,42890,1,0,0:0:0:0:
391,67,43130,2,0,B|348:105|348:105|357:197,1,150,0|0,1:0|3:0,0:0:0:0:
305,271,43850,2,0,L|297:345,1,75,0|4,0:0|1:2,0:0:0:0:
48,315,44570,5,0,3:0:0:0:
48,315,45050,2,0,P|115:281|189:284,1,150,0|0,1:0|3:0,0:0:0:0:
367,216,46010,6,0,P|396:147|385:74,1,150,4|0,1:2|3:0,0:0:0:0:
286,20,46730,1,0,0:0:0:0:
136,120,46970,2,0,L|305:134,2,150,0|0|4,1:0|3:0|1:2,0:0:0:0:
409,382,49370,6,0,L|404:307,1,75,8|8,3:2|0:2,0:0:0:0:
306,363,49850,2,0,P|232:357|174:311,1,150,4|0,1:2|3:0,0:0:0:0:
75,354,50570,1,0,0:0:0:0:
75,354,50810,2,0,L|-5:343,2,75,0|0|0,1:0|0:0|3:0,0:0:0:0:
98,243,51530,2,0,L|178:232,1,75,0|4,0:0|1:2,0:0:0:0:
410,203,52250,2,0,L|400:294,1,75,0|0,3:0|0:0,0:0:0:0:
512,250,52730,5,0,1:0:0:0:
284,224,53210,1,0,3:0:0:0:
512,79,53690,6,0,B|473:40|473:40|323:49,1,179.999994506836,4|0,1:2|3:0,0:0:0:0:
235,55,54410,1,0,0:0:0:0:
302,137,54650,2,0,P|299:187|278:231,1,89.9999972534181,0|0,1:0|0:0,0:0:0:0:
202,157,55130,2,0,P|157:163|118:183,1,89.9999972534181,0|0,3:0|0:0,0:0:0:0:
32,328,55610,6,0,L|20:144,1,179.999994506836,4|0,1:2|3:0,0:0:0:0:
14,37,56330,1,0,0:0:0:0:
117,183,56570,2,0,L|126:93,1,89.9999972534181,0|0,1:0|0:0,0:0:0:0:
228,157,57050,2,0,L|239:264,2,89.9999972534181,0|0|4,3:0|0:0|1:2,0:0:0:0:
421,280,58970,5,8,3:2:0:0:
421,280,59450,2,0,P|372:225|251:236,1,179.999994506836,4|0,1:2|3:0,0:0:0:0:
325,314,60170,1,0,0:0:0:0:
498,350,60410,2,0,L|510:153,1,179.999994506836,0|0,1:0|3:0,0:0:0:0:
217,72,61370,6,0,B|263:58|302:87|302:87|341:115|387:102,1,179.999994506836,4|0,1:2|3:0,0:0:0:0:
467,62,62090,1,0,0:0:0:0:
386,200,62330,2,0,L|394:311,1,89.9999972534181,0|0,1:0|0:0,0:0:0:0:
244,256,62810,2,0,L|252:145,1,89.9999972534181,0|0,3:0|0:0,0:0:0:0:
255,77,63290,5,0,3:0:0:0:
123,97,63530,1,0,3:0:0:0:
255,67,63770,5,0,3:0:0:0:
109,89,64010,1,0,3:0:0:0:
255,57,64250,5,8,3:2:0:0:
96,81,64490,1,8,3:2:0:0:
255,47,64730,5,8,3:2:0:0:
83,72,64970,1,8,3:2:0:0:
191,208,65210,1,12,3:2:0:0:
25,124,66650,5,8,0:0:0:0:
25,124,66890,1,8,0:0:0:0:
24,124,67130,2,0,P|90:124|150:153,1,134.999995880127,4|0,1:2|3:0,0:0:0:0:
70,243,67850,1,0,0:0:0:0:
70,243,68090,2,0,L|77:391,2,134.999995880127,0|0|4,1:0|3:0|1:2,0:0:0:0:
241,364,69530,6,0,L|336:355,1,67.4999979400635,0|0,3:0|0:0,0:0:0:0:
369,299,70010,2,0,B|460:306|460:306|493:344,1,134.999995880127,0|0,1:0|3:0,0:0:0:0:
512,191,70970,6,0,P|498:135|462:78,1,112.5,6|0,1:2|0:2,0:0:0:0:
431,88,71450,2,0,P|376:99|328:128,1,112.5,2|0,1:2|0:2,0:0:0:0:
305,158,71930,2,0,P|291:103|263:55,1,112.5,2|0,1:2|0:2,0:0:0:0:
232,33,72410,2,0,P|157:34|91:68,1,150,2|6,1:2|1:2,0:0:0:0:
26,276,73370,5,0,3:0:0:0:
26,276,73850,2,0,B|41:172|41:172|19:130,2,150,0|0|4,1:0|3:0|1:2,0:0:0:0:
183,368,75290,5,0,3:0:0:0:
183,368,75530,1,0,0:0:0:0:
183,368,75770,2,0,L|293:379,1,75,0|0,1:0|0:0,0:0:0:0:
326,311,76250,2,0,L|436:300,1,75,0|0,3:0|0:0,0:0:0:0:
512,209,76730,6,0,P|453:164|379:160,1,150,4|0,1:2|3:0,0:0:0:0:
297,194,77450,1,0,0:0:0:0:
297,194,77690,2,0,L|286:274,2,75,0|0|0,1:0|0:0|3:0,0:0:0:0:
379,159,78410,2,0,L|368:79,1,75,0|4,0:0|1:2,0:0:0:0:
201,52,79130,5,0,3:0:0:0:
201,52,79610,2,0,L|8:36,1,150,0|0,1:0|3:0,0:0:0:0:
139,239,80570,6,0,P|68:276|-44:259,1,150,4|0,1:2|3:0,0:0:0:0:
44,176,81290,1,0,0:0:0:0:
193,145,81530,2,0,B|227:164|227:164|239:275,2,150,0|0|4,1:0|3:0|1:2,0:0:0:0:
463,36,83810,5,0,3:0:0:0:
463,36,83930,2,0,L|468:120,1,75,0|0,3:0|0:0,0:0:0:0:
346,60,84410,2,0,P|287:105|214:111,1,150,4|0,1:2|3:0,0:0:0:0:
108,34,85130,1,0,0:0:0:0:
108,34,85370,2,0,L|97:195,1,150,0|0,1:0|3:0,0:0:0:0:
91,304,86090,1,0,0:0:0:0:
91,304,86330,5,8,0:0:0:0:
229,324,86570,1,8,0:0:0:0:
233,328,87050,5,8,0:0:0:0:
371,348,87290,1,8,0:0:0:0:
375,352,87770,6,0,P|422:336|456:304,1,75,8|0,0:0|0:0,0:0:0:0:
347,228,88250,6,0,L|357:85,1,112.5,6|0,1:2|0:2,0:0:0:0:
358,78,88730,2,0,L|501:88,1,112.5,2|0,1:2|0:2,0:0:0:0:
507,88,89210,2,0,L|497:231,1,112.5,2|0,1:2|0:2,0:0:0:0:
496,238,89690,2,0,L|412:232,2,75,2|0|4,1:2|0:2|1:2,0:0:0:0:
257,282,90650,5,0,3:0:0:0:
257,282,91130,2,0,B|226:240|226:240|239:140,2,150,0|0|4,1:0|3:0|1:2,0:0:0:0:
140,190,92570,5,0,3:0:0:0:
140,190,92810,1,0,0:0:0:0:
140,190,93050,2,0,L|129:80,1,75,0|0,1:0|0:0,0:0:0:0:
120,2,93530,1,0,3:0:0:0:
120,2,93770,1,0,0:0:0:0:
120,2,94010,6,0,P|53:35|17:100,1,150,4|0,1:2|3:0,0:0:0:0:
39,190,94730,1,0,0:0:0:0:
39,190,94970,2,0,L|25:359,1,150,0|0,1:0|3:0,0:0:0:0:
131,316,95690,2,0,P|151:346|158:383,1,75,0|4,0:0|1:2,0:0:0:0:
340,342,96410,5,0,3:0:0:0:
340,342,96890,2,0,L|514:328,1,150,0|0,1:0|3:0,0:0:0:0:
427,145,97850,6,0,B|466:109|466:109|455:1,1,150,4|0,1:2|3:0,0:0:0:0:
365,67,98570,1,0,0:0:0:0:
334,203,98810,2,0,P|412:251|495:225,2,150,0|0|4,1:0|3:0|1:2,0:0:0:0:
0,54,101210,6,0,L|75:49,1,75,8|8,3:2|0:2,0:0:0:0:
189,43,101690,2,0,P|143:101|137:174,1,150,4|0,1:2|3:0,0:0:0:0:
237,217,102410,1,0,0:0:0:0:
237,217,102650,2,0,L|248:137,2,75,0|0|0,1:0|0:0|3:0,0:0:0:0:
159,284,103370,2,0,L|170:364,1,75,0|4,0:0|1:2,0:0:0:0:
412,384,104090,2,0,L|321:374,1,75,0|0,3:0|0:0,0:0:0:0:
284,298,104570,5,0,1:0:0:0:
512,272,105050,1,0,3:0:0:0:
466,51,105530,6,0,P|378:62|318:126,1,179.999994506836,4|0,1:2|3:0,0:0:0:0:
437,172,106250,1,0,0:0:0:0:
274,208,106490,2,0,L|285:315,1,89.9999972534181,0|0,1:0|0:0,0:0:0:0:
162,215,106970,2,0,L|171:125,1,89.9999972534181,0|0,3:0|0:0,0:0:0:0:
42,15,107450,6,0,B|3:54|3:54|12:204,1,179.999994506836,4|0,1:2|3:0,0:0:0:0:
19,278,108170,1,0,0:0:0:0:
143,384,108410,2,0,P|93:381|49:360,1,89.9999972534181,0|0,1:0|0:0,0:0:0:0:
96,199,108890,2,0,P|117:239|123:284,2,89.9999972534181,0|0|4,3:0|0:0|1:2,0:0:0:0:
380,121,110810,5,8,3:2:0:0:
380,121,111290,2,0,B|428:166|428:166|415:315,1,179.999994506836,4|0,1:2|3:0,0:0:0:0:
316,217,112010,1,0,0:0:0:0:
348,370,112250,2,0,P|434:386|506:335,1,179.999994506836,0|0,1:0|3:0,0:0:0:0:
252,364,113210,6,0,B|266:318|237:279|237:279|209:240|222:194,1,179.999994506836,4|0,1:2|3:0,0:0:0:0:
316,217,113930,1,0,0:0:0:0:
164,329,114170,2,0,L|75:336,1,89.9999972534181,0|0,1:0|0:0,0:0:0:0:
11,179,114650,2,0,L|100:185,1,89.9999972534181,0|0,3:0|0:0,0:0:0:0:
222,193,115130,5,0,3:2:0:0:
202,61,115370,1,0,3:2:0:0:
232,193,115610,5,0,3:2:0:0:
210,47,115850,1,0,3:2:0:0:
242,193,116090,5,8,3:2:0:0:
218,34,116330,1,8,3:2:0:0:
252,193,116570,5,8,3:2:0:0:
227,21,116810,1,8,3:2:0:0:
91,129,117050,1,12,3:2:0:0:
354,245,118490,5,8,0:0:0:0:
354,245,118730,1,8,0:0:0:0:
354,245,118970,2,0,P|399:302|405:367,1,134.999995880127,4|0,1:2|3:0,0:0:0:0:
295,342,119690,1,0,0:0:0:0:
295,342,119930,2,0,B|208:322|208:322|165:339,2,134.999995880127,0|0|0,1:0|3:0|1:0,0:0:0:0:
440,198,121370,6,0,L|431:103,1,67.4999979400635,0|0,3:0|0:0,0:0:0:0:
314,147,121850,2,0,P|349:90|358:23,1,134.999995880127,0|0,1:0|1:0,0:0:0:0:
168,170,122810,5,8,3:2:0:0:
191,317,123050,1,8,3:2:0:0:
338,295,123290,1,8,3:2:0:0:
314,147,123530,1,8,3:2:0:0:
96,250,123770,5,8,3:2:0:0:
413,205,124250,1,8,3:2:0:0:
67,47,124730,1,12,3:2:0:0:
256,192,124850,12,0,130490,0:0:0:0:
