osu file format v14

[General]
AudioFilename: audio.mp3
AudioLeadIn: 0
PreviewTime: 19080
Countdown: 1
SampleSet: Soft
StackLeniency: 0.5
Mode: 0
LetterboxInBreaks: 0
WidescreenStoryboard: 1

[Editor]
Bookmarks: 1808,9488,19088,36368,53648,63248,65168,70928,88208,105488,115088,117008,122768,124688,130448
DistanceSpacing: 1
BeatDivisor: 2
GridSize: 16
TimelineZoom: 0.3999999

[Metadata]
Title:Unbelievable
TitleUnicode:Unbelievable
Artist:Chen Tian Wen
ArtistUnicode:陈天文
Creator:mindmaster107
Version:Easy
Source:Spouse for House
Tags:I so stunned like vegetable 陳天文 Chai Tian Bian Tianwen Mr. Unbelievable
BeatmapID:1858575
BeatmapSetID:888498

[Difficulty]
HPDrainRate:3
CircleSize:3.5
OverallDifficulty:2
ApproachRate:3
SliderMultiplier:0.9
SliderTickRate:1

[Events]
//Background and Video events
Video,170,"MV.mp4"
0,0,"whyamidoingthis.jpg",0,0
//Break Periods
//Storyboard Layer 0 (Background)
//Storyboard Layer 1 (Fail)
//Storyboard Layer 2 (Pass)
//Storyboard Layer 3 (Foreground)
//Storyboard Sound Samples

[TimingPoints]
1850,480,4,2,2,60,1,0
1850,-100,4,2,2,60,0,0
9530,-100,4,2,2,60,0,0
19130,-100,4,2,2,60,0,0
30650,-100,4,2,0,60,0,0
32090,-100,4,2,2,60,0,0
47930,-100,4,2,0,60,0,0
48410,-100,4,2,2,60,0,0
53690,-100,4,2,0,80,0,1
65210,-100,4,2,0,80,0,0
66650,-100,4,2,2,60,0,0
67130,-100,4,2,2,60,0,0
70970,-100,4,2,2,60,0,0
82490,-100,4,2,0,60,0,0
83930,-100,4,2,2,60,0,0
99770,-100,4,2,0,60,0,0
100250,-100,4,2,2,60,0,0
105530,-100,4,2,0,80,0,1
117050,-100,4,2,0,80,0,0
118490,-100,4,2,2,60,0,0
118970,-100,4,2,2,60,0,0
122810,-100,4,2,0,80,0,1
124730,-100,4,2,0,60,0,0
130490,-100,4,2,2,5,0,0

[Colours]
Combo1 : 64,98,255
Combo2 : 0,236,106
Combo3 : 102,240,255
Combo4 : 208,100,255

[HitObjects]
67,136,1850,5,4,0:0:0:0:
445,136,3770,1,4,0:0:0:0:
256,192,4730,2,0,L|256:288,1,90,0|0,0:0|0:0,0:0:0:0:
255,371,5690,1,4,0:0:0:0:
255,11,7610,6,8,P|346:18|412:87,1,180,4|0,0:0|0:0,0:0:0:0:
423,165,9050,1,0,3:0:0:0:
423,165,9530,6,0,L|409:274,1,90,4|0,1:2|3:0,0:0:0:0:
329,290,10490,2,0,L|343:399,2,90,0|0|4,1:0|3:0|1:2,0:0:0:0:
300,112,12410,1,0,1:0:0:0:
300,112,12890,1,0,3:0:0:0:
300,112,13370,1,8,0:0:0:0:
97,291,14810,5,8,0:0:0:0:
97,291,15290,1,0,1:0:0:0:
35,224,15770,2,0,P|22:187|18:118,2,90,0|0|0,3:0|1:0|3:0,0:0:0:0:
122,203,17210,1,4,1:2:0:0:
481,198,19130,6,0,B|467:151|496:112|496:112|524:74|511:27,2,180,2|2|6,1:2|1:2|1:2,0:0:0:0:
453,283,21530,1,0,3:0:0:0:
453,283,22010,2,0,L|443:384,2,90,0|0|4,1:0|3:0|1:2,0:0:0:0:
394,215,23450,1,0,3:0:0:0:
394,215,23930,2,0,L|384:114,2,90,0|0|4,1:0|3:0|1:2,0:0:0:0:
282,356,25850,1,0,1:0:0:0:
102,344,26810,5,4,1:2:0:0:
102,344,27290,2,0,P|65:316|42:279,1,90,0|0,3:0|1:0,0:0:0:0:
68,193,28250,1,0,3:0:0:0:
130,258,28730,2,0,P|151:218|156:174,1,90,4|0,1:2|3:0,0:0:0:0:
94,108,29690,2,0,L|81:8,2,90,0|0|4,1:0|3:0|1:2,0:0:0:0:
355,41,32090,5,0,3:0:0:0:
421,102,32570,2,0,P|422:146|409:189,1,90,4|0,1:2|3:0,0:0:0:0:
324,220,33530,2,0,P|322:264|335:307,1,90,0|0,1:0|3:0,0:0:0:0:
417,345,34490,5,8,0:0:0:0:
237,332,35450,1,8,0:0:0:0:
57,319,36410,6,0,B|23:271|23:271|45:150,2,180,6|2|4,1:2|1:2|1:2,0:0:0:0:
147,319,38810,1,0,3:0:0:0:
147,319,39290,2,0,P|174:360|229:393,2,90,0|0|4,1:0|3:0|1:2,0:0:0:0:
233,294,40730,1,0,3:0:0:0:
233,294,41210,2,0,P|254:249|255:185,2,90,0|0|4,1:0|3:0|1:2,0:0:0:0:
140,139,43130,1,0,1:0:0:0:
304,0,44090,5,4,1:2:0:0:
391,21,44570,1,0,3:0:0:0:
391,21,45050,2,0,P|428:49|450:85,1,90,0|0,1:0|3:0,0:0:0:0:
363,109,46010,2,0,P|357:153|336:192,1,90,4|0,1:2|3:0,0:0:0:0:
269,133,46970,2,0,L|169:120,2,90,0|0|4,1:0|3:0|1:2,0:0:0:0:
511,252,49370,5,8,3:2:0:0:
445,314,49850,2,0,P|400:315|357:302,1,90,4|0,1:2|3:0,0:0:0:0:
271,275,50810,2,0,P|226:273|183:286,2,90,0|0|4,1:0|3:0|1:2,0:0:0:0:
111,358,52730,1,0,1:0:0:0:
111,358,53210,1,0,3:0:0:0:
111,358,53690,6,0,B|80:307|80:307|102:188,1,180,4|0,1:2|1:0,0:0:0:0:
131,103,55130,1,0,3:0:0:0:
131,103,55610,2,0,P|33:80|-2:-7,2,180,4|0|4,1:2|1:0|1:2,0:0:0:0:
396,56,58970,5,8,3:2:0:0:
396,56,59450,2,0,P|440:68|484:64,1,90,4|0,1:2|3:0,0:0:0:0:
492,154,60410,2,0,L|502:278,1,90,0|0,1:0|3:0,0:0:0:0:
474,330,61370,2,0,P|434:345|386:342,2,90,4|0|0,1:2|3:0|1:0,0:0:0:0:
415,261,62810,1,0,3:0:0:0:
256,192,63290,12,12,65210,3:2:0:0:
71,187,67130,6,0,P|37:217|18:257,1,90,4|0,1:2|3:0,0:0:0:0:
32,346,68090,1,0,1:0:0:0:
32,346,68570,1,0,3:0:0:0:
211,329,69530,2,0,L|335:348,2,90,0|0|0,3:0|1:0|3:0,0:0:0:0:
268,259,70970,6,0,B|315:245|354:274|354:274|392:302|439:289,2,180,6|2|6,1:2|1:2|1:2,0:0:0:0:
303,176,73370,1,0,3:0:0:0:
303,176,73850,2,0,L|313:75,2,90,0|0|4,1:0|3:0|1:2,0:0:0:0:
214,192,75290,1,0,3:0:0:0:
214,192,75770,2,0,L|204:91,2,90,0|0|4,1:0|3:0|1:2,0:0:0:0:
393,198,77690,1,0,1:0:0:0:
300,352,78650,5,4,1:2:0:0:
300,352,79130,2,0,P|254:359|211:350,1,90,0|0,3:0|1:0,0:0:0:0:
130,311,80090,1,0,3:0:0:0:
130,311,80570,2,0,P|151:271|156:227,1,90,4|0,1:2|3:0,0:0:0:0:
96,159,81530,2,0,L|6:170,2,90,0|0|4,1:0|3:0|1:2,0:0:0:0:
269,365,83930,5,0,3:0:0:0:
303,282,84410,2,0,P|345:268|390:269,1,90,4|0,1:2|3:0,0:0:0:0:
361,355,85370,2,0,P|403:368|448:366,1,90,0|0,1:0|3:0,0:0:0:0:
491,287,86330,5,8,0:0:0:0:
470,108,87290,1,8,0:0:0:0:
293,71,88250,6,0,B|173:49|173:49|125:83,2,180,6|2|4,1:2|1:2|1:2,0:0:0:0:
379,94,90650,1,0,3:0:0:0:
379,94,91130,2,0,P|406:53|461:20,2,90,0|0|4,1:0|3:0|1:2,0:0:0:0:
442,157,92570,1,0,3:0:0:0:
442,157,93050,2,0,P|464:200|465:265,2,90,0|0|4,1:0|3:0|1:2,0:0:0:0:
325,294,94970,1,0,1:0:0:0:
145,290,95930,5,4,1:2:0:0:
67,244,96410,1,0,3:0:0:0:
67,244,96890,2,0,P|56:198|62:157,1,90,0|0,1:0|3:0,0:0:0:0:
145,196,97850,2,0,P|177:166|219:149,1,90,4|0,1:2|3:0,0:0:0:0:
152,89,98810,2,0,L|139:-11,2,90,0|0|4,1:0|3:0|1:2,0:0:0:0:
427,212,101210,5,8,3:2:0:0:
357,268,101690,2,0,P|348:312|353:356,1,90,4|0,1:2|3:0,0:0:0:0:
442,371,102650,2,0,P|462:330|467:286,2,90,0|0|4,1:0|3:0|1:2,0:0:0:0:
264,342,104570,1,0,1:0:0:0:
264,342,105050,1,0,3:0:0:0:
264,342,105530,6,0,B|145:320|145:320|94:351,1,180,4|0,1:2|1:0,0:0:0:0:
53,270,106970,1,0,3:0:0:0:
53,270,107450,2,0,P|138:216|224:253,2,180,4|0|4,1:2|1:0|1:2,0:0:0:0:
270,110,110810,5,8,3:2:0:0:
270,110,111290,2,0,P|281:66|277:22,1,90,4|0,1:2|3:0,0:0:0:0:
193,54,112250,2,0,L|103:46,1,90,0|0,1:0|3:0,0:0:0:0:
39,109,113210,2,0,P|36:153|51:195,2,90,4|0|0,1:2|3:0|1:0,0:0:0:0:
12,23,114650,1,0,3:0:0:0:
256,192,115130,12,12,117050,3:2:0:0:
262,320,118970,5,4,1:2:0:0:
262,320,119450,2,0,L|370:329,1,90,0|0,3:0|1:0,0:0:0:0:
441,337,120410,1,0,3:0:0:0:
441,337,120890,1,0,1:0:0:0:
292,234,121850,2,0,P|252:229|180:268,1,90,0|0,1:0|1:0,0:0:0:0:
256,192,122810,12,12,124730,3:2:0:0:
