osu file format v14

[General]
AudioFilename: audio.mp3
AudioLeadIn: 0
PreviewTime: -1
Countdown: 1
SampleSet: Normal
StackLeniency: 0.7
Mode: 0
LetterboxInBreaks: 0
WidescreenStoryboard: 0

[Editor]
DistanceSpacing: 1.7
BeatDivisor: 6
GridSize: 32
TimelineZoom: 1

[Metadata]
Title:Chemita te destrosa (Rap Remix Dalas Review)
TitleUnicode:Chemita te destrosa (Rap Remix Dalas Review)
Artist:Chemita
ArtistUnicode:Chemita
Creator:Vitu
Version:No es una Roma
Source:
Tags:
BeatmapID:1487446
BeatmapSetID:703012

[Difficulty]
HPDrainRate:5
CircleSize:4
OverallDifficulty:9
ApproachRate:9.7
SliderMultiplier:1.4
SliderTickRate:1

[Events]
//Background and Video events
0,0,"Dalas Review.jpg",0,0
//Break Periods
2,29310,34561
2,72755,79225
//Storyboard Layer 0 (Background)
//Storyboard Layer 1 (Fail)
//Storyboard Layer 2 (Pass)
//Storyboard Layer 3 (Foreground)
//Storyboard Sound Samples

[TimingPoints]
1519.75621871964,609.756097560976,4,1,0,100,1,0
13714,-300,4,1,0,100,0,0
15442,-50,4,1,0,100,0,0
16001,-100,4,1,0,100,0,0
22099,-66.6666666666667,4,1,0,100,0,0
24538,-100,4,1,0,100,0,0
28806,-50,4,1,0,100,0,0
36072,-66.6666666666667,4,1,0,100,0,0
36733,-200,4,1,0,100,0,0
41916,-100,4,1,0,100,0,0
49080,-66.6666666666667,4,1,0,100,0,0
51062,-50,4,1,0,100,0,0
52281,-66.6666666666667,4,1,0,100,0,0
52381,-50,4,1,0,100,0,0
65137,-66.6666666666667,4,1,0,100,0,0
65544,-50,4,1,0,100,0,0
66763,-50,4,1,0,100,0,0
83836,-100,4,1,0,100,0,0
88257,-50,4,1,0,100,0,0
126672,-133.333333333333,4,1,0,100,0,0

[HitObjects]
256,192,8531,12,0,9853,0:0:0:0:
256,96,10513,5,0,0:0:0:0:
416,128,11123,2,0,B|480:192|448:256|448:256,1,140
224,288,12342,1,0,0:0:0:0:
96,64,12647,5,0,0:0:0:0:
416,160,12800,1,0,0:0:0:0:
96,288,12952,1,0,0:0:0:0:
320,64,13105,1,0,0:0:0:0:
320,320,13257,1,0,0:0:0:0:
128,96,13410,1,0,0:0:0:0:
416,192,13562,1,0,0:0:0:0:
288,96,13714,2,0,P|224:64|192:96,1,105
96,128,15442,2,0,P|96:192|96:192,1,46.6666666666667
256,288,16001,5,0,0:0:0:0:
384,160,16611,2,0,P|416:96|352:64,1,140
128,192,17576,1,0,0:0:0:0:
256,192,17881,1,0,0:0:0:0:
416,192,18084,1,0,0:0:0:0:
128,160,18897,5,0,0:0:0:0:
288,64,19050,1,0,0:0:0:0:
384,224,19202,1,0,0:0:0:0:
224,320,19355,1,0,0:0:0:0:
128,160,19507,2,0,P|192:96|192:96,1,70
64,320,20269,5,0,0:0:0:0:
448,256,20422,1,0,0:0:0:0:
64,160,20574,1,0,0:0:0:0:
448,64,20727,1,0,0:0:0:0:
224,320,20879,1,0,0:0:0:0:
96,64,21031,1,0,0:0:0:0:
352,64,21489,2,0,L|416:160,1,105
416,192,22099,2,0,L|384:224,1,35
97,179,22708,5,0,0:0:0:0:
101,184,22861,1,0,0:0:0:0:
108,193,23013,1,0,0:0:0:0:
108,193,23166,1,0,0:0:0:0:
214,300,23470,1,0,0:0:0:0:
392,250,23775,1,0,0:0:0:0:
421,94,24080,1,0,0:0:0:0:
287,81,24538,2,0,B|249:36|173:47,1,105
75,53,25300,1,0,0:0:0:0:
79,247,25452,1,0,0:0:0:0:
222,113,25910,5,0,0:0:0:0:
245,276,26062,1,0,0:0:0:0:
455,108,26214,1,0,0:0:0:0:
427,278,26367,1,0,0:0:0:0:
344,41,26519,1,0,0:0:0:0:
113,37,27129,5,0,0:0:0:0:
404,42,27281,1,0,0:0:0:0:
107,207,27434,1,0,0:0:0:0:
409,187,27586,1,0,0:0:0:0:
110,341,27739,1,0,0:0:0:0:
408,338,28349,5,0,0:0:0:0:
89,217,28501,1,0,0:0:0:0:
426,169,28653,1,0,0:0:0:0:
89,80,28806,1,0,0:0:0:0:
381,63,28958,2,0,P|418:90|399:129,1,70
67,66,35056,5,0,0:0:0:0:
64,281,35208,1,0,0:0:0:0:
259,57,35361,1,0,0:0:0:0:
255,284,35513,1,0,0:0:0:0:
453,69,35666,1,0,0:0:0:0:
387,238,36072,2,0,L|355:310,1,52.5000020027161
261,232,36733,2,0,L|228:290,1,52.5000020027161
161,247,37800,5,0,0:0:0:0:
151,213,37876,1,0,0:0:0:0:
149,178,37952,1,0,0:0:0:0:
156,143,38028,1,0,0:0:0:0:
169,111,38105,1,0,0:0:0:0:
190,82,38181,1,0,0:0:0:0:
216,59,38257,1,0,0:0:0:0:
247,42,38333,1,0,0:0:0:0:
281,33,38410,1,0,0:0:0:0:
316,31,38486,1,0,0:0:0:0:
422,176,39324,5,0,0:0:0:0:
143,217,39477,1,0,0:0:0:0:
340,59,39629,1,0,0:0:0:0:
320,295,39781,1,0,0:0:0:0:
181,67,39934,1,0,0:0:0:0:
126,150,40544,1,0,0:0:0:0:
243,148,40849,1,0,0:0:0:0:
375,147,41153,1,0,0:0:0:0:
414,91,41916,2,0,L|415:160,1,70
325,71,42881,2,0,B|326:157|326:155,1,70
118,163,44050,5,0,0:0:0:0:
227,319,44202,1,0,0:0:0:0:
362,154,44355,1,0,0:0:0:0:
444,317,44812,1,0,0:0:0:0:
431,53,44964,1,0,0:0:0:0:
261,302,45117,1,0,0:0:0:0:
256,56,45269,1,0,0:0:0:0:
96,305,45422,1,0,0:0:0:0:
92,65,45574,1,0,0:0:0:0:
214,117,46031,5,0,0:0:0:0:
306,220,46184,1,0,0:0:0:0:
162,209,46336,1,0,0:0:0:0:
292,86,46489,1,0,0:0:0:0:
136,91,46641,1,0,0:0:0:0:
103,139,47251,5,0,0:0:0:0:
255,54,47403,1,0,0:0:0:0:
230,223,47556,1,0,0:0:0:0:
406,105,47708,1,0,0:0:0:0:
394,303,47861,1,0,0:0:0:0:
419,298,48470,1,0,0:0:0:0:
421,118,48623,1,0,0:0:0:0:
246,218,48775,1,0,0:0:0:0:
264,47,48928,1,0,0:0:0:0:
94,118,49080,2,0,P|42:173|47:183,1,105
186,293,49842,5,0,0:0:0:0:
358,144,49995,1,0,0:0:0:0:
361,305,50147,1,0,0:0:0:0:
194,143,50300,2,0,P|165:90|178:47,1,105.000004005432
428,170,51062,2,0,P|444:227|385:212,1,105.000004005432
84,176,51672,2,0,P|60:145|113:125,1,105.000004005432
404,88,52281,1,0,0:0:0:0:
405,293,52434,1,0,0:0:0:0:
157,295,52586,1,0,0:0:0:0:
158,96,52739,1,0,0:0:0:0:
369,93,53196,6,0,L|372:260,1,140
181,70,54568,1,0,0:0:0:0:
191,71,54720,2,0,L|346:72,1,105.000004005432
388,114,55788,1,0,0:0:0:0:
224,328,55940,1,0,0:0:0:0:
145,111,56092,1,0,0:0:0:0:
396,258,56245,1,0,0:0:0:0:
89,252,56397,1,0,0:0:0:0:
117,122,57160,5,0,0:0:0:0:
245,57,57464,1,0,0:0:0:0:
443,98,57769,1,0,0:0:0:0:
451,268,58227,2,0,P|366:331|318:314,1,157.500006008148
283,297,58735,1,0,0:0:0:0:
96,96,59395,1,0,0:0:0:0:
288,256,59598,1,0,0:0:0:0:
224,64,59751,1,0,0:0:0:0:
128,256,59903,1,0,0:0:0:0:
352,96,60055,1,0,0:0:0:0:
394,147,60666,5,0,0:0:0:0:
357,260,60818,1,0,0:0:0:0:
210,288,60970,2,0,B|100:290|100:290|98:241|98:186,1,210.000008010865
256,192,62190,12,0,63714,0:0:0:0:
414,168,64527,5,0,0:0:0:0:
414,212,64731,2,0,P|353:308|272:313,1,157.500006008148
288,320,65188,2,0,L|224:288,1,46.6666666666667
96,224,65544,1,0,0:0:0:0:
62,209,65696,2,0,P|51:90|103:44,1,157.500006008148
103,51,66204,2,0,L|174:37,1,70.0000026702882
304,60,66763,1,0,0:0:0:0:
343,63,66916,2,0,P|451:106|488:165,1,157.500006008148
469,168,67373,2,0,L|443:259,1,93.3333333333333
118,66,68135,1,0,0:0:0:0:
345,65,68288,1,0,0:0:0:0:
134,253,68440,1,0,0:0:0:0:
338,254,68592,1,0,0:0:0:0:
101,244,69355,2,0,L|100:304,1,52.5000020027161
74,58,70041,5,0,0:0:0:0:
74,273,70193,1,0,0:0:0:0:
241,67,70345,1,0,0:0:0:0:
264,273,70498,1,0,0:0:0:0:
426,75,70650,1,0,0:0:0:0:
442,272,70803,1,0,0:0:0:0:
259,144,71184,2,0,P|260:222|260:226,2,70
451,124,72251,1,0,0:0:0:0:
454,155,72403,2,0,L|454:247,1,70
439,70,79720,5,0,0:0:0:0:
375,321,79873,1,0,0:0:0:0:
258,68,80025,1,0,0:0:0:0:
155,326,80178,1,0,0:0:0:0:
72,69,80330,1,0,0:0:0:0:
363,80,80940,1,0,0:0:0:0:
372,127,81092,2,0,L|374:225,1,70
326,288,81550,1,0,0:0:0:0:
208,311,81702,1,0,0:0:0:0:
191,96,82160,5,0,0:0:0:0:
351,99,82312,1,0,0:0:0:0:
188,242,82464,1,0,0:0:0:0:
360,239,82617,1,0,0:0:0:0:
258,62,82769,1,0,0:0:0:0:
257,296,82922,1,0,0:0:0:0:
289,169,83379,5,0,0:0:0:0:
320,58,83531,1,0,0:0:0:0:
233,62,83684,1,0,0:0:0:0:
248,198,83836,2,0,L|252:262,1,35
253,268,84141,1,0,0:0:0:0:
425,78,84294,1,0,0:0:0:0:
383,268,84599,5,0,0:0:0:0:
247,334,84751,1,0,0:0:0:0:
269,157,84903,1,0,0:0:0:0:
187,77,85056,2,0,P|144:49|118:76,1,70
30,157,85513,1,0,0:0:0:0:
420,215,86428,2,0,L|421:278,1,35
459,161,87647,5,0,0:0:0:0:
358,100,87800,1,0,0:0:0:0:
228,65,87952,1,0,0:0:0:0:
114,159,88257,2,0,L|76:236,1,70
201,304,88867,2,0,L|298:304,1,70
404,306,89629,1,0,0:0:0:0:
477,251,89781,1,0,0:0:0:0:
374,177,90086,1,0,0:0:0:0:
282,106,90239,1,0,0:0:0:0:
277,102,90544,2,0,P|199:78|144:96,1,140
274,75,91306,5,0,0:0:0:0:
302,209,91458,1,0,0:0:0:0:
127,238,91611,1,0,0:0:0:0:
104,96,91763,1,0,0:0:0:0:
242,61,91916,1,0,0:0:0:0:
275,202,92068,1,0,0:0:0:0:
134,235,92220,1,0,0:0:0:0:
251,76,92830,5,0,0:0:0:0:
260,91,92983,2,0,L|286:159,1,70
163,252,93288,1,0,0:0:0:0:
308,257,93440,2,0,P|364:271|372:295,1,70
307,89,93897,5,0,0:0:0:0:
346,105,93972,1,0,0:0:0:0:
379,131,94049,1,0,0:0:0:0:
406,164,94125,1,0,0:0:0:0:
421,204,94201,1,0,0:0:0:0:
420,246,94277,1,0,0:0:0:0:
400,284,94354,5,0,0:0:0:0:
368,311,94430,1,0,0:0:0:0:
328,327,94506,1,0,0:0:0:0:
287,335,94582,5,0,0:0:0:0:
244,336,94658,1,0,0:0:0:0:
202,331,94735,1,0,0:0:0:0:
161,318,94811,5,0,0:0:0:0:
123,298,94887,1,0,0:0:0:0:
91,271,94963,1,0,0:0:0:0:
67,236,95039,1,0,0:0:0:0:
54,195,95116,1,0,0:0:0:0:
57,152,95192,5,0,0:0:0:0:
74,113,95268,1,0,0:0:0:0:
102,82,95345,1,0,0:0:0:0:
132,57,95422,1,0,0:0:0:0:
166,46,95498,1,0,0:0:0:0:
197,38,95574,5,0,0:0:0:0:
233,35,95650,1,0,0:0:0:0:
269,35,95727,1,0,0:0:0:0:
305,37,95803,1,0,0:0:0:0:
338,40,95879,1,0,0:0:0:0:
370,51,95955,5,0,0:0:0:0:
399,74,96031,1,0,0:0:0:0:
417,106,96108,1,0,0:0:0:0:
431,140,96184,1,0,0:0:0:0:
441,173,96260,1,0,0:0:0:0:
446,209,96336,5,0,0:0:0:0:
446,244,96413,1,0,0:0:0:0:
437,278,96489,1,0,0:0:0:0:
412,305,96565,1,0,0:0:0:0:
377,313,96641,1,0,0:0:0:0:
344,315,96717,1,0,0:0:0:0:
256,192,96946,12,0,97556,0:0:0:0:
211,106,97861,5,0,0:0:0:0:
414,204,98013,1,0,0:0:0:0:
199,242,98166,1,0,0:0:0:0:
341,95,98318,1,0,0:0:0:0:
347,300,98470,1,0,0:0:0:0:
177,95,98623,1,0,0:0:0:0:
81,200,98775,2,0,L|80:298,1,70
153,75,100350,5,0,0:0:0:0:
281,76,100503,1,0,0:0:0:0:
393,86,100655,1,0,0:0:0:0:
391,293,100808,2,0,P|315:315|311:307,1,70
276,191,102281,2,0,L|279:305,1,70
373,209,103196,2,0,L|375:305,1,70
477,296,103501,1,0,0:0:0:0:
470,78,103653,1,0,0:0:0:0:
386,128,104416,5,0,0:0:0:0:
223,88,104568,2,0,P|182:70|161:77,1,52.5
222,222,104797,1,0,0:0:0:0:
228,222,104873,1,0,0:0:0:0:
237,222,104949,2,0,P|292:215|295:216,1,52.5
411,190,106245,2,0,L|412:302,1,70
255,194,108531,1,0,0:0:0:0:
255,194,110513,1,0,0:0:0:0:
255,194,110666,1,0,0:0:0:0:
256,193,111733,5,0,0:0:0:0:
256,193,112647,1,0,0:0:0:0:
256,193,113257,1,0,0:0:0:0:
256,192,114934,1,0,0:0:0:0:
256,192,115239,1,0,0:0:0:0:
256,192,116458,1,0,0:0:0:0:
255,192,117678,1,0,0:0:0:0:
255,192,118288,1,0,0:0:0:0:
255,192,119202,5,0,0:0:0:0:
255,192,119507,1,0,0:0:0:0:
255,192,119660,1,0,0:0:0:0:
255,192,119964,1,0,0:0:0:0:
255,192,120269,1,0,0:0:0:0:
255,192,120727,1,0,0:0:0:0:
255,192,122099,1,0,0:0:0:0:
255,192,122556,1,0,0:0:0:0:
255,192,123166,1,0,0:0:0:0:
256,192,124690,5,0,0:0:0:0:
256,191,124995,1,0,0:0:0:0:
256,191,125605,1,0,0:0:0:0:
256,191,126519,1,0,0:0:0:0:
292,191,126672,2,0,P|396:207|452:287,1,183.750007009506
451,316,127891,1,0,0:0:0:0:
