osu file format v14

[General]
AudioFilename: audio.mp3
AudioLeadIn: 0
PreviewTime: 57977
Countdown: 1
SampleSet: Soft
StackLeniency: 0.7
Mode: 0
LetterboxInBreaks: 0
WidescreenStoryboard: 1

[Editor]
DistanceSpacing: 1.2
BeatDivisor: 8
GridSize: 32
TimelineZoom: 1

[Metadata]
Title:I will
TitleUnicode:I will
Artist:Chelsy
ArtistUnicode:Chelsy
Creator:Uta
Version:Hard
Source:アオハライド
Tags:Aoharaido Blue Spring Ao Haru Ride ending insert song blizs fantastica
BeatmapID:1451266
BeatmapSetID:683686

[Difficulty]
HPDrainRate:4
CircleSize:3.5
OverallDifficulty:5
ApproachRate:4.5
SliderMultiplier:1.7
SliderTickRate:1

[Events]
//Background and Video events
0,0,"test.jpg",0,0
//Break Periods
//Storyboard Layer 0 (Background)
//Storyboard Layer 1 (Fail)
//Storyboard Layer 2 (Pass)
//Storyboard Layer 3 (Foreground)
//Storyboard Sound Samples

[TimingPoints]
0,674.157303370787,4,2,1,30,1,0
1348,-133.333333333333,4,2,1,30,0,0
2022,-117.647058823529,4,2,1,30,0,0
2696,-100,4,2,1,30,0,0
11797,-100,4,2,1,30,0,0
23594,-100,4,2,1,30,0,0
24269,-100,4,2,1,25,0,0
34381,-100,4,2,1,25,0,0
35056,-100,4,2,1,30,0,0
45167,-100,4,2,1,30,0,0
45842,-100,4,2,1,30,0,0
53932,-125,4,2,1,30,0,0
55955,-100,4,2,1,30,0,0
56629,-100,4,2,1,30,0,0
56713,-100,4,2,1,40,0,0
57303,-100,4,2,1,30,0,0
57977,-100,4,2,1,50,0,0
58651,-100,4,2,1,20,0,0
59325,-100,4,2,2,50,0,1
64719,-100,4,2,2,50,0,1
67415,-100,4,2,2,50,0,1
75505,-100,4,2,2,52,0,1
76179,-100,4,2,2,54,0,1
76853,-100,4,2,2,56,0,1
77528,-100,4,2,2,58,0,1
78202,-100,4,2,2,60,0,1
78876,-100,4,2,2,50,0,1
79550,-100,4,2,2,60,0,0
80224,-100,4,2,2,65,0,0
80898,-100,4,2,2,50,0,1
91685,-100,4,2,2,50,0,0
96404,-100,4,2,2,50,0,0
97078,-100,4,2,2,40,0,0
99101,-100,4,2,2,50,0,0
99775,-100,4,2,2,45,0,0
101797,-100,4,2,2,45,0,0
102471,-100,4,2,2,50,0,0
103820,-100,4,2,2,50,0,0
105168,-133.333333333333,4,2,2,50,0,0
106516,-200,4,2,2,40,0,0
106685,-200,4,2,2,40,0,0
107865,-200,4,2,1,35,0,0

[Colours]
Combo1 : 91,205,238
Combo2 : 164,164,255
Combo3 : 28,129,253
Combo4 : 232,213,234

[HitObjects]
160,328,1348,6,0,P|160:272|152:240,1,63.7500024318696,2|0,0:0|0:0,0:0:0:0:
78,208,2022,2,0,P|78:152|90:116,1,72.2500013780594,2|0,0:0|0:0,0:0:0:0:
161,78,2696,6,0,P|204:68|248:69,1,85,2|2,0:0|0:0,0:0:0:0:
336,116,3370,1,0,0:0:0:0:
276,200,3707,1,2,0:0:0:0:
444,324,4382,1,2,0:0:0:0:
436,222,4719,1,0,0:0:0:0:
353,282,5056,1,2,0:0:0:0:
269,224,5393,6,0,P|265:173|261:132,1,85,2|2,0:0|0:0,0:0:0:0:
341,75,6067,2,0,P|346:117|349:159,1,85,0|2,0:0|0:0,0:0:0:0:
165,167,7078,2,0,P|122:163|80:168,1,85,0|0,0:0|0:0,0:0:0:0:
23,83,7752,1,0,0:0:0:0:
122,59,8089,6,0,L|240:48,2,85,2|2|0,0:0|0:0|0:0,0:0:0:0:
175,145,9101,2,0,P|228:140|283:173,1,85,2|0,0:0|0:0,0:0:0:0:
358,141,9775,1,2,0:0:0:0:
319,235,10112,2,0,P|368:240|410:229,1,85,0|2,0:0|0:0,0:0:0:0:
406,333,10786,6,0,P|455:327|497:344,2,85,2|2|0,0:0|0:0|0:0,0:0:0:0:
304,343,11797,2,0,P|207:342|174:274,1,170,2|2,0:0|0:0,0:0:0:0:
229,199,12808,2,0,P|164:182|88:233,1,127.5,2|0,0:0|0:0,0:0:0:0:
81,246,13483,6,0,P|0:192|9:117,1,170,2|0,0:0|0:0,0:0:0:0:
90,76,14494,1,2,0:0:0:0:
263,183,15168,1,2,0:0:0:0:
350,130,15505,2,0,P|356:79|345:37,1,85,0|2,0:0|0:0,0:0:0:0:
252,10,16179,6,0,P|165:17|119:80,1,170,2|0,0:0|0:0,0:0:0:0:
85,176,17191,1,2,0:0:0:0:
166,366,17865,1,0,0:0:0:0:
166,366,18202,2,0,P|220:349|273:354,1,85
266,248,18876,6,0,P|355:260|418:203,1,170,2|0,0:0|0:0,0:0:0:0:
380,115,19887,2,0,L|201:130,1,170,2|2,0:0|0:0,0:0:0:0:
155,225,20898,2,0,L|240:217,2,85,0|2|2,0:0|0:0|0:0,0:0:0:0:
229,294,23595,5,0,0:0:0:0:
229,294,23932,1,0,0:0:0:0:
322,254,24269,6,0,P|420:260|458:302,1,127.5,0|0,0:0|0:0,0:0:0:0:
462,320,24943,2,0,L|459:185,1,127.5,2|0,0:0|0:0,0:0:0:0:
456,141,25617,2,0,P|510:41|460:-23,1,170,0|2,0:0|0:0,0:0:0:0:
401,49,26629,1,0,0:0:0:0:
300,29,26966,5,0,0:0:0:0:
300,29,27303,1,0,0:0:0:0:
322,128,27640,2,0,P|270:124|230:116,1,85,2|0,0:0|0:0,0:0:0:0:
198,23,28314,1,0,0:0:0:0:
396,69,28988,1,0,0:0:0:0:
416,168,29325,1,0,0:0:0:0:
354,252,29662,5,0,0:0:0:0:
354,252,30000,1,0,0:0:0:0:
416,324,30337,1,2,0:0:0:0:
416,324,30674,1,0,0:0:0:0:
472,248,31011,2,0,L|488:159,2,85,0|0|2,0:0|0:0|0:0,0:0:0:0:
416,324,32022,1,0,0:0:0:0:
416,324,32359,5,2,0:0:0:0:
260,192,33033,2,0,P|366:139|420:171,1,170,2|0,0:0|0:0,0:0:0:0:
224,60,34382,2,0,P|175:57|126:56,1,85
52,116,35056,6,0,P|80:157|72:236,1,127.5,0|0,0:0|0:0,0:0:0:0:
48,264,35730,2,0,L|180:256,1,127.5,2|0,0:0|0:0,0:0:0:0:
212,240,36404,2,0,B|260:212|300:236|300:236|340:260|392:236,1,170,0|2,0:0|0:0,0:0:0:0:
456,180,37415,1,0,0:0:0:0:
449,78,37752,6,0,P|408:67|366:71,1,85,0|0,0:0|0:0,0:0:0:0:
314,159,38426,2,0,P|257:164|203:141,1,85,2|0,0:0|0:0,0:0:0:0:
170,74,39101,1,0,0:0:0:0:
152,277,39775,1,0,0:0:0:0:
243,231,40112,1,0,0:0:0:0:
340,259,40449,2,0,P|391:249|444:235,1,85,0|0,0:0|0:0,0:0:0:0:
464,140,41123,6,0,P|405:102|294:139,1,170,2|0,0:0|0:0,0:0:0:0:
231,185,42134,1,0,0:0:0:0:
140,136,42471,2,0,P|68:136|16:120,2,127.5,2|0|0,0:0|0:0|0:0,0:0:0:0:
226,81,43820,5,2,0:0:0:0:
205,283,44494,1,2,0:0:0:0:
205,283,44831,1,2,0:0:0:0:
304,260,45168,2,0,P|368:258|399:274,1,85,0|4,0:0|0:3,0:0:0:0:
400,281,45674,1,0,0:0:0:0:
414,296,45842,6,0,L|434:122,1,170,4|2,0:3|0:0,0:0:0:0:
363,52,46853,1,0,0:0:0:0:
363,52,47022,1,0,0:0:0:0:
363,52,47191,2,0,P|287:19|203:45,1,170,2|0,0:0|0:0,0:0:0:0:
161,133,48202,1,4,0:3:0:0:
161,133,48370,1,2,2:0:0:0:
161,133,48539,6,0,L|270:124,2,85,4|0|2,0:3|0:0|0:0,0:0:0:0:
233,211,49550,1,0,0:0:0:0:
321,172,49887,2,0,P|329:213|310:273,1,85,2|0,0:0|0:0,0:0:0:0:
265,340,50561,1,0,0:0:0:0:
374,342,50898,1,0,0:0:0:0:
374,342,51067,1,0,0:0:0:0:
374,342,51235,6,0,P|421:281|416:176,1,170,4|0,0:3|0:0,0:0:0:0:
337,133,52247,1,0,0:0:0:0:
337,133,52415,1,0,0:0:0:0:
337,133,52584,2,0,P|260:141|173:83,1,170,2|2,0:0|0:0,0:0:0:0:
101,33,53595,1,0,0:0:0:0:
39,110,53932,6,0,L|32:169,2,45.3333333333333,2|0|0,0:0|0:0|0:0,0:0:0:0:
127,172,54606,2,0,L|132:218,2,45.3333333333333,2|0|0,0:0|0:0|0:0,0:0:0:0:
46,264,55280,2,0,L|39:323,2,45.3333333333333,2|0|0,0:0|0:0|0:0,0:0:0:0:
132,218,55955,2,0,P|179:225|229:268,1,85
269,338,56629,5,4,0:3:0:0:
321,240,56966,1,8,0:3:0:0:
389,327,57303,1,4,0:3:0:0:
423,222,57640,1,4,0:3:0:0:
368,126,57977,5,0,1:0:0:0:
206,235,58314,1,0,1:0:0:0:
289,179,59325,6,0,P|217:134|136:162,1,170,4|8,0:0|0:0,0:0:0:0:
122,258,60337,1,4,0:3:0:0:
200,322,60674,2,0,P|250:317|304:309,1,85,0|2,1:0|0:0,0:0:0:0:
388,239,61348,1,8,0:0:0:0:
362,140,61685,1,4,0:3:0:0:
263,210,62022,6,0,P|250:168|243:121,1,85,4|0,0:3|0:0,0:0:0:0:
161,66,62696,2,0,P|157:109|145:155,1,85,8|4,0:0|0:3,0:0:0:0:
103,251,63370,2,0,P|144:241|187:241,1,85,0|2,1:0|0:0,0:0:0:0:
68,173,64044,1,8,0:0:0:0:
30,286,64382,1,4,0:3:0:0:
148,333,64719,6,0,P|245:348|312:290,1,170,4|8,0:0|0:0,0:0:0:0:
350,210,65730,1,4,0:3:0:0:
342,99,66067,2,0,P|300:75|262:70,1,85
194,10,66741,2,0,P|175:47|171:89,1,85
151,189,67415,6,0,P|227:178|308:229,1,170
266,318,68426,1,0,0:0:0:0:
163,346,68764,2,0,P|122:358|80:356,1,85,0|8,1:0|0:3,0:0:0:0:
2,293,69438,1,12,0:3:0:0:
51,203,69775,1,4,0:3:0:0:
39,84,70112,6,0,P|51:34|70:4,1,85,6|2,0:0|0:0,0:0:0:0:
167,29,70786,1,8,0:0:0:0:
212,132,71123,1,0,1:0:0:0:
212,132,71292,1,2,0:0:0:0:
212,132,71460,2,0,L|301:123,1,85,0|2,1:0|0:0,0:0:0:0:
368,49,72134,1,8,0:0:0:0:
447,129,72471,1,4,0:3:0:0:
447,129,72640,1,2,0:0:0:0:
447,129,72808,6,0,P|447:185|443:220,1,85,4|2,0:3|0:0,0:0:0:0:
339,179,73483,2,0,P|291:173|248:173,1,85,8|4,0:0|0:3,0:0:0:0:
144,173,74157,2,0,P|94:170|54:156,2,85,0|2|8,1:0|0:0|0:0,0:0:0:0:
254,172,75168,1,4,0:3:0:0:
206,258,75505,6,0,P|205:300|200:342,1,85,6|0,0:0|0:0,0:0:0:0:
335,329,76179,2,0,P|327:288|317:246,1,85,10|0,0:0|0:0,0:0:0:0:
271,88,76853,2,0,P|263:130|252:171,1,85,2|4,1:2|0:3,0:0:0:0:
408,260,77528,2,0,P|397:218|385:175,1,85,12|0,1:2|0:0,0:0:0:0:
286,58,78202,6,0,P|240:57|185:65,1,85,2|4,1:2|0:3,0:0:0:0:
139,160,78876,1,8,1:2:0:0:
139,160,79550,2,0,P|143:230|151:269,1,85,0|4,1:0|0:3,0:0:0:0:
267,280,80224,1,6,1:2:0:0:
247,179,80561,1,2,0:0:0:0:
341,89,80898,6,0,P|434:84|495:158,1,170,4|8,0:0|0:0,0:0:0:0:
393,183,81910,1,2,0:0:0:0:
442,275,82247,2,0,P|400:281|358:281,1,85,4|0,0:3|1:0,0:0:0:0:
393,183,82921,1,8,0:0:0:0:
330,102,83258,1,4,0:3:0:0:
278,190,83595,6,0,P|227:193|174:200,1,85,4|0,0:3|0:0,0:0:0:0:
142,285,84269,2,0,P|192:288|246:295,1,85,8|4,0:0|0:3,0:0:0:0:
307,355,84943,2,0,P|364:343|391:322,1,85,0|2,1:0|0:0,0:0:0:0:
354,233,85617,1,8,0:0:0:0:
354,233,85955,1,4,0:3:0:0:
402,115,86292,6,0,P|325:102|253:165,1,170,6|8,0:0|0:0,0:0:0:0:
239,256,87303,1,4,0:3:0:0:
154,312,87640,2,0,P|111:312|74:293,1,85,0|2,1:0|0:0,0:0:0:0:
47,195,88314,2,0,P|47:152|66:115,1,85,8|4,0:0|0:3,0:0:0:0:
144,37,88988,6,0,P|224:23|282:81,1,170,4|8,0:3|0:0,0:0:0:0:
218,161,90000,1,4,0:3:0:0:
262,254,90337,2,0,P|217:249|161:248,1,85,0|0,1:0|1:0,0:0:0:0:
320,170,91011,2,0,P|365:165|421:164,1,85,8|4,1:3|0:3,0:0:0:0:
431,264,91685,6,0,P|481:245|502:218,1,85,6|0,0:0|0:0,0:0:0:0:
508,119,92359,1,8,0:0:0:0:
431,51,92696,1,4,0:3:0:0:
431,51,92865,1,2,0:0:0:0:
431,51,93033,2,0,P|375:52|325:37,1,85,0|2,1:0|0:0,0:0:0:0:
248,18,93707,1,8,0:0:0:0:
151,71,94044,1,4,0:3:0:0:
151,71,94213,1,2,0:0:0:0:
151,71,94382,6,0,P|169:118|172:180,1,85,4|2,0:3|0:0,0:0:0:0:
240,267,95056,2,0,P|248:217|277:162,1,85,8|4,0:0|0:3,0:0:0:0:
173,152,95730,1,4,0:3:0:0:
173,152,96404,2,0,L|257:143,1,85,8|4,1:2|1:3,0:0:0:0:
372,35,97078,6,0,L|251:48,1,85,4|2,0:0|0:0,0:0:0:0:
257,143,97752,2,0,L|378:156,1,85,8|4,0:0|0:3,0:0:0:0:
434,141,98426,1,4,0:3:0:0:
302,313,99101,6,0,L|289:192,1,85,12|0,1:2|0:0,0:0:0:0:
195,199,99775,2,0,L|182:320,1,85,4|2,0:0|0:0,0:0:0:0:
226,367,100449,1,8,0:0:0:0:
375,335,101123,6,0,L|484:321,1,85,4|4,0:3|0:3,0:0:0:0:
503,235,101797,2,0,L|405:225,1,85,12|4,1:2|0:3,0:0:0:0:
310,157,102471,6,0,P|190:157|192:272,1,255,6|4,0:2|0:3,0:0:0:0:
227,361,103820,2,0,L|134:354,1,85,4|0,0:0|0:0,0:0:0:0:
187,267,104494,2,0,L|271:260,1,85,4|4,0:3|0:3,0:0:0:0:
333,204,105168,1,0,1:0:0:0:
354,284,105505,1,8,0:3:0:0:
418,231,105842,1,4,0:3:0:0:
397,151,106179,1,4,0:3:0:0:
308,103,106516,6,0,B|252:84|215:98|215:98|175:111|136:98,1,170,6|2,0:0|0:0,0:0:0:0:
