osu file format v14

[General]
AudioFilename: audio.mp3
AudioLeadIn: 0
PreviewTime: 57977
Countdown: 1
SampleSet: Soft
StackLeniency: 0.7
Mode: 0
LetterboxInBreaks: 0
WidescreenStoryboard: 1

[Editor]
DistanceSpacing: 1.6
BeatDivisor: 8
GridSize: 8
TimelineZoom: 1

[Metadata]
Title:I will
TitleUnicode:I will
Artist:Chelsy
ArtistUnicode:Chelsy
Creator:Uta
Version:F Ant's Promise
Source:アオハライド
Tags:Aoharaido Blue Spring Ao Haru Ride ending insert song blizs fantastica
BeatmapID:1458940
BeatmapSetID:683686

[Difficulty]
HPDrainRate:5
CircleSize:4
OverallDifficulty:5.5
ApproachRate:6
SliderMultiplier:2
SliderTickRate:1

[Events]
//Background and Video events
0,0,"test.jpg",0,0
//Break Periods
//Storyboard Layer 0 (Background)
//Storyboard Layer 1 (Fail)
//Storyboard Layer 2 (Pass)
//Storyboard Layer 3 (Foreground)
//Storyboard Sound Samples

[TimingPoints]
0,674.157303370787,4,2,1,30,1,0
0,-117.647058823529,4,2,1,30,0,0
24269,-125,4,2,1,25,0,0
35056,-125,4,2,1,30,0,0
45842,-111.111111111111,4,2,1,30,0,0
56629,-105.263157894737,4,2,1,30,0,0
56713,-105.263157894737,4,2,1,40,0,0
57303,-105.263157894737,4,2,1,30,0,0
57977,-105.263157894737,4,2,1,50,0,0
58651,-105.263157894737,4,2,1,20,0,0
59325,-100,4,2,2,50,0,1
75505,-95.2380952380952,4,2,2,52,0,1
76179,-90.9090909090909,4,2,2,54,0,1
76853,-86.9565217391304,4,2,2,56,0,1
77528,-83.3333333333333,4,2,2,58,0,1
78202,-80,4,2,2,60,0,1
78876,-80,4,2,2,50,0,1
79550,-80,4,2,2,60,0,0
80224,-74.0740740740741,4,2,2,65,0,0
80898,-100,4,2,2,50,0,1
97078,-100,4,2,2,40,0,1
99101,-100,4,2,2,50,0,1
99775,-100,4,2,2,45,0,1
102471,-100,4,2,2,50,0,1
106516,-100,4,2,2,40,0,0
107865,-100,4,2,1,37,0,0
108033,-100,4,2,1,35,0,0
108202,-100,4,2,1,33,0,0
108370,-100,4,2,1,31,0,0
108539,-100,4,2,1,29,0,0
108707,-100,4,2,1,27,0,0
108876,-100,4,2,1,25,0,0
109044,-100,4,2,1,23,0,0
109213,-100,4,2,1,21,0,0
109382,-100,4,2,1,19,0,0
109550,-100,4,2,1,17,0,0
109719,-100,4,2,1,15,0,0
109887,-100,4,2,1,13,0,0
110056,-100,4,2,1,11,0,0
110224,-100,4,2,1,9,0,0
110393,-100,4,2,1,7,0,0
110561,-100,4,2,1,5,0,0

[Colours]
Combo1 : 91,205,238
Combo2 : 164,164,255
Combo3 : 28,129,253
Combo4 : 232,213,234

[HitObjects]
136,49,1348,5,2,0:0:0:0:
142,63,2022,1,2,0:0:0:0:
148,76,2696,5,2,0:0:0:0:
234,111,3033,2,0,P|276:105|318:99,1,85.0000016212464,2|0,0:0|0:0,0:0:0:0:
427,72,3707,2,0,P|410:111|395:150,1,85.0000016212464,2|0,0:0|0:0,0:0:0:0:
364,258,4382,2,0,P|338:225|312:192,2,85.0000016212464,2|0|2,0:0|0:0|0:0,0:0:0:0:
260,362,5393,5,2,0:0:0:0:
260,362,5730,2,0,P|266:320|272:278,1,85.0000016212464,2|0,0:0|0:0,0:0:0:0:
312,192,6404,2,0,B|272:173|231:193|231:193|190:213|149:193,1,170.000003242493,2|0,0:0|0:0,0:0:0:0:
189,107,7415,1,0,0:0:0:0:
189,107,8089,5,2,0:0:0:0:
148,192,8426,2,0,P|154:234|160:276,1,85.0000016212464,2|0,0:0|0:0,0:0:0:0:
264,374,9101,2,0,P|258:332|252:290,1,85.0000016212464,2|0,0:0|0:0,0:0:0:0:
318,155,9775,2,0,P|324:197|330:239,2,85.0000016212464,2|0|2,0:0|0:0|0:0,0:0:0:0:
415,298,10786,5,2,0:0:0:0:
415,298,11123,2,0,P|386:328|346:342,1,85.0000016212464,2|0,0:0|0:0,0:0:0:0:
160,276,11797,1,2,0:0:0:0:
160,276,12471,2,0,L|157:330,1,42.5000008106232,2|0,0:0|0:0,0:0:0:0:
176,361,12808,2,0,P|134:355|92:349,1,85.0000016212464,2|0,0:0|0:0,0:0:0:0:
256,312,13483,5,2,0:0:0:0:
336,361,13820,2,0,P|379:354|421:348,1,85.0000016212464,2|0,0:0|0:0,0:0:0:0:
501,267,14494,2,0,P|459:261|417:255,1,85.0000016212464,2|0,0:0|0:0,0:0:0:0:
335,173,15168,2,0,P|377:167|419:160,2,85.0000016212464,2|0|2,0:0|0:0|0:0,0:0:0:0:
164,90,16179,5,2,0:0:0:0:
164,90,16516,2,0,P|156:48|166:7,1,85.0000016212464,2|0,0:0|0:0,0:0:0:0:
250,50,17191,2,0,B|270:91|250:132|250:132|230:173|249:213,1,170.000003242493,2|0,0:0|0:0,0:0:0:0:
280,301,18202,2,0,P|237:295|195:288,1,85.0000016212464
37,321,18876,5,2,0:0:0:0:
107,259,19213,2,0,P|101:216|94:174,1,85.0000016212464,2|0,0:0|0:0,0:0:0:0:
165,111,19887,2,0,P|203:128|245:123,1,85.0000016212464,2|0,0:0|0:0,0:0:0:0:
321,177,20561,2,0,P|359:160|401:165,2,85.0000016212464,2|0|2,0:0|0:0|0:0,0:0:0:0:
245,123,21573,6,0,B|273:84|331:59|393:69|393:69|443:82|484:33|454:-35|396:-42|349:-9|344:49|393:69|393:69|442:78|470:104,1,510.000009727478,2|0,0:0|0:0,0:0:0:0:
436,192,23932,1,0,0:0:0:0:
472,278,24269,6,0,P|450:331|352:324,2,160,0|2|0,0:0|0:0|0:0,0:0:0:0:
436,192,25955,1,0,0:0:0:0:
472,105,26292,2,0,P|463:66|457:27,1,80,2|0,0:0|0:0,0:0:0:0:
359,100,26966,6,0,P|352:139|344:178,1,80
252,185,27640,2,0,P|237:147|225:109,1,80,2|0,0:0|0:0,0:0:0:0:
288,42,28314,1,0,0:0:0:0:
288,42,28988,1,0,0:0:0:0:
225,110,29325,1,0,0:0:0:0:
146,63,29662,6,0,P|106:56|67:62,1,80,0|0,0:0|0:0,0:0:0:0:
65,155,30337,2,0,P|104:161|144:156,1,80,2|0,0:0|0:0,0:0:0:0:
225,110,31011,1,0,0:0:0:0:
294,172,31348,1,0,0:0:0:0:
255,256,31685,1,2,0:0:0:0:
162,245,32022,1,0,0:0:0:0:
144,156,32359,5,2,0:0:0:0:
144,156,33033,1,2,0:0:0:0:
144,156,34382,5,0,0:0:0:0:
226,110,34719,1,0,0:0:0:0:
294,172,35056,6,0,P|346:179|427:118,2,160,0|2|0,0:0|0:0|0:0,0:0:0:0:
226,110,36741,1,0,0:0:0:0:
144,156,37078,2,0,P|153:195|159:234,1,80,2|0,0:0|0:0,0:0:0:0:
127,359,37752,5,0,0:0:0:0:
206,313,38089,1,0,0:0:0:0:
295,337,38426,2,0,P|328:340|387:317,1,80,2|0,0:0|0:0,0:0:0:0:
478,260,39101,1,0,0:0:0:0:
478,260,39775,2,0,P|469:299|463:339,1,80
388,236,40449,6,0,P|382:196|373:157,1,80,0|0,0:0|0:0,0:0:0:0:
214,128,41123,2,0,P|248:150|280:174,1,80,2|0,0:0|0:0,0:0:0:0:
163,206,41797,2,0,P|123:211|84:220,1,80,0|0,0:0|0:0,0:0:0:0:
18,333,42471,2,0,P|58:328|96:320,1,80,2|0,0:0|0:0,0:0:0:0:
117,308,42977,1,0,0:0:0:0:
136,295,43146,6,0,L|129:374,1,80,0|0,0:0|0:0,0:0:0:0:
248,335,43820,2,0,L|242:256,1,80,2|0,0:0|0:0,0:0:0:0:
163,206,44494,1,2,0:0:0:0:
191,117,44831,2,0,L|193:90,2,26.6666666666667,2|0|0,0:0|0:0|0:0,0:0:0:0:
217,139,45168,2,0,P|256:146|299:136,1,80,0|4,0:0|0:3,0:0:0:0:
364,97,45674,1,0,0:0:0:0:
380,116,45842,6,0,L|372:207,1,89.9999972534181,4|0,0:3|0:0,0:0:0:0:
392,298,46516,1,2,0:0:0:0:
322,361,46853,1,0,0:0:0:0:
322,361,47022,1,0,0:0:0:0:
322,361,47191,2,0,P|273:349|229:343,1,89.9999972534181,2|0,0:0|0:0,0:0:0:0:
69,345,47865,1,0,0:0:0:0:
153,208,48202,1,4,0:3:0:0:
153,208,48370,1,2,2:0:0:0:
153,208,48539,6,0,P|158:252|151:296,1,89.9999972534181,4|0,0:3|0:0,0:0:0:0:
63,180,49213,2,0,P|57:135|65:91,1,89.9999972534181,2|0,0:0|0:0,0:0:0:0:
146,43,49887,2,0,P|208:81|331:65,1,179.999994506836,2|0,0:0|0:0,0:0:0:0:
406,21,50898,1,0,0:0:0:0:
406,21,51067,1,0,0:0:0:0:
406,21,51235,6,0,L|399:111,1,89.9999972534181,4|0,0:3|0:0,0:0:0:0:
346,236,51910,1,0,0:0:0:0:
251,229,52247,1,0,0:0:0:0:
251,229,52415,1,0,0:0:0:0:
251,229,52584,2,0,L|244:139,1,89.9999972534181,2|0,0:0|0:0,0:0:0:0:
190,14,53258,1,2,0:0:0:0:
95,21,53595,1,0,0:0:0:0:
95,20,53932,6,0,P|90:50|90:80,2,59.9999981689454,2|0|0,0:0|0:0|0:0,0:0:0:0:
17,123,54606,2,0,P|27:151|42:177,2,59.9999981689454,2|0|0,0:0|0:0|0:0,0:0:0:0:
1,251,55280,2,0,P|24:270|50:285,2,59.9999981689454,2|0|0,0:0|0:0|0:0,0:0:0:0:
51,369,55955,2,0,L|188:381,1,134.999995880127
255,352,56629,6,0,P|274:308|269:261,1,94.9999974632264,4|8,0:3|0:3,0:0:0:0:
208,216,57134,1,8,0:3:0:0:
191,196,57303,2,0,L|197:128,1,47.4999987316132,4|4,0:3|0:3,0:0:0:0:
277,70,57640,2,0,L|282:118,1,47.4999987316132,4|4,0:3|0:3,0:0:0:0:
351,176,57977,5,0,1:0:0:0:
126,90,58314,1,0,1:0:0:0:
282,117,58651,5,2,0:0:0:0:
195,149,58988,1,2,0:0:0:0:
392,239,59325,6,0,P|432:172|400:104,1,150,4|0,0:0|0:0,0:0:0:0:
364,48,60000,2,0,P|408:58|477:55,1,100,8|4,0:0|0:3,0:0:0:0:
282,117,60674,2,0,P|238:127|169:124,1,100,0|2,1:0|0:0,0:0:0:0:
56,38,61348,1,8,0:0:0:0:
75,146,61685,1,4,0:3:0:0:
94,254,62022,6,0,L|86:353,1,100,4|0,0:3|0:0,0:0:0:0:
299,273,62696,2,0,L|200:281,1,100,8|4,0:0|0:3,0:0:0:0:
75,146,63370,1,0,1:0:0:0:
183,126,63707,1,2,0:0:0:0:
164,18,64044,1,8,0:0:0:0:
56,38,64381,1,4,0:3:0:0:
145,228,64719,6,0,P|219:228|275:180,1,150,4|0,0:0|0:0,0:0:0:0:
340,134,65393,2,0,P|329:183|337:232,1,100,8|4,0:0|0:3,0:0:0:0:
505,365,66067,2,0,P|516:317|508:268,1,100,0|2,1:0|0:0,0:0:0:0:
337,231,66741,1,8,0:0:0:0:
437,186,67078,1,4,0:3:0:0:
265,149,67415,6,0,P|192:163|117:168,1,150,4|0,0:3|0:0,0:0:0:0:
40,193,68089,2,0,P|89:196|138:205,1,100,8|4,0:0|0:3,0:0:0:0:
281,325,68764,1,0,1:0:0:0:
265,149,69101,1,8,0:3:0:0:
175,301,69438,1,12,0:3:0:0:
337,231,69775,1,4,0:3:0:0:
165,193,70112,5,6,0:0:0:0:
260,52,70449,2,0,P|274:100|265:148,1,100,2|8,0:0|0:0,0:0:0:0:
175,301,71123,1,0,1:0:0:0:
175,301,71292,1,2,0:0:0:0:
175,301,71460,2,0,L|286:293,1,100,0|2,1:0|0:0,0:0:0:0:
265,149,72134,1,8,0:0:0:0:
165,193,72471,1,4,0:3:0:0:
165,193,72640,1,2,0:0:0:0:
165,193,72808,6,0,L|54:185,1,100,4|2,0:3|0:0,0:0:0:0:
260,52,73483,2,0,P|274:100|265:148,1,100,8|4,0:0|0:3,0:0:0:0:
354,313,74157,2,0,P|340:265|350:217,2,100,0|2|8,1:0|0:0|0:0,0:0:0:0:
450,260,75168,1,4,0:3:0:0:
265,148,75505,6,0,P|191:141|115:171,1,157.499995193482,6|0,0:0|0:0,0:0:0:0:
64,106,76179,2,0,B|77:148|59:187|59:187|41:226|54:268,1,165.000005035401,10|0,0:0|0:0,0:0:0:0:
0,326,76853,2,0,P|51:347|105:329,1,115.000002193451,2|4,1:2|0:3,0:0:0:0:
174,288,77359,1,0,0:0:0:0:
198,319,77528,2,0,L|377:308,1,179.999994506836,12|0,1:2|0:0,0:0:0:0:
442,367,78202,6,0,P|430:305|435:243,1,125,2|4,1:2|0:3,0:0:0:0:
509,57,78876,2,0,P|478:66|447:68,1,62.5,8|8,1:2|0:3,0:0:0:0:
378,111,79213,2,0,P|347:103|319:89,1,62.5,4|8,0:3|0:3,0:0:0:0:
237,91,79550,1,0,1:0:0:0:
454,268,79887,5,4,0:3:0:0:
454,268,80224,2,0,P|474:207|453:128,1,135.000000514984,6|2,1:2|0:0,0:0:0:0:
403,80,80730,1,2,0:0:0:0:
378,111,80898,6,0,B|340:122|305:106|305:106|270:90|232:102,1,150,4|0,0:0|0:0,0:0:0:0:
172,156,81573,2,0,P|123:150|74:131,1,100,8|4,0:0|0:3,0:0:0:0:
4,261,82247,2,0,P|51:244|101:238,1,100,0|2,1:0|0:0,0:0:0:0:
263,308,82921,1,8,0:0:0:0:
272,199,83258,1,4,0:3:0:0:
172,156,83595,6,0,P|168:106|186:60,1,100,4|0,0:3|0:0,0:0:0:0:
375,165,84269,2,0,P|379:214|361:261,1,100,8|4,0:0|0:3,0:0:0:0:
157,334,84943,1,0,1:0:0:0:
263,308,85280,1,2,0:0:0:0:
172,156,85617,1,8,0:0:0:0:
272,199,85955,1,4,0:3:0:0:
101,230,86292,6,0,P|66:171|82:88,1,150,6|0,0:0|0:0,0:0:0:0:
135,44,86966,2,0,L|28:32,1,100,8|4,0:0|0:3,0:0:0:0:
172,156,87640,2,0,L|271:144,1,100,0|2,1:0|0:0,0:0:0:0:
447,215,88314,1,8,0:0:0:0:
380,129,88651,1,4,0:3:0:0:
406,316,88988,5,4,0:3:0:0:
339,230,89325,1,4,0:3:0:0:
380,129,89662,1,8,0:0:0:0:
488,114,90000,1,4,0:3:0:0:
313,43,90337,1,0,1:0:0:0:
339,230,90674,1,0,1:0:0:0:
421,28,91011,1,8,1:3:0:0:
421,28,91179,1,0,1:0:0:0:
421,28,91348,1,4,0:3:0:0:
271,144,91685,6,0,B|223:166|175:142|175:142|127:119|78:142,1,200,6|8,0:0|0:0,0:0:0:0:
113,337,92696,1,4,0:3:0:0:
113,337,92865,1,2,0:0:0:0:
113,337,93033,2,0,P|130:290|126:241,1,100,0|2,1:0|0:0,0:0:0:0:
23,275,93707,1,8,0:0:0:0:
187,149,94044,1,4,0:3:0:0:
187,149,94213,1,2,0:0:0:0:
187,149,94382,6,0,L|298:143,1,100,4|2,0:3|0:0,0:0:0:0:
403,40,95056,2,0,L|304:35,1,100,8|4,0:0|0:3,0:0:0:0:
138,52,95730,1,4,0:3:0:0:
127,241,96067,1,4,1:2:0:0:
78,144,96404,1,8,1:2:0:0:
78,144,96573,1,8,1:3:0:0:
78,144,96741,1,4,1:3:0:0:
187,149,97078,6,0,L|298:143,1,100,4|2,0:0|0:0,0:0:0:0:
464,76,97752,1,8,0:0:0:0:
395,161,98089,1,4,0:3:0:0:
433,262,98426,2,0,P|441:312|429:360,1,100,4|2,0:3|0:3,0:0:0:0:
350,376,98932,1,4,0:3:0:0:
322,347,99101,2,0,L|211:353,1,100,12|0,1:2|0:0,0:0:0:0:
152,166,99775,6,0,P|164:214|156:264,1,100,4|2,0:0|0:0,0:0:0:0:
58,316,100449,2,0,P|46:268|55:219,1,100,8|4,0:0|0:3,0:0:0:0:
203,67,101123,1,4,0:3:0:0:
53,69,101460,1,4,0:3:0:0:
152,166,101797,2,0,P|200:177|249:169,1,100,12|4,1:2|0:3,0:0:0:0:
318,128,102303,1,4,0:3:0:0:
346,156,102471,6,0,P|338:230|336:305,1,150,6|0,0:2|0:0,0:0:0:0:
396,358,103146,2,0,L|460:352,2,50,0|8|4,1:0|0:3|0:3,0:0:0:0:
239,253,103820,2,0,P|185:253|129:276,1,100,4|0,0:0|0:0,0:0:0:0:
77,315,104325,1,4,0:3:0:0:
49,285,104494,2,0,L|53:235,1,50,4|4,0:3|0:3,0:0:0:0:
4,171,104831,2,0,L|42:138,1,50,4|4,0:3|0:3,0:0:0:0:
52,58,105169,5,0,1:0:0:0:
89,61,105337,1,0,1:0:0:0:
126,64,105505,1,8,0:3:0:0:
164,67,105674,1,8,0:3:0:0:
201,70,105842,2,0,L|251:66,1,50,4|4,0:3|0:3,0:0:0:0:
314,115,106179,2,0,L|364:111,1,50,4|4,0:3|0:3,0:0:0:0:
429,64,106516,6,0,B|456:95|452:149|420:178|420:178|388:217|403:271|457:295|519:277|537:217|507:165|462:162,1,400,6|2,0:0|0:0,0:0:0:0:
256,192,108033,12,4,110561,0:3:0:0:
