osu file format v14

[General]
AudioFilename: audio.mp3
AudioLeadIn: 0
PreviewTime: 68179
Countdown: 0
SampleSet: Soft
StackLeniency: 0.7
Mode: 3
LetterboxInBreaks: 0
SpecialStyle: 0
WidescreenStoryboard: 1

[Editor]
DistanceSpacing: 1.1
BeatDivisor: 6
GridSize: 8
TimelineZoom: 1.6

[Metadata]
Title:Flicker
TitleUnicode:Flicker
Artist:Chelp
ArtistUnicode:Chelp
Creator:Meowstic
Version:NM
Source:EZ2AC : EVOLVE
Tags:EZ2DJ EZ2AC Progressive Cheip
BeatmapID:1711595
BeatmapSetID:816171

[Difficulty]
HPDrainRate:6.5
CircleSize:4
OverallDifficulty:6.5
ApproachRate:5
SliderMultiplier:1.4
SliderTickRate:1

[Events]
//Background and Video events
0,0,"50040659_p0(UpRGB)(noise_scale)(Level3)(width 1280).jpg",0,0
//Break Periods
2,10562,15706
//Storyboard Layer 0 (Background)
//Storyboard Layer 1 (Fail)
//Storyboard Layer 2 (Pass)
//Storyboard Layer 3 (Foreground)
//Storyboard Sound Samples

[TimingPoints]
1634,545.454545454546,3,2,0,10,1,0
86724,-100,3,2,0,10,0,1
103634,-100,3,2,0,10,0,0

[HitObjects]
64,192,543,5,0,0:0:0:0:
320,192,1088,1,0,0:0:0:0:
192,192,2179,1,0,0:0:0:0:
64,192,3815,1,0,0:0:0:0:
448,192,4361,1,0,0:0:0:0:
320,192,5452,1,0,0:0:0:0:
64,192,7088,1,0,0:0:0:0:
448,192,7634,1,0,0:0:0:0:
192,192,8724,1,0,0:0:0:0:
320,192,10361,1,0,0:0:0:0:
64,192,16906,5,0,0:0:0:0:
64,192,17361,1,0,0:0:0:0:
320,192,17634,1,0,0:0:0:0:
192,192,17724,1,0,0:0:0:0:
64,192,17906,1,0,0:0:0:0:
448,192,18179,1,0,0:0:0:0:
320,192,18543,1,0,0:0:0:0:
192,192,19088,1,0,0:0:0:0:
192,192,19270,1,0,0:0:0:0:
192,192,19543,1,0,0:0:0:0:
448,192,19815,1,0,0:0:0:0:
64,192,19906,1,0,0:0:0:0:
320,192,20088,1,0,0:0:0:0:
448,192,20906,1,0,0:0:0:0:
192,192,20997,1,0,0:0:0:0:
64,192,21179,1,0,0:0:0:0:
320,192,21270,1,0,0:0:0:0:
320,192,21452,1,0,0:0:0:0:
192,192,21724,1,0,0:0:0:0:
192,192,21997,1,0,0:0:0:0:
64,192,22270,1,0,0:0:0:0:
320,192,22543,1,0,0:0:0:0:
448,192,22634,1,0,0:0:0:0:
192,192,22815,1,0,0:0:0:0:
320,192,22906,1,0,0:0:0:0:
64,192,23088,1,0,0:0:0:0:
192,192,23179,1,0,0:0:0:0:
448,192,23361,1,0,0:0:0:0:
192,192,23452,1,0,0:0:0:0:
192,192,23634,1,0,0:0:0:0:
448,192,23906,1,0,0:0:0:0:
320,192,24179,1,0,0:0:0:0:
192,192,24452,1,0,0:0:0:0:
64,192,24997,1,0,0:0:0:0:
320,192,25634,1,0,0:0:0:0:
320,192,25906,1,0,0:0:0:0:
192,192,26179,1,0,0:0:0:0:
320,192,26361,1,0,0:0:0:0:
320,192,26634,1,0,0:0:0:0:
448,192,26906,1,0,0:0:0:0:
64,192,27270,1,0,0:0:0:0:
320,192,27815,1,0,0:0:0:0:
320,192,27997,1,0,0:0:0:0:
192,192,28088,1,0,0:0:0:0:
448,192,28270,1,0,0:0:0:0:
320,192,28543,1,0,0:0:0:0:
64,192,28815,1,0,0:0:0:0:
320,192,29997,1,0,0:0:0:0:
448,192,30179,1,0,0:0:0:0:
192,192,30270,1,0,0:0:0:0:
320,192,30452,1,0,0:0:0:0:
64,192,30724,1,0,0:0:0:0:
448,192,30997,1,0,0:0:0:0:
64,192,31270,1,0,0:0:0:0:
320,192,31361,1,0,0:0:0:0:
192,192,31543,1,0,0:0:0:0:
192,192,31815,1,0,0:0:0:0:
320,192,31906,1,0,0:0:0:0:
64,192,32088,1,0,0:0:0:0:
320,192,32179,1,0,0:0:0:0:
448,192,32179,1,0,0:0:0:0:
320,192,32634,1,0,0:0:0:0:
192,192,32634,1,0,0:0:0:0:
64,192,32997,1,0,0:0:0:0:
192,192,32997,1,0,0:0:0:0:
320,192,33452,1,0,0:0:0:0:
192,192,33452,1,0,0:0:0:0:
64,192,33815,1,0,0:0:0:0:
192,192,33815,1,0,0:0:0:0:
448,192,34088,1,0,0:0:0:0:
64,192,34634,1,0,0:0:0:0:
448,192,34906,1,0,0:0:0:0:
64,192,35179,1,0,0:0:0:0:
64,192,35724,1,0,0:0:0:0:
448,192,35997,1,0,0:0:0:0:
64,192,36270,1,0,0:0:0:0:
64,192,36815,1,0,0:0:0:0:
448,192,37088,1,0,0:0:0:0:
64,192,37361,1,0,0:0:0:0:
448,192,37815,1,0,0:0:0:0:
64,192,37906,1,0,0:0:0:0:
448,192,38179,1,0,0:0:0:0:
64,192,38452,1,0,0:0:0:0:
320,192,38997,1,0,0:0:0:0:
192,192,39270,1,0,0:0:0:0:
320,192,39543,1,0,0:0:0:0:
192,192,39997,1,0,0:0:0:0:
320,192,40088,1,0,0:0:0:0:
192,192,40361,1,0,0:0:0:0:
320,192,40634,1,0,0:0:0:0:
320,192,41179,1,0,0:0:0:0:
192,192,41452,1,0,0:0:0:0:
320,192,41724,1,0,0:0:0:0:
192,192,41997,1,0,0:0:0:0:
320,192,42270,1,0,0:0:0:0:
192,192,42452,1,0,0:0:0:0:
320,192,42815,1,0,0:0:0:0:
64,192,42815,1,0,0:0:0:0:
448,192,43088,1,0,0:0:0:0:
448,192,43361,1,0,0:0:0:0:
192,192,43634,1,0,0:0:0:0:
320,192,43634,1,0,0:0:0:0:
448,192,43815,1,0,0:0:0:0:
448,192,44088,1,0,0:0:0:0:
64,192,44361,1,0,0:0:0:0:
320,192,44361,1,0,0:0:0:0:
320,192,44724,1,0,0:0:0:0:
192,192,44724,1,0,0:0:0:0:
64,192,45179,1,0,0:0:0:0:
320,192,45270,1,0,0:0:0:0:
192,192,45452,1,0,0:0:0:0:
448,192,45543,1,0,0:0:0:0:
320,192,45724,1,0,0:0:0:0:
64,192,45724,1,0,0:0:0:0:
192,192,45997,1,0,0:0:0:0:
320,192,46270,1,0,0:0:0:0:
64,192,46270,1,0,0:0:0:0:
64,192,46543,1,0,0:0:0:0:
448,192,46634,1,0,0:0:0:0:
64,192,46906,1,0,0:0:0:0:
320,192,47452,1,0,0:0:0:0:
192,192,47452,1,0,0:0:0:0:
192,192,47906,1,0,0:0:0:0:
320,192,47906,1,0,0:0:0:0:
192,192,48179,1,0,0:0:0:0:
320,192,48179,1,0,0:0:0:0:
448,192,48452,1,0,0:0:0:0:
64,192,48452,1,0,0:0:0:0:
64,192,48997,1,0,0:0:0:0:
448,192,48997,1,0,0:0:0:0:
192,192,49634,1,0,0:0:0:0:
320,192,49634,1,0,0:0:0:0:
448,192,50634,1,0,0:0:0:0:
64,192,50634,1,0,0:0:0:0:
448,192,50906,1,0,0:0:0:0:
64,192,50906,1,0,0:0:0:0:
64,192,51179,1,0,0:0:0:0:
448,192,51270,1,0,0:0:0:0:
64,192,51815,1,0,0:0:0:0:
320,192,51952,1,0,0:0:0:0:
320,192,52270,1,0,0:0:0:0:
64,192,52634,1,0,0:0:0:0:
320,192,52815,1,0,0:0:0:0:
320,192,53088,1,0,0:0:0:0:
64,192,53452,1,0,0:0:0:0:
320,192,53634,1,0,0:0:0:0:
320,192,53906,1,0,0:0:0:0:
192,192,53997,1,0,0:0:0:0:
448,192,54179,1,0,0:0:0:0:
192,192,54452,1,0,0:0:0:0:
448,192,54543,1,0,0:0:0:0:
192,192,54815,1,0,0:0:0:0:
448,192,54997,1,0,0:0:0:0:
192,192,55088,1,0,0:0:0:0:
448,192,55270,1,0,0:0:0:0:
192,192,55361,128,0,55906:0:0:0:0:
64,192,56179,1,0,0:0:0:0:
320,192,56361,1,0,0:0:0:0:
320,192,56634,1,0,0:0:0:0:
64,192,56997,1,0,0:0:0:0:
320,192,57179,1,0,0:0:0:0:
320,192,57452,1,0,0:0:0:0:
64,192,57543,1,0,0:0:0:0:
448,192,57724,1,0,0:0:0:0:
448,192,57997,1,0,0:0:0:0:
64,192,58088,1,0,0:0:0:0:
320,192,58270,1,0,0:0:0:0:
64,192,58361,1,0,0:0:0:0:
64,192,59997,1,0,0:0:0:0:
320,192,59997,1,0,0:0:0:0:
64,192,60270,1,0,0:0:0:0:
320,192,60270,1,0,0:0:0:0:
192,192,60543,1,0,0:0:0:0:
448,192,60724,1,0,0:0:0:0:
448,192,60997,1,0,0:0:0:0:
64,192,61088,1,0,0:0:0:0:
192,192,61361,1,0,0:0:0:0:
448,192,61543,1,0,0:0:0:0:
448,192,61815,1,0,0:0:0:0:
64,192,61906,1,0,0:0:0:0:
192,192,62179,1,0,0:0:0:0:
448,192,62361,1,0,0:0:0:0:
448,192,62634,1,0,0:0:0:0:
320,192,62724,1,0,0:0:0:0:
64,192,62724,1,0,0:0:0:0:
192,192,62906,1,0,0:0:0:0:
320,192,63179,1,0,0:0:0:0:
64,192,63179,1,0,0:0:0:0:
192,192,63270,1,0,0:0:0:0:
320,192,63543,1,0,0:0:0:0:
64,192,63543,1,0,0:0:0:0:
192,192,63724,1,0,0:0:0:0:
320,192,63815,1,0,0:0:0:0:
448,192,63997,1,0,0:0:0:0:
320,192,64088,1,0,0:0:0:0:
192,192,64270,1,0,0:0:0:0:
64,192,64361,1,0,0:0:0:0:
448,192,64361,1,0,0:0:0:0:
320,192,64906,1,0,0:0:0:0:
192,192,65088,1,0,0:0:0:0:
192,192,65361,1,0,0:0:0:0:
64,192,65997,128,0,67088:0:0:0:0:
448,192,67088,1,0,0:0:0:0:
320,192,67634,1,0,0:0:0:0:
192,192,68179,1,0,0:0:0:0:
320,192,68452,1,0,0:0:0:0:
320,192,68724,1,0,0:0:0:0:
320,192,68997,1,0,0:0:0:0:
192,192,69270,1,0,0:0:0:0:
448,192,69452,1,0,0:0:0:0:
448,192,69724,1,0,0:0:0:0:
320,192,70634,1,0,0:0:0:0:
64,192,70815,1,0,0:0:0:0:
448,192,70906,1,0,0:0:0:0:
320,192,71088,1,0,0:0:0:0:
192,192,71179,1,0,0:0:0:0:
448,192,71361,1,0,0:0:0:0:
64,192,71452,1,0,0:0:0:0:
320,192,71634,1,0,0:0:0:0:
192,192,71724,1,0,0:0:0:0:
448,192,71906,1,0,0:0:0:0:
64,192,71997,1,0,0:0:0:0:
320,192,72179,1,0,0:0:0:0:
192,192,72270,1,0,0:0:0:0:
64,192,72452,1,0,0:0:0:0:
320,192,73361,1,0,0:0:0:0:
64,192,73543,1,0,0:0:0:0:
448,192,73634,1,0,0:0:0:0:
192,192,73815,1,0,0:0:0:0:
64,192,74088,1,0,0:0:0:0:
192,192,74179,1,0,0:0:0:0:
320,192,74361,1,0,0:0:0:0:
192,192,74452,1,0,0:0:0:0:
448,192,74634,1,0,0:0:0:0:
320,192,74906,1,0,0:0:0:0:
448,192,75179,1,0,0:0:0:0:
320,192,75452,1,0,0:0:0:0:
192,192,75543,1,0,0:0:0:0:
64,192,75724,1,0,0:0:0:0:
320,192,75815,1,0,0:0:0:0:
448,192,75815,1,0,0:0:0:0:
192,192,76270,1,0,0:0:0:0:
320,192,76270,1,0,0:0:0:0:
64,192,76815,1,0,0:0:0:0:
192,192,76815,1,0,0:0:0:0:
448,192,77361,1,0,0:0:0:0:
320,192,77361,1,0,0:0:0:0:
192,192,77724,1,0,0:0:0:0:
64,192,77997,1,0,0:0:0:0:
320,192,77997,1,0,0:0:0:0:
448,192,78179,1,0,0:0:0:0:
448,192,78452,1,0,0:0:0:0:
320,192,78815,1,0,0:0:0:0:
192,192,78997,1,0,0:0:0:0:
64,192,79088,1,0,0:0:0:0:
320,192,79270,1,0,0:0:0:0:
320,192,79543,1,0,0:0:0:0:
64,192,80088,1,0,0:0:0:0:
448,192,80179,1,0,0:0:0:0:
320,192,80270,1,0,0:0:0:0:
192,192,80361,1,0,0:0:0:0:
64,192,80452,1,0,0:0:0:0:
192,192,80634,1,0,0:0:0:0:
320,192,80724,1,0,0:0:0:0:
64,192,80906,1,0,0:0:0:0:
192,192,80997,1,0,0:0:0:0:
448,192,81179,128,0,81815:0:0:0:0:
320,192,81997,1,0,0:0:0:0:
192,192,82088,1,0,0:0:0:0:
64,192,82270,1,0,0:0:0:0:
448,192,82361,1,0,0:0:0:0:
320,192,82452,1,0,0:0:0:0:
192,192,82543,1,0,0:0:0:0:
64,192,82634,1,0,0:0:0:0:
320,192,82815,1,0,0:0:0:0:
192,192,82906,1,0,0:0:0:0:
448,192,83088,1,0,0:0:0:0:
192,192,83179,1,0,0:0:0:0:
64,192,83361,1,0,0:0:0:0:
320,192,83634,1,0,0:0:0:0:
64,192,83724,1,0,0:0:0:0:
448,192,83906,1,0,0:0:0:0:
192,192,83997,1,0,0:0:0:0:
64,192,84179,1,0,0:0:0:0:
320,192,84270,1,0,0:0:0:0:
192,192,84452,1,0,0:0:0:0:
448,192,84543,1,0,0:0:0:0:
320,192,84543,1,0,0:0:0:0:
192,192,84997,1,0,0:0:0:0:
320,192,84997,1,0,0:0:0:0:
64,192,85361,1,0,0:0:0:0:
192,192,85361,1,0,0:0:0:0:
320,192,85815,1,0,0:0:0:0:
448,192,85815,1,0,0:0:0:0:
64,192,86179,1,0,0:0:0:0:
192,192,86179,1,0,0:0:0:0:
192,192,86724,1,0,0:0:0:0:
448,192,86906,1,0,0:0:0:0:
448,192,87179,1,0,0:0:0:0:
320,192,88088,1,0,0:0:0:0:
64,192,88270,1,0,0:0:0:0:
448,192,88361,1,0,0:0:0:0:
320,192,88543,1,0,0:0:0:0:
192,192,88634,1,0,0:0:0:0:
448,192,88815,1,0,0:0:0:0:
64,192,88906,1,0,0:0:0:0:
320,192,89088,1,0,0:0:0:0:
192,192,89179,1,0,0:0:0:0:
448,192,89361,1,0,0:0:0:0:
64,192,89452,1,0,0:0:0:0:
448,192,89634,1,0,0:0:0:0:
320,192,89724,1,0,0:0:0:0:
192,192,89815,1,0,0:0:0:0:
64,192,89906,1,0,0:0:0:0:
448,192,89997,1,0,0:0:0:0:
320,192,90270,1,0,0:0:0:0:
64,192,90452,1,0,0:0:0:0:
448,192,90724,1,0,0:0:0:0:
64,192,90997,1,0,0:0:0:0:
320,192,91088,1,0,0:0:0:0:
192,192,91270,1,0,0:0:0:0:
192,192,91543,1,0,0:0:0:0:
64,192,91815,1,0,0:0:0:0:
320,192,91906,1,0,0:0:0:0:
192,192,92088,1,0,0:0:0:0:
448,192,92361,1,0,0:0:0:0:
192,192,92452,1,0,0:0:0:0:
64,192,92634,1,0,0:0:0:0:
448,192,92724,1,0,0:0:0:0:
320,192,92906,1,0,0:0:0:0:
192,192,92997,1,0,0:0:0:0:
64,192,93179,1,0,0:0:0:0:
448,192,93270,1,0,0:0:0:0:
320,192,93361,1,0,0:0:0:0:
192,192,93452,1,0,0:0:0:0:
64,192,93543,1,0,0:0:0:0:
192,192,93724,1,0,0:0:0:0:
448,192,93815,1,0,0:0:0:0:
64,192,93997,1,0,0:0:0:0:
320,192,94088,1,0,0:0:0:0:
448,192,94270,1,0,0:0:0:0:
320,192,94543,1,0,0:0:0:0:
192,192,94634,1,0,0:0:0:0:
64,192,94815,1,0,0:0:0:0:
448,192,95088,1,0,0:0:0:0:
192,192,95179,1,0,0:0:0:0:
320,192,95361,1,0,0:0:0:0:
448,192,95452,1,0,0:0:0:0:
64,192,95452,1,0,0:0:0:0:
64,192,95724,1,0,0:0:0:0:
448,192,95724,1,0,0:0:0:0:
320,192,95997,1,0,0:0:0:0:
448,192,96179,1,0,0:0:0:0:
192,192,96179,1,0,0:0:0:0:
448,192,96452,1,0,0:0:0:0:
192,192,96452,1,0,0:0:0:0:
64,192,96724,1,0,0:0:0:0:
448,192,96815,1,0,0:0:0:0:
64,192,97088,1,0,0:0:0:0:
448,192,97361,1,0,0:0:0:0:
64,192,97543,1,0,0:0:0:0:
448,192,97906,1,0,0:0:0:0:
64,192,98088,1,0,0:0:0:0:
448,192,98452,1,0,0:0:0:0:
192,192,98634,1,0,0:0:0:0:
320,192,98634,1,0,0:0:0:0:
64,192,98906,1,0,0:0:0:0:
448,192,98997,1,0,0:0:0:0:
64,192,99270,1,0,0:0:0:0:
192,192,99815,1,0,0:0:0:0:
320,192,99815,1,0,0:0:0:0:
192,192,100270,1,0,0:0:0:0:
320,192,100270,1,0,0:0:0:0:
320,192,100543,1,0,0:0:0:0:
192,192,100543,1,0,0:0:0:0:
448,192,100815,1,0,0:0:0:0:
64,192,100815,1,0,0:0:0:0:
64,192,101361,1,0,0:0:0:0:
448,192,101361,1,0,0:0:0:0:
192,192,101997,128,0,102724:0:0:0:0:
320,192,101997,1,0,0:0:0:0:
64,192,102997,1,0,0:0:0:0:
448,192,102997,1,0,0:0:0:0:
64,192,103270,1,0,0:0:0:0:
448,192,103270,1,0,0:0:0:0:
64,192,103543,1,0,0:0:0:0:
448,192,103634,1,0,0:0:0:0:
