osu file format v14

[General]
AudioFilename: audio.mp3
AudioLeadIn: 0
PreviewTime: 81203
Countdown: 0
SampleSet: Soft
StackLeniency: 0.7
Mode: 2
LetterboxInBreaks: 0
WidescreenStoryboard: 0

[Editor]
Bookmarks: 20775,49918,82489,88382,89239,117095
DistanceSpacing: 0.5
BeatDivisor: 4
GridSize: 16
TimelineZoom: 1

[Metadata]
Title:Y Tu Te Vas
TitleUnicode:Y TĂș Te Vas
Artist:Chayanne
ArtistUnicode:Chayanne
Creator:Aryssiel
Version:This song is also about a tragic love.
Source:
Tags:
BeatmapID:2097936
BeatmapSetID:1002288

[Difficulty]
HPDrainRate:4
CircleSize:4
OverallDifficulty:7
ApproachRate:7
SliderMultiplier:1.6
SliderTickRate:1

[Events]
//Background and Video events
0,0,"maxresdefault.jpg",0,0
//Break Periods
//Storyboard Layer 0 (Background)
//Storyboard Layer 1 (Fail)
//Storyboard Layer 2 (Pass)
//Storyboard Layer 3 (Foreground)
//Storyboard Sound Samples

[TimingPoints]
7061,428.571428571429,4,2,0,100,1,0
82489,-25,4,2,0,100,0,1
87953,428.571428571429,4,2,0,100,1,1
87953,-25,4,2,0,100,0,1
117095,-100,4,2,0,100,0,0

[HitObjects]
96,160,7061,6,0,L|256:160,2,160
416,160,8346,1,0,0:0:0:0:
336,160,8560,1,0,0:0:0:0:
496,160,8775,1,0,0:0:0:0:
32,112,9203,1,0,0:0:0:0:
480,112,9632,2,0,L|288:112,1,160
48,112,10489,5,0,0:0:0:0:
208,112,10918,1,0,0:0:0:0:
464,112,11346,2,0,P|416:176|464:224,1,160
384,224,11989,1,0,0:0:0:0:
224,192,12203,2,0,L|384:192,1,160
144,224,13061,2,0,P|97:167|146:112,1,160
224,112,13703,1,0,0:0:0:0:
384,128,13918,6,0,P|432:192|368:240,1,160
224,240,14775,2,0,P|192:192|288:160,1,160
384,128,15418,1,0,0:0:0:0:
256,128,15632,2,0,B|160:128|160:128|240:128,1,160
464,128,16489,2,0,P|480:192|432:288,1,160
48,272,17346,6,0,P|16:224|96:160,1,160
320,144,18203,1,0,0:0:0:0:
256,192,19061,12,0,20775,0:0:0:0:
112,240,21632,5,0,0:0:0:0:
32,240,21846,1,0,0:0:0:0:
112,240,22061,1,0,0:0:0:0:
192,240,22275,1,0,0:0:0:0:
32,240,22489,1,0,0:0:0:0:
256,224,24203,5,0,0:0:0:0:
128,224,24418,1,0,0:0:0:0:
368,224,24846,1,0,0:0:0:0:
128,224,25275,1,0,0:0:0:0:
368,224,25703,1,0,0:0:0:0:
368,224,25918,1,0,0:0:0:0:
256,192,28275,5,0,0:0:0:0:
144,192,28489,1,0,0:0:0:0:
64,192,28703,1,0,0:0:0:0:
224,192,28918,1,0,0:0:0:0:
304,192,29132,1,0,0:0:0:0:
464,192,29346,1,0,0:0:0:0:
384,192,29561,1,0,0:0:0:0:
64,192,29775,1,0,0:0:0:0:
96,192,31061,6,0,L|416:192,1,320
192,192,32239,2,0,L|320:192,1,120
96,192,32989,2,0,B|416:192|416:192|208:192|208:192|256:192,1,560
256,192,35775,5,0,0:0:0:0:
176,192,35989,1,0,0:0:0:0:
336,192,36203,1,0,0:0:0:0:
96,192,36632,1,0,0:0:0:0:
416,192,37061,1,0,0:0:0:0:
96,192,37489,6,0,L|416:192,1,320
96,192,38775,1,0,0:0:0:0:
416,192,39203,2,0,L|96:192,1,320
256,192,40489,1,0,0:0:0:0:
96,192,40918,6,0,L|16:192,1,80
176,192,41346,2,0,L|224:128,1,80
16,192,41775,1,0,0:0:0:0:
256,128,41989,2,0,L|208:192,1,80
464,192,42418,1,0,0:0:0:0:
240,192,42632,2,0,L|288:128,1,80
80,192,43061,1,0,0:0:0:0:
256,192,44132,5,0,0:0:0:0:
336,192,44346,1,0,0:0:0:0:
176,192,44561,1,0,0:0:0:0:
336,192,44775,2,0,L|176:192,1,160
256,192,45418,2,0,B|336:192|336:192|176:192,1,240
448,192,46489,2,0,B|256:192|256:192|336:192|336:192|176:192|176:192|256:192|256:192|448:192|448:192|160:192|160:192|256:192|256:192|64:192,1,1280
256,192,50775,5,0,0:0:0:0:
336,192,50989,1,0,0:0:0:0:
416,192,51203,1,0,0:0:0:0:
496,192,51418,1,0,0:0:0:0:
256,192,51632,2,0,L|368:192,1,80
96,192,52275,6,0,L|256:192,1,160
416,192,53132,1,0,0:0:0:0:
96,192,53561,1,0,0:0:0:0:
416,192,53989,1,0,0:0:0:0:
96,192,54418,1,0,0:0:0:0:
256,96,54632,2,0,P|320:96|256:192,1,240
256,192,57632,5,0,0:0:0:0:
176,192,57846,1,0,0:0:0:0:
256,192,58061,1,0,0:0:0:0:
336,192,58275,1,0,0:0:0:0:
176,192,58489,2,0,L|80:192,1,80
416,192,59132,1,0,0:0:0:0:
96,192,59561,1,0,0:0:0:0:
256,192,59989,6,0,P|352:192|288:32,1,320
192,32,61061,1,0,0:0:0:0:
432,32,61382,1,0,0:0:0:0:
256,32,61703,1,0,0:0:0:0:
432,32,61918,2,0,P|480:96|432:176,1,160
112,192,64918,5,0,0:0:0:0:
112,192,65132,1,0,0:0:0:0:
256,192,65346,2,0,L|416:192,1,160
416,192,66203,1,0,0:0:0:0:
256,192,66632,2,0,B|176:192|176:192|272:192,2,160
416,192,67918,1,0,0:0:0:0:
96,192,68346,6,0,P|64:144|160:112,1,160
288,96,68989,2,0,L|336:176,1,80
96,160,69632,1,0,0:0:0:0:
416,160,70489,5,0,0:0:0:0:
256,160,70703,2,0,L|176:160,1,80
336,160,71132,1,0,0:0:0:0:
96,160,71346,2,0,L|176:160,1,80
416,160,71775,2,0,L|304:160,1,80
96,160,72203,1,0,0:0:0:0:
256,192,73275,6,0,L|80:192,1,160
256,192,73918,1,0,0:0:0:0:
496,192,74239,1,0,0:0:0:0:
256,192,74561,1,0,0:0:0:0:
368,192,74775,1,0,0:0:0:0:
128,192,75096,2,0,L|256:192,1,120
80,192,75632,2,0,P|48:128|128:112,1,160
256,176,76489,5,0,0:0:0:0:
336,176,76703,1,0,0:0:0:0:
208,176,76918,2,0,L|112:176,1,80
288,176,77346,1,0,0:0:0:0:
328,176,77561,1,0,0:0:0:0:
160,176,77775,2,0,L|240:176,1,80
432,176,78203,1,0,0:0:0:0:
352,176,78419,1,0,0:0:0:0:
432,176,78632,1,0,0:0:0:0:
272,176,78846,1,0,0:0:0:0:
432,176,79061,6,0,B|432:272|432:272|256:272|256:272|256:320,1,320
256,320,79918,2,0,B|96:320|96:320|416:320,1,480
96,320,81418,2,0,L|288:320,1,160
416,320,82061,1,0,0:0:0:0:
96,320,82489,6,0,P|448:320|448:16,2,640
432,320,83775,1,0,0:0:0:0:
80,304,83989,1,0,0:0:0:0:
432,320,84203,2,0,P|256:96|80:320,2,640
80,304,85489,1,0,0:0:0:0:
432,304,85918,6,0,B|256:32|256:32|80:304,1,640
432,304,86561,2,0,B|256:32|256:32|80:304,1,640
432,304,87203,1,0,0:0:0:0:
80,304,87418,2,0,B|256:32|256:32|432:304,1,640
432,304,87953,5,0,0:0:0:0:
432,304,88167,2,0,B|432:16|432:16|432:368,1,640
80,304,88810,1,0,0:0:0:0:
80,304,89024,2,0,B|80:16|80:16|80:368,1,640
80,304,89667,1,0,0:0:0:0:
464,304,90095,5,0,0:0:0:0:
144,304,90524,1,0,0:0:0:0:
464,304,90953,2,0,B|112:304|112:304|416:304,1,640
112,304,91595,2,0,L|448:304,2,320
448,304,92238,2,0,B|96:304|96:304|400:304,2,640
128,304,93524,1,0,0:0:0:0:
448,304,93953,1,0,0:0:0:0:
128,304,94381,6,0,P|16:176|320:112,1,640
426,180,95024,2,0,P|415:10|155:180,1,640
368,64,95667,2,0,P|240:-48|176:256,1,640
480,192,96524,1,0,0:0:0:0:
32,192,96953,1,0,0:0:0:0:
480,192,97381,1,0,0:0:0:0:
32,192,97810,6,0,B|256:192|256:192|256:48|256:48|112:48|112:48|400:48|400:48|256:48|256:48|256:192|256:192|480:192|480:192,1,1280
224,192,99095,2,0,P|32:368|288:192,1,1280
64,224,100381,1,0,0:0:0:0:
384,224,100810,2,0,L|48:224,1,320
384,224,101238,2,0,B|160:96|160:96|288:96|288:96|64:224,1,640
384,224,101881,2,0,B|160:96|160:96|224:336|224:336|288:96|288:96|64:224,1,960
432,192,102738,2,0,P|128:256|128:0,1,640
432,192,103381,5,0,0:0:0:0:
80,192,103595,2,0,B|240:240|240:240|240:0|240:0|80:192,1,640
80,192,104238,1,0,0:0:0:0:
432,192,104452,2,0,B|272:240|272:240|272:0|272:0|421:178,1,640
80,192,105095,1,0,0:0:0:0:
480,192,105524,5,0,0:0:0:0:
32,192,105953,1,0,0:0:0:0:
432,192,106381,2,0,B|416:320|320:336|320:336|304:96|352:16|352:16|480:16,1,640
144,192,107024,2,0,B|128:320|32:336|32:336|16:96|64:16|64:16|182:16,1,640
512,48,107667,2,0,B|256:48|256:48|416:192|416:192|256:352|256:352|464:352|464:352|464:160|464:160,1,960
32,192,108953,5,0,0:0:0:0:
480,192,109382,1,0,0:0:0:0:
80,192,109810,2,0,B|96:320|192:336|192:336|208:96|160:16|160:16|32:16,1,640
368,192,110453,2,0,B|384:320|480:336|480:336|496:96|448:16|448:16|330:16,1,640
0,48,111095,2,0,B|256:48|256:48|96:192|96:192|256:352|256:352|48:352|48:352|48:160|48:160,1,960
512,176,111953,5,0,0:0:0:0:
0,176,112381,1,0,0:0:0:0:
512,176,112810,1,0,0:0:0:0:
32,112,113238,6,0,B|256:192|256:192|144:256|144:256|144:80|144:80|48:192|48:192|352:192|352:192|256:128|256:128|432:128,3,1280
256,192,116024,12,0,120095,0:0:0:0:
