osu file format v14

[General]
AudioFilename: audio.mp3
AudioLeadIn: 0
PreviewTime: 65337
Countdown: 0
SampleSet: Soft
StackLeniency: 0.7
Mode: 2
LetterboxInBreaks: 0
WidescreenStoryboard: 0

[Editor]
Bookmarks: 24143,54591,65337,97576,135188,145934,178173,192501,208621,221158
DistanceSpacing: 0.7
BeatDivisor: 4
GridSize: 32
TimelineZoom: 1

[Metadata]
Title:Un siglo sin ti
TitleUnicode:Un siglo sin ti
Artist:Chayanne
ArtistUnicode:Chayanne
Creator:Aryssiel
Version:This song is about a tragic love
Source:
Tags:
BeatmapID:2070348
BeatmapSetID:989736

[Difficulty]
HPDrainRate:4
CircleSize:4
OverallDifficulty:7
ApproachRate:7
SliderMultiplier:1.1
SliderTickRate:1

[Events]
//Background and Video events
0,0,"chayanne-vuelve-a-mostrarse-con-su-look-del-pasado-c97de.jpg",0,0
//Break Periods
//Storyboard Layer 0 (Background)
//Storyboard Layer 1 (Fail)
//Storyboard Layer 2 (Pass)
//Storyboard Layer 3 (Foreground)
//Storyboard Sound Samples

[TimingPoints]
2651,447.761194029851,4,2,0,60,1,0
20113,-66.6666666666667,4,2,0,60,0,0
21009,-100,4,2,0,60,0,0
65337,-25,4,2,0,60,0,1
97576,-100,4,2,0,60,0,0

[Colours]
Combo1 : 0,0,128
Combo2 : 0,128,255
Combo3 : 128,128,255

[HitObjects]
64,192,9815,6,0,P|160:224|128:64,2,330
224,192,13173,1,0,0:0:0:0:
352,192,13397,2,0,P|448:192|480:128,1,165
256,96,14292,2,0,P|160:96|128:160,1,165
352,192,15188,2,0,P|448:128|384:96,1,220
256,96,16307,2,0,L|192:96,1,55
352,96,16755,1,0,0:0:0:0:
96,96,16979,6,0,P|128:192|256:224,2,220
160,96,19217,1,0,0:0:0:0:
256,96,19665,1,0,0:0:0:0:
64,160,20113,2,0,B|192:160|192:160|96:192|96:192|160:224|160:224|128:256,1,330.000012588501
352,256,21456,5,0,0:0:0:0:
160,224,22352,2,0,L|96:192,1,55
384,192,22800,1,0,0:0:0:0:
128,192,23023,2,0,L|83:135,1,55
352,256,23471,1,0,0:0:0:0:
160,224,23695,1,0,0:0:0:0:
480,192,24143,1,0,0:0:0:0:
128,160,25038,6,0,L|64:160,1,55
160,224,25486,2,0,L|96:224,1,55
32,288,25934,1,0,0:0:0:0:
96,288,26158,1,0,0:0:0:0:
288,288,26382,1,0,0:0:0:0:
224,288,26606,1,0,0:0:0:0:
448,288,26829,2,0,P|480:224|448:192,1,110
32,192,27725,1,0,0:0:0:0:
480,192,28173,1,0,0:0:0:0:
160,192,28620,6,0,L|96:192,1,55
32,256,29068,2,0,L|96:256,1,55
320,256,29516,1,0,0:0:0:0:
384,256,29740,1,0,0:0:0:0:
160,224,29964,1,0,0:0:0:0:
224,224,30188,1,0,0:0:0:0:
96,224,30412,2,0,L|224:224,1,110
480,224,31307,1,0,0:0:0:0:
32,224,31755,1,0,0:0:0:0:
416,224,32203,6,0,L|416:160,1,55
256,192,32650,2,0,L|256:128,1,55
96,224,33098,2,0,L|96:160,1,55
384,192,33546,2,0,L|329:192,1,55
480,192,33994,1,0,0:0:0:0:
32,192,34441,1,0,0:0:0:0:
480,192,34889,1,0,0:0:0:0:
256,192,35337,1,0,0:0:0:0:
96,192,35785,5,0,0:0:0:0:
224,192,36009,1,0,0:0:0:0:
64,192,36232,1,0,0:0:0:0:
192,192,36456,1,0,0:0:0:0:
448,192,36680,1,0,0:0:0:0:
128,192,36904,1,0,0:0:0:0:
416,192,37128,2,0,P|448:160|384:64,1,165
96,64,38023,2,0,L|32:64,1,55
480,64,38471,5,0,0:0:0:0:
32,64,38919,1,0,0:0:0:0:
352,64,39367,1,0,0:0:0:0:
256,64,39591,1,0,0:0:0:0:
352,64,39815,1,0,0:0:0:0:
448,64,40038,1,0,0:0:0:0:
224,64,40262,2,0,L|279:64,2,55
416,64,40934,2,0,P|448:96|448:128,1,55
256,128,41382,2,0,P|192:96|96:128,1,165
256,128,42501,5,0,0:0:0:0:
128,128,42949,2,0,L|64:128,1,55
384,128,43397,2,0,L|448:128,1,55
128,128,43844,2,0,L|183:128,1,55
384,128,44292,2,0,L|329:128,1,55
128,128,44740,1,0,0:0:0:0:
384,128,44964,1,0,0:0:0:0:
64,128,45188,1,0,0:0:0:0:
448,128,45412,1,0,0:0:0:0:
256,128,45635,5,0,0:0:0:0:
32,128,46083,1,0,0:0:0:0:
480,128,46531,1,0,0:0:0:0:
352,128,46755,1,0,0:0:0:0:
416,128,46979,1,0,0:0:0:0:
352,128,47203,1,0,0:0:0:0:
224,128,47426,6,0,L|288:128,1,55
128,128,47874,2,0,L|64:128,2,55
320,160,48546,2,0,L|384:160,2,55
32,160,49217,5,0,0:0:0:0:
480,160,49665,1,0,0:0:0:0:
384,160,50113,2,0,L|320:160,1,55
128,160,50561,2,0,L|64:160,1,55
320,160,51009,1,0,0:0:0:0:
192,160,51232,1,0,0:0:0:0:
384,160,51456,2,0,B|160:160|160:160|352:160|352:160|96:160,1,660
448,160,54591,6,0,P|480:224|448:256,1,110
256,192,55486,1,0,0:0:0:0:
480,192,55934,1,0,0:0:0:0:
32,192,56382,2,0,L|128:256,1,110
256,192,57277,1,0,0:0:0:0:
32,192,57725,1,0,0:0:0:0:
480,192,58173,6,0,L|352:192,1,110
256,192,58844,2,0,P|256:128|288:96,1,110
128,96,59516,1,0,0:0:0:0:
192,96,59740,1,0,0:0:0:0:
416,96,59964,2,0,P|448:128|480:192,1,110
256,192,60635,6,0,L|128:192,1,110
256,192,61307,1,0,0:0:0:0:
448,192,61531,2,0,P|480:128|448:96,1,110
384,96,62203,1,0,0:0:0:0:
64,192,62426,2,0,P|32:128|64:96,1,110
128,96,63098,1,0,0:0:0:0:
480,96,63322,1,0,0:0:0:0:
32,96,63770,5,0,0:0:0:0:
480,96,63994,1,0,0:0:0:0:
32,96,64441,1,0,0:0:0:0:
480,96,64665,1,0,0:0:0:0:
32,96,64889,1,0,0:0:0:0:
32,96,65337,6,0,P|224:192|64:288,1,440
352,288,66009,1,0,0:0:0:0:
32,288,66232,2,0,L|256:288,1,220
128,192,66680,1,0,0:0:0:0:
448,192,66904,2,0,L|224:192,2,220
32,192,67576,1,0,0:0:0:0:
480,192,67800,1,0,0:0:0:0:
32,192,68023,6,0,L|480:192,1,440
128,192,68695,1,0,0:0:0:0:
448,192,68919,2,0,L|224:192,2,220
128,192,69591,2,0,P|192:160|96:96,1,220
480,64,70038,1,0,0:0:0:0:
256,64,70262,2,0,L|512:64,1,220
36,64,70710,6,0,L|256:64,2,220
448,64,71382,1,0,0:0:0:0:
64,64,71605,1,0,0:0:0:0:
160,64,71829,1,0,0:0:0:0:
352,64,72053,1,0,0:0:0:0:
32,64,72277,1,0,0:0:0:0:
416,64,72501,6,0,P|192:160|256:256,1,440
416,192,73173,1,0,0:0:0:0:
96,64,73397,2,0,P|320:160|256:256,1,440
96,192,74069,1,0,0:0:0:0:
384,288,74292,2,0,B|192:224|192:224|320:160|320:160|256:64,1,440
480,64,74964,1,0,0:0:0:0:
32,64,75188,2,0,P|128:64|32:288,1,440
480,64,75859,1,0,0:0:0:0:
145,288,76083,6,0,L|377:288,1,220
64,192,76531,2,0,B|258:302|258:302|448:192,1,440
145,96,77203,2,0,L|377:96,1,220
64,160,77650,1,0,0:0:0:0:
384,160,77874,2,0,P|416:192|288:320,1,220
64,192,78322,2,0,B|258:302|258:302|448:192,1,440
192,160,78994,1,0,0:0:0:0:
320,160,79217,1,0,0:0:0:0:
32,160,79441,1,0,0:0:0:0:
480,160,79665,6,0,L|224:160,1,220
480,160,80113,1,0,0:0:0:0:
32,160,80337,2,0,L|256:160,1,220
480,160,80785,1,0,0:0:0:0:
320,160,81009,2,0,P|320:256|480:288,1,220
32,192,81456,1,0,0:0:0:0:
480,192,81680,2,0,L|32:192,1,440
480,192,82352,2,0,L|32:192,1,440
480,192,83023,1,0,0:0:0:0:
160,192,83247,6,0,P|288:160|128:64,1,440
352,192,83919,1,0,0:0:0:0:
160,192,84143,2,0,P|21:89|192:64,1,440
480,192,84815,1,0,0:0:0:0:
96,160,85038,2,0,L|256:320,2,220
480,192,85934,5,0,0:0:0:0:
320,192,86158,1,0,0:0:0:0:
160,192,86382,1,0,0:0:0:0:
320,192,86606,1,0,0:0:0:0:
32,192,86829,2,0,P|224:224|160:64,1,440
480,192,87501,1,0,0:0:0:0:
167,317,87725,2,0,P|206:139|32:192,1,440
480,160,88397,1,0,0:0:0:0:
32,160,88620,6,0,L|480:160,1,440
32,160,89292,1,0,0:0:0:0:
480,160,89516,2,0,L|32:160,1,440
256,160,90188,1,0,0:0:0:0:
448,64,90412,2,0,P|480:192|224:320,1,440
448,64,91083,1,0,0:0:0:0:
64,64,91307,2,0,P|32:192|288:320,1,440
64,64,91978,5,0,0:0:0:0:
480,64,92203,1,0,0:0:0:0:
32,64,92426,1,0,0:0:0:0:
256,64,92650,1,0,0:0:0:0:
480,64,93098,5,0,0:0:0:0:
32,64,93322,1,0,0:0:0:0:
256,64,93546,1,0,0:0:0:0:
480,64,93770,1,0,0:0:0:0:
32,64,93994,5,0,0:0:0:0:
480,64,94217,1,0,0:0:0:0:
256,64,94441,1,0,0:0:0:0:
480,64,94665,1,0,0:0:0:0:
32,64,94889,5,0,0:0:0:0:
256,64,95113,1,0,0:0:0:0:
480,64,95337,1,0,0:0:0:0:
32,64,95561,1,0,0:0:0:0:
256,320,95785,6,0,B|448:192|448:0|288:128|288:128|256:160|256:160|256:160|224:128|224:128|64:0|64:192|256:320,2,880
256,192,97688,12,0,101158,0:0:0:0:
