osu file format v14

[General]
AudioFilename: audio.mp3
AudioLeadIn: 0
PreviewTime: 798
Countdown: 0
SampleSet: Soft
StackLeniency: 0.7
Mode: 0
LetterboxInBreaks: 0
WidescreenStoryboard: 1

[Editor]
DistanceSpacing: 1
BeatDivisor: 4
GridSize: 32
TimelineZoom: 1

[Metadata]
Title:Daidai (TV Size)
TitleUnicode:橙 (TV Size)
Artist:Chatmonchy
ArtistUnicode:Chatmonchy
Creator:-Mikan
Version:Hard
Source:BLEACH
Tags:synderes frostwich j-pop j-rock rock pop jrock jpop anime japanese ending ed 12
BeatmapID:2548158
BeatmapSetID:1188173

[Difficulty]
HPDrainRate:5
CircleSize:3.8
OverallDifficulty:6
ApproachRate:7
SliderMultiplier:1.5
SliderTickRate:1

[Events]
//Background and Video events
0,0,"ac3d4ace40fe13e5524a7cce290e436a07badd02_s2_n1.jpg",0,0
Video,0,"balcony.mp4"
//Break Periods
//Storyboard Layer 0 (Background)
//Storyboard Layer 1 (Fail)
//Storyboard Layer 2 (Pass)
//Storyboard Layer 3 (Foreground)
//Storyboard Layer 4 (Overlay)
//Storyboard Sound Samples

[TimingPoints]
-273,389.61038961039,4,2,1,50,1,0
895,-142.857142857143,4,2,1,50,0,0
1675,-142.857142857143,4,2,1,60,0,0
2843,-142.857142857143,4,2,1,70,0,0
4012,-142.857142857143,4,2,1,50,0,0
4791,-142.857142857143,4,2,1,60,0,0
5960,-142.857142857143,4,2,1,70,0,0
7129,-142.857142857143,4,2,1,50,0,0
7908,-142.857142857143,4,2,1,60,0,0
9077,-142.857142857143,4,2,1,79,0,0
10246,-142.857142857143,4,2,1,50,0,0
10928,-142.857142857143,4,2,1,5,0,0
11025,379.746835443038,4,2,1,70,1,0
11025,-142.857142857143,4,2,1,70,0,0
11784,-100,4,2,1,50,0,0
12164,389.61038961039,4,2,1,50,1,0
12164,-142.857142857143,4,2,1,50,0,0
12553,-142.857142857143,4,2,1,70,0,0
12845,-100,4,2,1,5,0,0
12943,-100,4,2,1,60,0,0
13332,419.58041958042,4,2,1,50,1,0
13752,389.61038961039,4,2,1,60,1,0
13752,-142.857142857143,4,2,1,60,0,0
18427,387.096774193548,4,2,1,60,1,0
18814,-142.857142857143,4,2,1,60,0,0
19975,394.736842105263,4,2,1,60,1,0
19975,-142.857142857143,4,2,1,60,0,0
21159,387.096774193548,4,2,1,60,1,0
21159,-142.857142857143,4,2,1,60,0,0
22323,389.61038961039,4,2,1,60,1,0
23093,389.61038961039,4,2,1,60,1,0
23093,-142.857142857143,4,2,1,60,0,0
24651,375,4,2,1,60,1,0
24651,-142.857142857143,4,2,1,60,0,0
25401,416.666666666667,4,2,1,60,1,0
25401,-142.857142857143,4,2,1,60,0,0
25820,389.61038961039,4,2,1,60,1,0
26113,-100,4,2,1,5,0,0
26220,389.61038961039,4,2,1,70,1,1
26220,-111.111111111111,4,2,1,70,0,1
31284,384.615384615385,4,2,1,70,1,1
31284,-111.111111111111,4,2,1,70,0,1
32437,394.736842105263,4,2,1,70,1,1
32437,-111.111111111111,4,2,1,70,0,1
34012,389.61038961039,4,2,1,70,1,1
34012,-111.111111111111,4,2,1,70,0,1
34791,384.615384615385,4,2,1,70,1,1
35560,390.879478827362,4,2,1,70,1,0
35560,-142.857142857143,4,2,1,70,0,0
37709,-142.857142857143,4,2,1,5,0,0
37908,389.61038961039,4,2,1,70,1,0
38297,-142.857142857143,4,2,1,50,0,0
38687,384.615384615385,4,2,1,80,1,1
38687,-111.111111111111,4,2,1,80,0,1
40610,402.684563758389,4,2,1,80,1,1
41414,379.746835443038,4,2,1,80,1,1
41698,-100,4,2,1,5,0,1
41793,389.61038961039,4,2,1,80,1,1
44520,400,4,2,1,80,1,1
44920,389.61038961039,4,2,1,80,1,1
49205,379.746835443038,4,2,1,80,1,1
49964,402.684563758389,4,2,1,80,1,1
49964,-111.111111111111,4,2,1,80,0,1
50366,394.736842105263,4,2,1,80,1,1
51153,389.61038961039,4,2,1,80,1,1
57386,384.615384615385,4,2,1,80,1,1
59693,405.405405405405,4,2,1,80,1,1
60503,389.61038961039,4,2,1,80,1,1
62061,394.736842105263,4,2,1,80,1,1
63245,375,4,2,1,80,1,1
63620,389.61038961039,4,2,1,80,1,1
64400,410.958904109589,4,2,1,80,1,1
64810,389.61038961039,4,2,1,80,1,1
67926,379.746835443038,4,2,1,80,1,1
68686,389.61038961039,4,2,1,80,1,1
69854,389.61038961039,4,2,1,80,1,1
70633,405.405405405405,4,2,1,80,1,1
71038,389.61038961039,4,2,1,80,1,1
72986,375,4,2,1,80,1,1
72986,-111.111111111111,4,2,1,80,0,1
73360,389.61038961039,4,2,1,80,1,1
74531,384.615384615385,4,2,1,80,1,1
74915,-111.111111111111,4,2,1,80,0,1
76069,389.61038961039,4,2,1,60,1,0
76069,-111.111111111111,4,2,1,60,0,0
81913,454.545454545455,4,2,1,60,1,0
82368,434.782608695652,4,2,1,60,1,0
82368,-133.333333333333,4,2,1,60,0,0
85846,-133.333333333333,4,2,1,5,0,0
85954,-133.333333333333,4,2,1,60,0,0
88889,-100,4,2,1,5,0,0

[Colours]
Combo1 : 160,252,236
Combo2 : 255,189,123

[HitObjects]
67,353,895,6,0,P|64:321|56:285,1,52.4999999999999,2|2,0:0|0:0,0:0:0:0:
115,245,1285,2,0,B|169:258|153:287|215:296,1,105,2|2,0:0|0:0,0:0:0:0:
273,348,1869,1,2,0:0:0:0:
346,302,2064,2,0,L|337:238,1,52.4999999999999,2|0,0:3|0:0,0:0:0:0:
431,286,2454,2,0,L|438:337,1,52.4999999999999,2|0,0:3|0:0,0:0:0:0:
506,236,2843,5,14,0:0:0:0:
289,97,3233,1,10,0:0:0:0:
289,97,4012,6,0,P|262:96|236:92,1,52.4999999999999,2|2,0:0|0:0,0:0:0:0:
170,167,4402,2,0,P|209:169|233:175,1,52.4999999999999,2|2,0:0|0:0,0:0:0:0:
156,59,4791,2,0,P|130:94|62:102,1,105,2|2,0:0|0:3,0:0:0:0:
18,167,5376,1,0,0:0:0:0:
74,226,5571,2,0,P|68:266|66:290,1,52.4999999999999,2|0,0:3|0:0,0:0:0:0:
7,335,5960,5,14,0:0:0:0:
222,171,6350,1,10,0:0:0:0:
222,171,7129,6,0,P|260:173|293:178,1,52.4999999999999,2|2,0:0|0:0,0:0:0:0:
338,228,7519,1,2,0:0:0:0:
338,228,7714,1,2,0:0:0:0:
286,291,7908,2,0,L|297:357,1,52.4999999999999,2|2,0:0|0:0,0:0:0:0:
382,384,8298,2,0,L|373:332,1,52.4999999999999,2|0,0:3|0:0,0:0:0:0:
429,268,8688,2,0,P|461:270|503:299,1,78.7499999999999,2|0,0:3|0:0,0:0:0:0:
499,294,9077,5,14,0:0:0:0:
226,384,9467,1,10,0:0:0:0:
226,384,10246,6,0,P|217:341|207:312,1,52.4999999999999,2|2,0:0|0:0,0:0:0:0:
149,290,10636,2,0,P|112:311|56:302,1,78.7499999999999,2|0,0:0|0:0,0:0:0:0:
69,300,11025,2,0,P|76:236|79:171,1,104.999996795654,14|10,0:0|0:0,0:0:0:0:
78,195,11784,5,2,0:0:0:0:
17,147,11974,1,2,0:0:0:0:
76,86,12164,2,0,L|154:101,1,78.7499975967408,2|0,0:0|0:0,0:0:0:0:
167,108,12553,2,0,B|217:96|205:70|262:60,1,104.999996795654,10|4,0:0|3:3,0:0:0:0:
258,60,13332,1,8,3:3:0:0:
334,107,13541,1,2,0:0:0:0:
414,44,13752,6,0,P|465:58|490:123,1,104.999996795654,4|2,3:1|0:3,0:0:0:0:
446,169,14336,1,2,0:0:0:0:
446,169,14531,2,0,L|439:237,1,52.4999983978272,10|0,0:0|0:0,0:0:0:0:
378,272,14920,1,2,0:3:0:0:
313,227,15115,1,2,0:0:0:0:
248,270,15310,2,0,L|258:324,1,52.4999983978272,2|0,0:0|0:0,0:0:0:0:
195,372,15700,2,0,L|92:362,1,78.7499975967408,2|0,0:3|0:0,0:0:0:0:
116,364,16089,5,8,0:0:0:0:
0,261,16479,1,2,3:2:0:0:
0,261,16674,1,2,0:0:0:0:
69,206,16868,6,0,L|52:97,1,104.999996795654,2|2,3:2|0:3,0:0:0:0:
110,40,17453,1,2,0:0:0:0:
179,90,17648,2,0,B|236:86|220:51|278:47,2,104.999996795654,10|2|2,0:0|0:3|0:0,0:0:0:0:
262,196,18814,2,0,P|254:242|251:275,1,78.7499975967408,2|0,0:3|0:0,0:0:0:0:
251,274,19201,5,8,0:0:0:0:
408,374,19588,1,2,3:2:0:0:
408,374,19781,1,2,0:0:0:0:
476,318,19975,6,0,P|467:236|464:204,1,104.999996795654,2|2,3:2|0:3,0:0:0:0:
394,164,20567,1,0,0:0:0:0:
449,103,20764,2,0,L|523:113,1,52.4999983978272,10|0,0:0|0:0,0:0:0:0:
404,37,21159,2,0,L|330:47,1,52.4999983978272,2|0,0:3|0:0,0:0:0:0:
296,102,21546,2,0,P|244:104|206:53,1,104.999996795654,2|2,0:0|0:3,0:0:0:0:
69,206,22323,5,8,0:0:0:0:
257,321,22712,1,2,3:2:0:0:
257,321,22907,1,2,0:0:0:0:
323,264,23093,6,0,B|377:271|368:306|418:307,1,105,2|2,3:2|0:3,0:0:0:0:
483,255,23677,1,0,0:0:0:0:
422,196,23872,2,0,L|416:144,1,52.4999999999999,10|2,0:0|0:0,0:0:0:0:
483,91,24261,1,2,0:3:0:0:
426,32,24456,5,10,0:0:0:0:
426,32,24554,1,8,0:0:0:0:
426,32,24651,2,0,L|359:45,1,52.4999999999999,2|10,3:2|0:0,0:0:0:0:
312,102,25026,2,0,P|275:95|224:89,1,78.7499999999999,2|0,3:0|0:0,0:0:0:0:
224,74,25401,2,0,P|197:49|120:62,1,105.755996795654,10|8,0:0|3:0,0:0:0:0:
33,225,26220,6,0,B|113:220|75:183|161:176,1,135,6|2,3:2|0:3,0:0:0:0:
232,223,26804,1,0,0:0:0:0:
175,286,26999,2,0,L|186:361,1,67.5000000000001,8|0,0:0|0:0,0:0:0:0:
263,384,27388,1,2,0:3:0:0:
306,310,27583,1,2,0:0:0:0:
377,365,27778,2,0,L|532:376,2,135,2|0|8,0:3|3:0|0:0,0:0:0:0:
232,223,28947,5,2,3:2:0:0:
286,156,29142,1,2,0:0:0:0:
246,77,29336,2,0,L|174:86,1,67.5000000000001,2|2,3:2|0:0,0:0:0:0:
135,155,29726,2,0,P|87:146|0:142,2,134.999995880127,2|8|2,3:2|0:0|0:3,0:0:0:0:
136,237,30700,6,0,P|155:278|256:284,1,135
313,323,31284,2,0,L|393:312,1,67.4999979400635,0|0,3:0|0:0,0:0:0:0:
438,376,31668,2,0,P|469:342|447:267,1,101.249996910095,8|0,0:0|0:0,0:0:0:0:
454,278,32053,2,0,L|464:203,1,67.4999979400635,0|2,3:0|0:0,0:0:0:0:
399,149,32437,6,0,B|331:152|345:199|247:207,1,134.999995880127,2|2,3:0|0:3,0:0:0:0:
211,148,33029,1,0,0:0:0:0:
259,80,33226,2,0,L|251:0,1,67.4999979400635,8|0,0:0|0:0,0:0:0:0:
168,14,33621,2,0,P|127:45|74:41,1,101.249996910095,2|0,0:3|0:0,0:0:0:0:
67,26,34012,6,0,L|48:175,1,134.999995880127,2|4,0:3|3:2,0:0:0:0:
216,283,34791,1,8,0:0:0:0:
138,326,34983,1,4,3:0:0:0:
91,248,35175,1,8,3:0:0:0:
169,199,35367,1,8,3:0:0:0:
231,295,35560,6,0,B|287:328|303:377|303:377|300:288|276:131|417:93|489:140|473:236|422:274|325:241,1,577.5,4|0,3:1|0:0,0:0:0:0:
248,181,37908,5,8,0:0:0:0:
248,181,38297,2,0,L|242:111,1,52.4999999999999,2|0,0:0|0:0,0:0:0:0:
179,72,38687,6,0,L|105:87,1,67.5000000000001,4|0,3:1|0:0,0:0:0:0:
240,2,39071,2,0,L|332:15,1,67.5000000000001,2|0,0:3|0:0,0:0:0:0:
361,86,39456,2,0,P|391:111|466:97,1,101.25,10|0,0:0|0:0,0:0:0:0:
456,95,39840,1,2,0:3:0:0:
510,166,40033,1,0,0:0:0:0:
446,224,40225,6,0,L|462:291,1,67.5000000000001,2|0,3:2|0:0,0:0:0:0:
405,382,40610,2,0,P|381:334|387:297,1,75,2|0,3:2|0:0,0:0:0:0:
310,273,41012,2,0,L|191:300,1,112.5,8|0,0:0|0:0,0:0:0:0:
200,298,41414,1,2,0:3:0:0:
46,224,41793,6,0,P|24:179|33:139,1,75,2|0,3:2|0:0,0:0:0:0:
117,98,42182,2,0,L|110:178,1,75,2|0,0:3|0:0,0:0:0:0:
204,221,42572,2,0,L|198:153,1,75,10|0,0:0|0:0,0:0:0:0:
263,95,42961,2,0,P|281:134|276:179,1,75,2|0,0:3|0:0,0:0:0:0:
342,217,43351,2,0,L|486:204,2,150,2|2|10,3:2|3:2|0:0,0:0:0:0:
218,332,44520,5,2,0:3:0:0:
143,372,44720,1,0,0:0:0:0:
73,326,44920,2,0,L|85:250,1,75,2|0,3:2|0:0,0:0:0:0:
74,171,45309,2,0,L|-13:180,1,75,2|0,0:3|0:0,0:0:0:0:
105,97,45699,2,0,L|223:120,1,112.5,10|0,0:0|0:0,0:0:0:0:
215,118,46088,1,2,0:3:0:0:
297,87,46283,1,2,0:0:0:0:
344,164,46478,6,0,L|337:235,1,75,2|0,3:2|0:0,0:0:0:0:
417,304,46868,2,0,L|424:233,1,75,2|0,3:2|0:0,0:0:0:0:
501,203,47257,2,0,P|534:156|512:72,1,150,10|2,0:0|0:3,0:0:0:0:
449,130,47842,1,2,0:0:0:0:
393,62,48036,6,0,L|318:69,1,75,2|0,3:2|0:0,0:0:0:0:
259,126,48426,2,0,L|177:116,1,75,2|0,0:3|0:0,0:0:0:0:
152,43,48816,2,0,B|81:46|110:97|26:100,1,150,10|2,0:0|0:3,0:0:0:0:
0,181,49394,1,8,0:0:0:0:
59,244,49584,1,2,3:2:0:0:
18,325,49774,1,8,0:0:0:0:
88,374,49964,6,0,L|199:364,1,101.249996910095,0|0,3:0|0:0,0:0:0:0:
207,374,50366,2,0,P|224:325|217:281,1,75,12|0,0:0|0:0,0:0:0:0:
287,253,50760,1,8,0:0:0:0:
365,301,50958,1,8,0:0:0:0:
446,253,51153,6,0,L|434:187,1,75,4|0,3:1|0:0,0:0:0:0:
434,100,51542,2,0,L|510:109,1,75,2|0,0:3|0:0,0:0:0:0:
411,12,51932,2,0,P|353:51|299:37,1,112.5,10|0,0:0|0:0,0:0:0:0:
313,45,52321,1,2,0:3:0:0:
271,118,52516,1,2,0:0:0:0:
194,69,52711,6,0,L|205:-4,1,75,2|0,3:2|0:0,0:0:0:0:
112,40,53101,2,0,P|101:86|109:119,1,75,2|0,3:2|0:0,0:0:0:0:
168,176,53490,2,0,L|305:159,1,150,10|2,0:0|0:3,0:0:0:0:
471,284,54269,6,0,L|460:366,1,75,2|0,3:2|0:0,0:0:0:0:
378,379,54659,2,0,P|374:330|399:295,1,75,2|0,0:3|0:0,0:0:0:0:
325,247,55049,2,0,B|291:261|291:261|244:258,1,75,10|0,0:0|0:0,0:0:0:0:
377,175,55438,2,0,B|411:161|411:161|458:164,1,75,2|0,0:3|0:0,0:0:0:0:
295,134,55828,2,0,L|306:-5,2,150,2|2|14,3:2|3:2|0:0,0:0:0:0:
157,255,56997,5,2,0:3:0:0:
87,209,57191,1,8,0:0:0:0:
15,255,57386,2,0,L|22:324,1,75,2|0,3:2|0:0,0:0:0:0:
109,384,57770,2,0,L|102:315,1,75,2|0,0:3|0:0,0:0:0:0:
157,255,58155,2,0,P|199:281|272:278,1,112.5,10|0,0:0|0:0,0:0:0:0:
260,281,58539,1,2,0:3:0:0:
339,326,58732,1,8,0:0:0:0:
422,282,58924,6,0,L|409:197,1,75,2|8,3:2|0:0,0:0:0:0:
489,176,59309,2,0,P|523:136|520:64,1,112.5,2|0,3:2|0:0,0:0:0:0:
506,73,59693,2,0,L|517:-8,1,75,10|0,0:0|0:0,0:0:0:0:
430,29,60098,1,2,0:3:0:0:
352,0,60301,1,2,0:0:0:0:
297,60,60503,6,0,B|235:60|259:95|181:86,1,112.5,14|0,0:0|0:0,0:0:0:0:
178,67,60892,1,2,3:2:0:0:
26,210,61282,2,0,L|146:196,1,112.5,14|0,0:0|0:0,0:0:0:0:
151,205,61671,1,2,3:2:0:0:
207,271,61866,1,0,0:0:0:0:
128,313,62061,2,0,L|121:384,1,75,14|0,0:0|0:0,0:0:0:0:
207,271,62455,5,8,0:0:0:0:
207,271,62653,1,8,0:0:0:0:
288,309,62850,1,8,3:2:0:0:
361,256,63047,1,8,0:0:0:0:
440,295,63245,1,8,0:0:0:0:
497,228,63432,1,8,3:2:0:0:
429,159,63620,6,0,L|441:18,2,150,6|6|12,3:2|3:2|0:0,0:0:0:0:
272,212,64810,1,2,0:3:0:0:
204,266,65004,1,10,0:0:0:0:
147,199,65199,2,0,L|159:127,1,75,2|8,3:2|0:0,0:0:0:0:
105,68,65589,2,0,L|21:82,1,75,2|0,3:0|0:0,0:0:0:0:
167,2,65978,2,0,L|283:18,1,112.5,12|0,0:0|0:0,0:0:0:0:
278,17,66368,5,2,0:3:0:0:
336,95,66563,1,2,3:2:0:0:
427,68,66758,2,0,L|411:-13,1,75,2|0,3:2|0:0,0:0:0:0:
508,110,67147,2,0,L|492:191,1,75,2|2,3:2|0:0,0:0:0:0:
420,221,67537,2,0,B|357:221|366:265|290:263,1,150,12|2,0:0|0:3,0:0:0:0:
215,323,68115,5,8,0:0:0:0:
155,260,68305,2,0,L|170:187,1,75,2|8,3:3|0:0,0:0:0:0:
75,299,68686,2,0,L|90:380,1,75,0|0,3:0|0:0,0:0:0:0:
0,254,69075,2,0,L|31:97,1,150,12|0,0:0|3:0,0:0:0:0:
1,20,69660,5,2,0:0:0:0:
91,46,69854,2,0,L|226:32,2,150,6|4|12,3:2|3:2|0:0,0:0:0:0:
224,129,71038,5,2,0:3:0:0:
170,194,71232,1,8,0:0:0:0:
237,248,71427,2,0,L|324:234,1,75,2|8,3:2|0:0,0:0:0:0:
321,317,71817,2,0,L|242:328,1,75,2|0,3:0|0:0,0:0:0:0:
384,257,72206,2,0,P|425:303|514:300,1,150,12|2,0:0|3:2,0:0:0:0:
466,225,72791,1,2,0:0:0:0:
510,149,72986,6,0,L|487:29,1,101.249996910095,14|0,0:0|0:0,0:0:0:0:
500,37,73360,1,2,3:0:0:0:
326,14,73749,2,0,L|349:134,1,112.5,12|0,0:0|0:0,0:0:0:0:
339,136,74139,1,2,3:0:0:0:
269,187,74334,1,0,3:0:0:0:
200,132,74531,1,12,0:0:0:0:
124,181,74723,5,8,0:0:0:0:
124,181,74819,1,8,0:0:0:0:
124,181,74915,2,0,L|139:259,1,67.5000000000001,8|8,0:0|0:0,0:0:0:0:
211,296,75300,1,8,0:0:0:0:
163,369,75492,1,8,3:0:0:0:
86,321,75684,1,8,3:0:0:0:
136,247,75877,1,8,3:0:0:0:
211,296,76069,6,0,P|307:306|355:318,1,135,4|0,3:1|3:0,0:0:0:0:
500,251,76848,2,0,P|473:210|386:211,1,135,8|8,0:0|0:0,0:0:0:0:
329,157,77432,1,8,0:0:0:0:
329,157,77530,1,8,0:0:0:0:
329,157,77627,2,0,P|321:109|314:75,1,67.5000000000001,8|8,0:0|0:0,0:0:0:0:
374,30,78017,1,0,3:0:0:0:
217,115,78406,6,0,B|136:102|177:61|66:58,1,135,8|8,0:0|0:0,0:0:0:0:
27,14,78991,1,8,0:0:0:0:
12,96,79185,2,0,L|31:236,1,135,0|0,3:0|3:0,0:0:0:0:
118,366,79965,2,0,P|150:321|139:265,1,101.25,8|0,0:0|0:0,0:0:0:0:
134,271,80354,1,8,0:0:0:0:
203,212,80549,1,8,0:0:0:0:
203,212,80646,1,8,0:0:0:0:
203,212,80744,2,0,L|288:224,1,67.5000000000001,8|8,0:0|0:0,0:0:0:0:
320,285,81133,1,0,3:0:0:0:
476,188,81523,6,0,L|452:48,1,135.346495880127,8|8,0:0|3:0,0:0:0:0:
453,54,82368,2,0,B|416:89|287:115|224:20|295:-106|448:-27|364:96|364:96|344:134|292:138|247:124|247:124|214:120|92:177|172:286|291:290|314:150|216:68|153:69,1,900,4|0,3:1|0:0,0:0:0:0:
256,192,85954,12,0,88889,0:0:0:0:
