osu file format v14

[General]
AudioFilename: audio.mp3
AudioLeadIn: 0
PreviewTime: 798
Countdown: 0
SampleSet: Soft
StackLeniency: 0.7
Mode: 0
LetterboxInBreaks: 0
WidescreenStoryboard: 1

[Editor]
DistanceSpacing: 0.9
BeatDivisor: 4
GridSize: 32
TimelineZoom: 1

[Metadata]
Title:Daidai (TV Size)
TitleUnicode:橙 (TV Size)
Artist:Chatmonchy
ArtistUnicode:Chatmonchy
Creator:-Mikan
Version:Easy
Source:BLEACH
Tags:synderes frostwich j-pop j-rock rock pop jrock jpop anime japanese ending ed 12
BeatmapID:2551810
BeatmapSetID:1188173

[Difficulty]
HPDrainRate:3
CircleSize:3
OverallDifficulty:3
ApproachRate:4
SliderMultiplier:1.2
SliderTickRate:1

[Events]
//Background and Video events
0,0,"ac3d4ace40fe13e5524a7cce290e436a07badd02_s2_n1.jpg",0,0
Video,0,"balcony.mp4"
//Break Periods
//Storyboard Layer 0 (Background)
//Storyboard Layer 1 (Fail)
//Storyboard Layer 2 (Pass)
//Storyboard Layer 3 (Foreground)
//Storyboard Layer 4 (Overlay)
//Storyboard Sound Samples

[TimingPoints]
-273,389.61038961039,4,2,1,50,1,0
1675,-142.857142857143,4,2,1,60,0,0
2843,-142.857142857143,4,2,1,70,0,0
4012,-142.857142857143,4,2,1,50,0,0
4791,-142.857142857143,4,2,1,60,0,0
5960,-142.857142857143,4,2,1,70,0,0
7129,-142.857142857143,4,2,1,50,0,0
7908,-142.857142857143,4,2,1,60,0,0
9077,-142.857142857143,4,2,1,79,0,0
10246,-142.857142857143,4,2,1,50,0,0
10928,-142.857142857143,4,2,1,5,0,0
11025,379.746835443038,4,2,1,70,1,0
11025,-142.857142857143,4,2,1,70,0,0
11784,-142.857142857143,4,2,1,50,0,0
12164,389.61038961039,4,2,1,50,1,0
12553,-142.857142857143,4,2,1,70,0,0
12845,-142.857142857143,4,2,1,5,0,0
12943,-142.857142857143,4,2,1,60,0,0
13332,419.58041958042,4,2,1,50,1,0
13752,389.61038961039,4,2,1,60,1,0
13752,-142.857142857143,4,2,1,60,0,0
18427,387.096774193548,4,2,1,60,1,0
18427,-142.857142857143,4,2,1,60,0,0
19975,394.736842105263,4,2,1,60,1,0
19975,-142.857142857143,4,2,1,60,0,0
21159,387.096774193548,4,2,1,60,1,0
21546,-142.857142857143,4,2,1,60,0,0
22323,389.61038961039,4,2,1,60,1,0
23093,389.61038961039,4,2,1,60,1,0
23093,-142.857142857143,4,2,1,60,0,0
24651,375,4,2,1,60,1,0
25026,-142.857142857143,4,2,1,60,0,0
25401,416.666666666667,4,2,1,60,1,0
25820,389.61038961039,4,2,1,60,1,0
26113,-100,4,2,1,5,0,0
26220,389.61038961039,4,2,1,70,1,1
26220,-125,4,2,1,70,0,1
31284,384.615384615385,4,2,1,70,1,1
31668,-125,4,2,1,70,0,1
32437,394.736842105263,4,2,1,70,1,1
32437,-125,4,2,1,70,0,1
34012,389.61038961039,4,2,1,70,1,1
34012,-125,4,2,1,70,0,1
34791,384.615384615385,4,2,1,70,1,1
35560,390.879478827362,4,2,1,70,1,0
35560,-142.857142857143,4,2,1,70,0,0
37709,-142.857142857143,4,2,1,5,0,0
37908,389.61038961039,4,2,1,70,1,0
38297,-100,4,2,1,50,0,0
38687,384.615384615385,4,2,1,80,1,1
40225,-125,4,2,1,80,0,1
40610,402.684563758389,4,2,1,80,1,1
41414,379.746835443038,4,2,1,80,1,1
41698,-100,4,2,1,5,0,1
41793,389.61038961039,4,2,1,80,1,1
41793,-125,4,2,1,80,0,1
44520,400,4,2,1,80,1,1
44920,389.61038961039,4,2,1,80,1,1
44920,-125,4,2,1,80,0,1
49205,379.746835443038,4,2,1,80,1,1
49964,402.684563758389,4,2,1,80,1,1
50366,394.736842105263,4,2,1,80,1,1
50366,-125,4,2,1,80,0,1
51153,389.61038961039,4,2,1,80,1,1
51153,-125,4,2,1,80,0,1
57386,384.615384615385,4,2,1,80,1,1
57386,-125,4,2,1,80,0,1
59693,405.405405405405,4,2,1,80,1,1
59693,-125,4,2,1,80,0,1
60503,389.61038961039,4,2,1,80,1,1
62061,394.736842105263,4,2,1,80,1,1
62061,-125,4,2,1,80,0,1
63245,375,4,2,1,80,1,1
63620,389.61038961039,4,2,1,80,1,1
63620,-125,4,2,1,80,0,1
64400,410.958904109589,4,2,1,80,1,1
64810,389.61038961039,4,2,1,80,1,1
65199,-125,4,2,1,80,0,1
67926,379.746835443038,4,2,1,80,1,1
68305,-125,4,2,1,80,0,1
68686,389.61038961039,4,2,1,80,1,1
69075,-125,4,2,1,80,0,1
69854,389.61038961039,4,2,1,80,1,1
69854,-125,4,2,1,80,0,1
70633,405.405405405405,4,2,1,80,1,1
71038,389.61038961039,4,2,1,80,1,1
71427,-125,4,2,1,80,0,1
72986,375,4,2,1,80,1,1
72986,-125,4,2,1,80,0,1
73360,389.61038961039,4,2,1,80,1,1
74531,384.615384615385,4,2,1,80,1,1
74531,-125,4,2,1,80,0,1
76069,389.61038961039,4,2,1,60,1,0
76069,-125,4,2,1,60,0,0
81913,454.545454545455,4,2,1,60,1,0
82368,434.782608695652,4,2,1,60,1,0
82368,-142.857142857143,4,2,1,60,0,0
84107,-142.857142857143,4,2,1,5,0,0
88889,-142.857142857143,4,2,1,5,0,0

[Colours]
Combo1 : 160,252,236
Combo2 : 255,189,123

[HitObjects]
0,320,1675,6,0,L|96:312,1,83.9999999999999,2|2,0:0|0:3,0:0:0:0:
145,369,2454,1,2,0:3:0:0:
214,321,2843,2,0,L|200:227,1,83.9999999999999,14|10,0:0|0:0,0:0:0:0:
493,71,4791,6,0,L|394:61,1,83.9999999999999,2|2,0:0|0:3,0:0:0:0:
343,12,5571,1,2,0:3:0:0:
279,66,5960,2,0,L|298:151,1,83.9999999999999,14|10,0:0|0:0,0:0:0:0:
8,319,7908,6,0,L|19:221,1,83.9999999999999,2|2,0:0|0:3,0:0:0:0:
90,194,8688,1,2,0:3:0:0:
82,110,9077,2,0,L|-10:123,1,83.9999999999999,14|10,0:0|0:0,0:0:0:0:
280,305,11025,6,0,L|372:294,1,83.9999974365235,14|10,0:0|0:0,0:0:0:0:
464,63,12553,2,0,L|366:78,1,83.9999974365235,10|4,0:0|3:3,0:0:0:0:
315,128,13332,1,8,3:3:0:0:
248,77,13752,6,0,B|158:69|180:137|89:129,1,167.999994873047,4|10,3:1|0:0,0:0:0:0:
26,179,14920,1,2,0:3:0:0:
59,255,15310,2,0,L|46:340,2,83.9999974365235,2|2|8,0:0|0:3|0:0,0:0:0:0:
139,229,16479,1,2,3:2:0:0:
201,284,16868,6,0,B|293:288|264:347|354:341,1,167.999994873047,2|10,3:2|0:0,0:0:0:0:
430,374,18037,1,2,0:3:0:0:
498,324,18427,2,0,L|487:230,1,83.9999974365235,2|2,0:0|0:3,0:0:0:0:
425,184,19201,2,0,L|437:96,1,83.9999974365235,8|2,0:0|3:2,0:0:0:0:
386,33,19975,2,0,P|303:50|273:138,1,167.999994873047,2|10,3:2|0:0,0:0:0:0:
208,176,21159,1,2,0:3:0:0:
273,228,21546,2,0,L|366:216,2,83.9999974365235,2|2|8,0:0|0:3|0:0,0:0:0:0:
213,287,22712,1,2,3:2:0:0:
133,260,23093,6,0,P|116:226|119:169,1,83.9999999999999,2|2,3:2|0:3,0:0:0:0:
51,125,23872,2,0,L|69:39,1,83.9999999999999,10|2,0:0|0:3,0:0:0:0:
148,17,24651,1,2,3:2:0:0:
213,69,25026,2,0,L|305:56,1,84.2239974365235,2|10,3:0|0:0,0:0:0:0:
362,118,25820,1,8,3:0:0:0:
411,32,26220,6,0,L|444:244,1,192,6|8,3:2|0:0,0:0:0:0:
502,295,27388,1,2,0:3:0:0:
424,352,27778,2,0,B|322:359|371:279|233:290,1,192,2|8,0:3|0:0,0:0:0:0:
186,360,28947,1,2,3:2:0:0:
105,307,29336,6,0,B|83:263|83:263|104:203,1,96,2|2,3:2|3:2,0:0:0:0:
173,157,30116,2,0,L|368:190,1,192,8|0,0:0|0:0,0:0:0:0:
442,136,31284,1,0,3:0:0:0:
391,54,31668,2,0,L|292:61,1,96,8|0,0:0|3:0,0:0:0:0:
210,15,32437,6,0,B|159:37|101:49|101:49|117:92|126:139,1,192,2|8,3:0|0:0,0:0:0:0:
36,166,33621,1,2,0:3:0:0:
84,248,34012,2,0,B|126:240|126:240|131:242|131:242|192:229,1,96,2|4,0:3|3:2,0:0:0:0:
251,296,34791,1,8,0:0:0:0:
344,318,35175,1,8,3:0:0:0:
430,288,35560,6,0,P|474:214|204:142,1,504.644684619141,4|8,3:1|0:0,0:0:0:0:
53,345,38687,6,0,L|176:358,1,120,4|2,3:1|0:3,0:0:0:0:
242,292,39456,1,10,0:0:0:0:
311,357,39840,1,2,0:3:0:0:
387,298,40225,2,0,L|365:194,1,96,2|2,3:2|3:2,0:0:0:0:
462,211,41012,1,8,0:0:0:0:
507,127,41414,1,2,0:3:0:0:
419,94,41793,6,0,L|401:-3,1,96,2|2,3:2|0:3,0:0:0:0:
306,34,42572,2,0,P|258:53|198:42,1,96,10|2,0:0|0:3,0:0:0:0:
128,5,43351,1,2,3:2:0:0:
91,93,43741,2,0,P|42:74|-15:76,2,96,2|10|2,3:2|0:0|0:3,0:0:0:0:
136,177,44920,6,0,L|120:275,1,96,2|2,3:2|0:3,0:0:0:0:
180,346,45699,2,0,L|285:336,1,96,10|2,0:0|0:3,0:0:0:0:
351,277,46478,1,2,3:2:0:0:
278,213,46868,1,2,3:2:0:0:
342,142,47257,2,0,L|325:41,1,96,10|2,0:0|0:3,0:0:0:0:
418,22,48036,6,0,L|433:116,1,96,2|2,3:2|0:3,0:0:0:0:
496,188,48816,2,0,L|483:305,1,96,10|2,0:0|0:3,0:0:0:0:
416,348,49584,1,2,3:2:0:0:
351,277,49964,1,0,3:0:0:0:
276,337,50366,2,0,B|229:343|229:343|225:339|225:339|172:346,1,96,12|8,0:0|0:0,0:0:0:0:
94,306,51153,6,0,P|61:267|59:220,1,96,4|2,3:1|0:3,0:0:0:0:
149,194,51932,1,10,0:0:0:0:
83,123,52321,1,2,0:3:0:0:
174,94,52711,2,0,L|164:-13,2,96,2|2|10,3:2|3:2|0:0,0:0:0:0:
260,135,53880,1,2,0:3:0:0:
337,77,54269,6,0,B|392:81|368:111|432:115,1,96,2|2,3:2|0:3,0:0:0:0:
491,181,55049,2,0,P|499:237|485:278,1,96,10|2,0:0|0:3,0:0:0:0:
400,314,55828,2,0,P|387:269|405:218,2,96,2|2|14,3:2|3:2|0:0,0:0:0:0:
318,364,56997,1,2,0:3:0:0:
233,318,57386,6,0,L|122:340,1,96,2|2,3:2|0:3,0:0:0:0:
55,289,58155,1,10,0:0:0:0:
123,221,58539,1,2,0:3:0:0:
51,157,58924,2,0,P|42:108|72:66,1,96,2|2,3:2|3:2,0:0:0:0:
145,32,59693,2,0,L|248:15,1,96,10|2,0:0|0:3,0:0:0:0:
322,71,60503,5,14,0:0:0:0:
412,40,60892,1,2,3:2:0:0:
467,118,61282,1,14,0:0:0:0:
407,193,61671,1,2,3:2:0:0:
318,164,62061,6,0,B|224:160|251:247|135:242,1,192,14|8,0:0|3:2,0:0:0:0:
66,292,63245,1,8,0:0:0:0:
108,377,63620,6,0,L|298:352,1,192,6|12,3:2|0:0,0:0:0:0:
390,377,64810,1,2,0:3:0:0:
472,327,65199,2,0,B|477:258|494:202|494:202|448:199|421:182,1,192,2|12,3:2|0:0,0:0:0:0:
368,114,66368,1,2,0:3:0:0:
418,32,66758,6,0,L|515:49,2,96,2|2|12,3:2|3:2|0:0,0:0:0:0:
325,6,67926,1,2,0:3:0:0:
255,72,68305,2,0,L|159:82,1,96,2|0,3:3|3:0,0:0:0:0:
84,21,69075,2,0,P|62:69|68:117,1,96,12|0,0:0|3:0,0:0:0:0:
25,197,69854,6,0,B|135:187|90:266|221:256,1,192,6|12,3:2|0:0,0:0:0:0:
288,296,71038,1,2,0:3:0:0:
353,225,71427,2,0,L|324:29,1,192,2|12,3:2|0:0,0:0:0:0:
414,1,72596,1,2,3:2:0:0:
487,62,72986,6,0,L|472:164,1,96,14|2,0:0|3:0,0:0:0:0:
508,246,73749,1,12,0:0:0:0:
436,310,74139,1,2,3:0:0:0:
339,300,74531,6,0,L|225:313,1,96,12|8,0:0|0:0,0:0:0:0:
171,374,75300,1,8,0:0:0:0:
106,303,75684,1,8,3:0:0:0:
36,367,76069,6,0,L|52:156,1,192,4|8,3:1|0:0,0:0:0:0:
6,90,77237,1,8,0:0:0:0:
90,44,77627,2,0,L|194:61,1,96,8|0,0:0|3:0,0:0:0:0:
252,127,78406,2,0,L|369:109,1,96,8|8,0:0|0:0,0:0:0:0:
435,148,79185,6,0,P|461:93|458:54,2,96,0|0|8,3:0|3:0|0:0,0:0:0:0:
493,224,80354,1,8,0:0:0:0:
413,277,80744,2,0,L|313:289,1,96,8|0,0:0|3:0,0:0:0:0:
245,221,81523,2,0,B|250:171|250:171|247:164|247:164|253:109,1,96.2464,8|8,0:0|3:0,0:0:0:0:
198,55,82368,6,0,P|109:52|71:266,1,336,4|0,3:1|0:0,0:0:0:0:
256,192,84324,12,0,88889,0:0:0:0:
