osu file format v14

[General]
AudioFilename: audio.mp3
AudioLeadIn: 0
PreviewTime: 93794
Countdown: 0
SampleSet: Normal
StackLeniency: 0.2
Mode: 0
LetterboxInBreaks: 0
EpilepsyWarning: 1
WidescreenStoryboard: 1

[Editor]
Bookmarks: 110789
DistanceSpacing: 0.14
BeatDivisor: 4
GridSize: 32
TimelineZoom: 2.2

[Metadata]
Title:len
TitleUnicode:len~錬~
Artist:Chata
ArtistUnicode:茶太
Creator:Kalibe
Version:emptiness
Source:東方紺珠伝 ~ Legacy of Lunatic Kingdom.
Tags:Forge 東方事変 Touhou Jihen Toho Project 東方Project N+ NSY shuriken 宇宙を飛ぶ不思議な巫女 Sora o Tobu Fushigi na Miko The Mysterious Shrine Maiden Flying Through Space Doremy Sweet peter
BeatmapID:1918025
BeatmapSetID:918509

[Difficulty]
HPDrainRate:7
CircleSize:4
OverallDifficulty:8
ApproachRate:8
SliderMultiplier:1.4
SliderTickRate:1

[Events]
//Background and Video events
0,0,"owooowo.jpg",0,0
//Break Periods
//Storyboard Layer 0 (Background)
//Storyboard Layer 1 (Fail)
//Storyboard Layer 2 (Pass)
//Storyboard Layer 3 (Foreground)
//Storyboard Sound Samples

[TimingPoints]
500,346.820809248555,6,2,1,30,1,0
500,-200,6,2,1,30,0,0
15066,-166.666666666667,6,2,1,35,0,0
15586,-166.666666666667,6,2,1,40,0,0
18014,-250,6,2,1,45,0,0
18881,-90.9090909090909,6,1,1,50,0,0
19228,-100,6,1,1,60,0,0
35875,-166.666666666667,6,2,1,45,0,0
69170,-133.333333333333,6,1,1,50,0,0
73332,-166.666666666667,6,2,1,40,0,0
88939,-222.222222222221,6,2,1,15,0,0
89112,-250,6,1,1,35,0,0
89286,-250,6,1,1,15,0,0
89459,-285.714285714286,6,1,1,30,0,0
89632,-285.714285714286,6,1,1,15,0,0
89806,-333.333333333333,6,1,1,25,0,0
89979,-333.333333333333,6,1,1,15,0,0
90153,-666.666666666658,6,1,1,20,0,0
90239,-666.666666666658,6,1,1,5,0,0
93794,-333.333333333333,6,1,1,20,0,0
94054,-333.333333333333,6,1,1,5,0,0
94141,-100,6,1,1,60,0,0
110789,-90.9090909090909,6,1,1,50,0,0
143736,-333.333333333333,6,1,1,50,0,0
143997,-333.333333333333,6,1,1,5,0,0
144083,-83.3333333333333,6,1,1,60,0,0
146078,-83.3333333333333,6,1,1,5,0,0
146164,-83.3333333333333,6,1,1,60,0,0
173216,-90.9090909090909,6,1,1,55,0,0
177378,-90.9090909090909,6,1,1,45,0,0
189864,-153.846153846153,6,2,1,50,0,0
194026,-80,6,1,1,70,0,1
202176,-68.9655172413793,6,1,1,70,0,1
202349,-80,6,1,1,70,0,1
210673,-80,6,1,1,65,0,0
231482,-86.9565217391304,6,1,1,55,0,0
235644,-95.2380952380952,6,1,1,50,0,0
237378,-105.263157894737,6,1,1,50,0,0
239806,-200,6,2,1,30,0,0
254372,-166.666666666667,6,2,1,35,0,0
254893,-166.666666666667,6,2,1,40,0,0

[Colours]
Combo1 : 83,145,153
Combo2 : 192,192,192
Combo3 : 128,128,128
Combo4 : 49,160,221
Combo5 : 160,148,218
Combo6 : 147,223,32
Combo7 : 89,225,151
Combo8 : 134,113,151

[HitObjects]
491,374,500,6,0,P|498:328|509:235,1,140,2|8,1:0|0:2,0:0:0:0:
418,338,1367,1,4,0:3:0:0:
354,300,1540,2,0,L|305:312,1,35,0|0,3:0|0:0,0:0:0:0:
256,271,1887,2,0,L|206:266,1,35,2|0,0:0|0:0,0:0:0:0:
107,348,2234,1,8,0:2:0:0:
107,348,2407,1,4,0:3:0:0:
72,154,2580,6,0,P|89:57|87:15,1,140,2|2,1:0|0:0,0:0:0:0:
184,106,3447,2,0,L|230:97,1,35,4|8,0:3|0:2,0:0:0:0:
285,141,3794,1,0,3:0:0:0:
214,199,3968,101,8,0:2:0:0:
305,62,4141,1,8,0:0:0:0:
342,223,4315,1,2,3:2:0:0:
285,141,4488,1,0,3:0:0:0:
400,9,4661,6,0,P|466:27|504:90,1,140,2|8,1:0|0:0,0:0:0:0:
424,178,5528,1,4,0:3:0:0:
491,204,5702,2,0,L|501:247,1,35,0|0,3:0|0:0,0:0:0:0:
421,278,6049,2,0,L|413:319,1,35,2|0,0:0|0:0,0:0:0:0:
490,363,6395,1,8,0:0:0:0:
274,289,6569,101,4,0:3:0:0:
274,289,6742,2,0,B|197:274|233:232|157:215,1,140,2|2,1:0|0:0,0:0:0:0:
67,157,7609,2,0,L|23:170,1,35,4|8,0:3|0:0,0:0:0:0:
69,231,7956,1,0,3:0:0:0:
13,338,8130,5,8,0:0:0:0:
120,292,8303,1,8,0:0:0:0:
177,341,8476,2,0,L|166:386,1,35,2|0,3:2|3:0,0:0:0:0:
368,158,8823,102,0,B|357:98|358:14|358:14,1,140,2|8,1:0|0:0,0:0:0:0:
276,71,9690,1,4,0:3:0:0:
203,44,9864,2,0,L|185:-1,1,35,0|0,3:0|0:0,0:0:0:0:
98,98,10210,2,0,L|112:51,1,35,2|0,0:0|0:0,0:0:0:0:
276,175,10557,5,8,0:0:0:0:
385,88,10731,1,4,0:3:0:0:
501,163,10904,2,0,P|531:207|509:289,1,140,2|2,1:0|0:0,0:0:0:0:
383,345,11771,101,4,0:3:0:0:
298,384,11945,2,0,L|290:343,1,35,8|0,0:0|3:0,0:0:0:0:
232,190,12291,5,8,0:0:0:0:
132,319,12465,1,8,0:0:0:0:
256,261,12638,1,2,3:2:0:0:
161,212,12812,1,0,3:0:0:0:
201,352,12985,1,2,1:0:0:0:
201,352,13332,102,0,L|190:388,1,35,2|0,0:0|3:0,0:0:0:0:
355,297,13679,2,0,L|366:333,1,35,8|4,0:0|0:3,0:0:0:0:
230,275,14026,1,0,3:0:0:0:
300,239,14199,1,0,2:0:0:0:
241,198,14372,1,2,0:0:0:0:
272,176,14546,1,0,2:0:0:0:
332,118,14719,5,8,0:0:0:0:
228,63,14893,1,4,0:3:0:0:
284,0,15066,101,2,1:0:0:0:
284,0,15413,1,0,1:0:0:0:
156,157,15586,6,0,L|17:175,1,125.999996154785,2|8,3:2|0:0,0:0:0:0:
161,251,16280,1,0,3:0:0:0:
114,324,16453,1,8,0:0:0:0:
243,247,16627,1,8,0:0:0:0:
324,302,16800,1,0,3:0:0:0:
324,302,16973,1,0,3:0:0:0:
452,183,17147,102,0,B|433:126|433:126|455:59,1,125.999996154785,8|0,3:0|3:0,0:0:0:0:
353,190,17841,5,8,0:0:0:0:
265,159,18014,1,4,0:3:0:0:
161,251,18187,101,0,3:0:0:0:
89,281,18361,1,0,2:0:0:0:
100,204,18534,1,0,0:0:0:0:
116,245,18708,5,2,2:0:0:0:
3,160,18881,102,0,P|13:82|23:-3,1,154.000004699707,2|4,1:0|0:0,0:0:0:0:
103,10,19575,21,2,0:0:0:0:
178,33,19748,1,0,1:0:0:0:
299,111,19921,1,0,3:0:0:0:
355,58,20095,1,2,0:0:0:0:
302,233,20268,2,0,B|284:264|284:264|295:310,1,70,8|0,0:0|0:0,0:0:0:0:
374,374,20615,2,0,B|392:343|392:343|384:309,1,70,2|0,0:0|0:0,0:0:0:0:
169,215,20962,6,0,P|99:227|17:240,1,140,2|4,3:0|3:2,0:0:0:0:
124,308,21482,1,0,0:0:0:0:
40,370,21656,1,2,0:0:0:0:
230,289,21829,101,0,3:0:0:0:
295,330,22002,1,2,0:2:0:0:
244,202,22176,1,0,3:0:0:0:
411,318,22349,2,0,P|443:321|500:339,1,70,8|0,0:0|0:0,0:0:0:0:
369,237,22696,5,8,0:2:0:0:
500,161,22869,1,4,3:0:0:0:
460,244,23043,101,0,3:0:0:0:
392,68,23216,1,2,3:0:0:0:
512,60,23390,6,0,B|463:45|401:75|457:109|375:155|318:123,1,210,4|0,0:0|0:0,0:0:0:0:
238,17,24083,1,2,0:0:0:0:
305,41,24257,1,0,3:0:0:0:
210,248,24430,1,8,0:0:0:0:
160,186,24604,1,0,0:0:0:0:
234,160,24777,1,2,0:0:0:0:
283,223,24950,1,2,0:2:0:0:
82,270,25124,102,0,L|6:291,1,70,8|0,0:2|0:0,0:0:0:0:
184,362,25471,2,0,B|254:348|254:348|335:388,1,140,2|2,3:0|0:2,0:0:0:0:
512,281,25991,1,0,3:0:0:0:
472,217,26164,1,2,0:0:0:0:
414,363,26338,1,8,3:0:0:0:
392,109,26511,5,4,1:2:0:0:
389,97,26684,1,2,3:0:0:0:
259,163,26858,101,8,3:0:0:0:
245,235,27031,1,0,3:0:0:0:
77,380,27205,5,0,3:0:0:0:
36,264,27378,1,0,3:0:0:0:
144,62,27552,102,0,L|120:199,2,140,4|2|0,0:0|0:0|3:0,0:0:0:0:
207,151,28419,1,2,0:0:0:0:
340,78,28592,6,0,P|348:38|355:1,1,70,8|0,0:0|0:0,0:0:0:0:
207,151,28939,2,0,P|166:168|136:185,1,70,2|0,0:0|0:0,0:0:0:0:
343,226,29286,2,0,P|373:262|388:285,1,70,0|0,3:0|0:0,0:0:0:0:
244,58,29632,102,0,P|204:23|96:38,1,140,4|0,0:2|0:0,0:0:0:0:
0,143,30153,1,0,3:0:0:0:
46,203,30326,2,0,B|29:235|29:235|33:278,1,70,2|0,0:0|3:0,0:0:0:0:
193,384,30673,5,8,0:0:0:0:
251,223,30846,1,0,3:0:0:0:
172,196,31020,101,8,0:2:0:0:
276,354,31193,1,8,0:2:0:0:
310,279,31367,5,2,3:0:0:0:
117,346,31540,1,2,3:0:0:0:
424,256,31713,102,0,P|313:191|240:236,1,210,4|0,0:0|0:0,0:0:0:0:
144,266,32407,1,0,3:0:0:0:
210,310,32580,1,8,3:0:0:0:
148,177,32754,2,0,P|114:190|68:203,1,70,8|0,0:0|0:0,0:0:0:0:
70,351,33101,2,0,P|103:361|136:373,1,70,2|0,0:0|0:0,0:0:0:0:
262,291,33447,2,0,P|253:257|250:222,1,70,2|0,3:0|0:0,0:0:0:0:
150,1,33794,6,0,P|98:30|93:106,1,140,4|2,0:2|0:0,0:0:0:0:
4,172,34315,1,8,3:0:0:0:
156,269,34488,101,8,0:0:0:0:
259,322,34661,1,8,3:0:0:0:
299,231,34835,5,4,0:0:0:0:
163,347,35008,1,8,0:0:0:0:
161,156,35182,101,10,0:0:0:0:
336,298,35355,1,2,3:0:0:0:
476,133,35528,5,8,3:0:0:0:
464,99,35615,1,0,3:0:0:0:
472,70,35702,1,0,1:0:0:0:
489,42,35789,1,0,1:0:0:0:
478,9,35875,1,2,0:0:0:0:
478,9,36569,70,0,P|448:15|424:17,1,41.9999987182618,8|4,0:2|0:3,0:0:0:0:
377,57,36916,2,0,P|339:61|283:70,1,83.9999974365235,0|2,3:0|0:0,0:0:0:0:
240,116,37436,1,0,0:0:0:0:
215,101,37609,1,8,0:0:0:0:
187,138,37783,1,4,0:3:0:0:
105,76,37956,6,0,L|123:253,1,167.999994873047,2|2,1:0|0:0,0:0:0:0:
75,293,38823,1,4,0:3:0:0:
152,337,38997,1,8,0:0:0:0:
90,366,39170,1,0,3:0:0:0:
197,265,39343,101,8,0:0:0:0:
302,224,39517,1,8,0:0:0:0:
331,339,39690,5,0,3:0:0:0:
269,295,39864,1,0,3:0:0:0:
449,319,40037,102,0,L|495:330,1,41.9999987182618,2|0,1:0|0:0,0:0:0:0:
445,191,40384,2,0,P|441:148|436:101,1,83.9999974365235,4|8,0:0|0:0,0:0:0:0:
500,77,40904,1,4,0:3:0:0:
427,14,41078,2,0,P|402:9|381:4,1,41.9999987182618,0|0,3:0|0:0,0:0:0:0:
327,162,41424,2,0,P|293:168|242:179,1,83.9999974365235,2|8,0:0|0:0,0:0:0:0:
176,155,41945,1,4,0:3:0:0:
297,46,42118,6,0,P|214:35|165:26,1,125.999996154785,2|2,1:0|3:2,0:0:0:0:
94,79,42812,2,0,L|47:90,1,41.9999987182618,0|4,0:0|0:3,0:0:0:0:
97,194,43158,1,8,0:0:0:0:
33,238,43332,1,0,3:0:0:0:
25,165,43505,101,8,0:0:0:0:
101,268,43679,1,8,0:0:0:0:
40,312,43852,1,0,3:0:0:0:
33,238,44026,1,0,3:0:0:0:
111,345,44199,6,0,L|92:404,1,41.9999987182618,2|0,1:0|0:0,0:0:0:0:
220,244,44546,2,0,P|216:204|212:146,1,83.9999974365235,4|8,0:0|0:0,0:0:0:0:
287,170,45066,1,4,0:3:0:0:
363,256,45239,2,0,P|371:215|381:170,2,83.9999974365235,0|2|10,3:0|0:1|0:0,0:0:0:0:
318,320,46106,101,4,0:3:0:0:
221,283,46280,2,0,P|170:290|114:345,1,125.999996154785,2|0,1:0|3:0,0:0:0:0:
49,308,46973,2,0,L|3:328,1,41.9999987182618,0|4,0:0|0:3,0:0:0:0:
94,179,47320,2,0,L|84:134,1,41.9999987182618,8|0,0:0|3:0,0:0:0:0:
9,142,47667,5,8,0:0:0:0:
129,68,47841,1,8,0:0:0:0:
55,38,48014,1,2,3:2:0:0:
55,38,48187,1,0,3:0:0:0:
226,20,48361,102,0,P|266:30|361:46,1,125.999996154785,2|0,1:0|3:0,0:0:0:0:
448,108,49054,2,0,P|451:88|462:60,1,41.9999987182618,8|4,0:0|0:3,0:0:0:0:
346,164,49401,2,0,P|353:201|357:256,2,83.9999974365235,0|2|8,3:0|0:0|0:0,0:0:0:0:
423,177,50268,1,4,0:3:0:0:
272,226,50442,6,0,P|197:254|151:287,1,125.999996154785,2|0,1:0|3:0,0:0:0:0:
15,151,51309,1,4,0:3:0:0:
25,157,51482,2,0,L|81:148,1,41.9999987182618,10|0,0:0|3:0,0:0:0:0:
157,84,51829,1,8,0:0:0:0:
228,103,52002,1,8,0:0:0:0:
279,151,52176,1,2,3:2:0:0:
293,148,52349,1,0,3:0:0:0:
459,21,52523,102,0,P|453:55|446:159,1,125.999996154785,2|0,1:0|3:0,0:0:0:0:
394,202,53216,1,8,0:0:0:0:
479,259,53390,1,4,0:3:0:0:
406,290,53563,2,0,L|397:335,1,41.9999987182618,0|0,3:0|0:0,0:0:0:0:
487,378,53910,2,0,L|478:336,1,41.9999987182618,2|0,0:0|0:0,0:0:0:0:
413,80,54257,5,8,0:0:0:0:
409,85,54604,2,0,B|353:56|353:56|294:75,1,125.999996154785,2|0,1:0|3:0,0:0:0:0:
178,138,55297,1,2,0:0:0:0:
124,88,55471,2,0,L|132:43,1,41.9999987182618,4|8,0:3|0:0,0:0:0:0:
269,0,55817,101,0,3:0:0:0:
324,104,55991,5,8,0:0:0:0:
238,216,56164,1,8,0:0:0:0:
321,289,56338,101,0,3:0:0:0:
324,297,56511,1,0,3:0:0:0:
251,357,56684,6,0,L|203:372,1,41.9999987182618,2|0,1:0|0:0,0:0:0:0:
82,263,57031,2,0,P|25:251|-11:241,2,83.9999974365235,4|8|0,0:0|0:0|3:0,0:0:0:0:
322,115,58072,2,0,L|311:61,1,41.9999987182618,2|0,0:0|0:0,0:0:0:0:
403,152,58419,1,8,0:0:0:0:
419,73,58592,1,4,0:3:0:0:
238,115,58765,102,0,P|179:125|120:181,1,125.999996154785,2|2,1:0|3:2,0:0:0:0:
70,115,59459,2,0,L|16:108,1,41.9999987182618,0|4,0:0|0:3,0:0:0:0:
130,30,59806,5,8,0:0:0:0:
160,40,59979,1,2,1:3:0:0:
212,203,60153,5,8,1:2:0:0:
304,171,60326,1,8,1:2:0:0:
375,330,60500,5,2,1:3:0:0:
498,380,60673,1,2,1:3:0:0:
450,187,60846,70,0,B|423:116|486:79|446:12,1,167.999994873047,2|8,1:0|0:0,0:0:0:0:
368,245,61713,1,4,0:3:0:0:
298,192,61887,2,0,P|291:249|283:290,2,83.9999974365235,0|2|8,3:0|0:0|0:0,0:0:0:0:
216,39,62927,6,0,P|196:82|83:105,1,167.999994873047,2|2,1:0|0:0,0:0:0:0:
27,145,63794,1,4,0:3:0:0:
78,235,63968,2,0,L|62:288,1,41.9999987182618,8|0,0:0|3:0,0:0:0:0:
151,384,64315,101,10,0:0:0:0:
233,260,64488,1,8,0:0:0:0:
355,181,64661,5,2,3:2:0:0:
284,157,64835,1,0,3:0:0:0:
338,338,65008,102,0,P|382:337|447:276,2,125.999996154785,2|0|2,1:0|3:0|0:0,0:0:0:0:
176,200,66395,2,0,L|127:188,1,41.9999987182618,4|0,0:3|0:0,0:0:0:0:
225,118,66742,1,8,0:0:0:0:
156,64,66916,1,4,0:3:0:0:
282,60,67089,6,0,B|381:39|345:115|441:106,1,167.999994873047,2|2,1:0|0:0,0:0:0:0:
512,72,67956,1,4,0:3:0:0:
512,150,68130,2,0,B|502:190|502:190|510:239,1,83.9999974365235,8|8,0:0|0:0,0:0:0:0:
354,371,68650,5,8,0:0:0:0:
369,275,68823,1,2,3:0:0:0:
388,346,68997,1,0,3:0:0:0:
271,306,69170,6,0,P|217:318|104:342,1,157.500006008148,2|0,0:0|0:0,0:0:0:0:
8,228,69864,2,0,B|0:202|0:202|7:176,1,52.5000020027161,8|4,0:2|0:3,0:0:0:0:
162,56,70210,2,0,B|174:82|174:82|167:108,1,52.5000020027161,0|0,3:0|0:0,0:0:0:0:
95,194,70557,2,0,P|87:142|78:83,1,105.000004005432,2|8,0:0|0:2,0:0:0:0:
240,19,71078,101,8,0:2:0:0:
311,49,71251,2,0,B|426:12|385:129|513:104,1,210.000008010865,2|0,1:0|2:0,0:0:0:0:
467,197,72118,1,4,0:3:0:0:
346,266,72291,5,8,0:2:0:0:
332,194,72465,1,0,3:0:0:0:
205,335,72638,101,8,0:2:0:0:
97,384,72812,1,8,0:2:0:0:
307,338,72985,5,0,3:0:0:0:
328,346,73158,1,0,3:0:0:0:
238,259,73332,70,0,L|247:206,1,41.9999987182618,0|0,1:0|0:0,0:0:0:0:
55,176,73679,6,0,L|53:129,1,41.9999987182618,2|0,0:0|3:0,0:0:0:0:
102,73,74026,1,8,0:0:0:0:
102,73,74199,1,4,0:3:0:0:
190,15,74372,102,0,L|236:25,1,41.9999987182618,2|0,1:0|0:0,0:0:0:0:
346,141,74719,6,0,L|395:130,1,41.9999987182618,2|0,0:0|0:0,0:0:0:0:
444,88,75066,1,8,0:0:0:0:
444,88,75239,1,4,0:3:0:0:
393,217,75413,101,0,3:0:0:0:
372,292,75586,1,0,0:0:0:0:
444,271,75760,2,0,L|488:289,1,41.9999987182618,2|0,0:0|3:0,0:0:0:0:
320,238,76106,2,0,L|274:244,1,41.9999987182618,0|4,0:0|0:3,0:0:0:0:
0,373,76453,5,8,0:0:0:0:
10,342,76627,1,0,3:0:0:0:
104,297,76800,101,2,1:0:0:0:
82,171,76973,1,8,0:0:0:0:
191,104,77147,5,2,3:1:0:0:
219,5,77320,1,0,3:0:0:0:
126,52,77494,102,0,L|81:62,1,41.9999987182618,2|0,1:0|0:0,0:0:0:0:
284,126,77841,6,0,L|326:138,1,41.9999987182618,2|0,0:0|3:0,0:0:0:0:
170,221,78187,1,8,0:0:0:0:
170,221,78361,1,4,0:3:0:0:
228,319,78534,102,0,P|234:299|236:275,1,41.9999987182618,2|0,1:0|0:0,0:0:0:0:
55,142,78881,6,0,P|59:156|61:184,1,41.9999987182618,2|0,0:0|0:0,0:0:0:0:
1,272,79228,1,8,0:0:0:0:
1,272,79401,1,4,0:3:0:0:
152,115,79575,101,2,1:0:0:0:
223,92,79748,1,0,0:0:0:0:
241,167,79921,1,0,1:0:0:0:
169,193,80095,1,0,3:0:0:0:
295,110,80268,2,0,L|339:120,1,41.9999987182618,2|4,0:0|0:3,0:0:0:0:
485,219,80615,5,10,0:0:0:0:
454,232,80789,1,0,3:0:0:0:
367,196,80962,101,2,1:0:0:0:
461,314,81135,1,8,0:0:0:0:
445,138,81309,5,2,0:1:0:0:
343,354,81482,101,0,3:0:0:0:
349,371,81569,1,8,3:0:0:0:
335,368,81656,1,4,1:2:0:0:
272,318,81829,1,0,1:0:0:0:
207,359,82002,1,0,1:0:0:0:
132,335,82176,1,0,1:0:0:0:
8,184,82349,5,8,0:0:0:0:
8,184,82523,1,4,0:3:0:0:
141,41,82696,101,2,1:0:0:0:
210,73,82869,1,0,0:0:0:0:
279,42,83043,2,0,L|285:-8,1,41.9999987182618,2|0,0:0|0:0,0:0:0:0:
357,70,83390,1,8,0:0:0:0:
357,70,83563,1,4,0:3:0:0:
496,32,83736,5,2,1:0:0:0:
438,81,83910,1,0,0:0:0:0:
501,152,84083,2,0,L|513:107,1,41.9999987182618,2|0,0:0|3:0,0:0:0:0:
404,214,84430,2,0,L|393:172,1,41.9999987182618,2|4,0:0|0:3,0:0:0:0:
281,136,84777,101,10,0:0:0:0:
265,212,84950,1,0,3:0:0:0:
179,164,85124,5,2,1:0:0:0:
220,301,85297,1,8,0:0:0:0:
342,185,85471,101,2,0:1:0:0:
82,298,85644,5,0,3:0:0:0:
76,318,85731,1,8,3:0:0:0:
91,310,85817,1,4,1:2:0:0:
158,351,85991,1,0,1:0:0:0:
220,301,86164,1,0,1:0:0:0:
162,256,86338,1,0,1:0:0:0:
81,202,86511,101,8,0:0:0:0:
100,116,86684,1,4,0:3:0:0:
300,96,86858,5,0,3:0:0:0:
230,127,87031,1,2,0:0:0:0:
188,63,87205,1,0,0:0:0:0:
260,30,87378,1,2,1:0:0:0:
388,7,87552,5,8,1:2:0:0:
421,121,87725,5,4,1:3:0:0:
383,285,87898,101,2,1:0:0:0:
383,285,88245,1,0,1:0:0:0:
383,285,88592,1,0,1:0:0:0:
293,353,88765,102,0,L|245:368,1,41.9999987182618,8|0,0:0|2:0,0:0:0:0:
52,256,89112,102,0,L|78:264,1,28,2|0,2:0|2:0,0:0:0:0:
261,167,89459,6,0,L|234:174,1,24.4999992523194,2|0,2:0|2:0,0:0:0:0:
132,114,89806,102,0,L|152:121,1,20.9999993591309,2|0,2:0|2:0,0:0:0:0:
170,139,90153,6,0,B|184:94|184:94|177:72|177:72|190:27,1,115.49999647522,2|0,0:3|2:0,0:0:0:0:
68,126,93794,102,0,L|100:134,1,31.4999990386963,0|0,2:1|2:0,0:0:0:0:
179,102,94141,22,0,B|62:87|100:178|-12:159,1,210,4|0,0:0|3:0,0:0:0:0:
123,241,94835,1,0,3:0:0:0:
150,312,95008,1,2,0:0:0:0:
45,241,95182,1,8,0:0:0:0:
170,177,95355,1,0,0:2:0:0:
365,286,95528,6,0,B|375:321|375:321|359:356,1,70,2|0,0:0|0:0,0:0:0:0:
307,176,95875,2,0,L|459:211,1,140,2|4,3:0|0:2,0:0:0:0:
403,18,96395,101,0,0:0:0:0:
334,48,96569,1,2,0:0:0:0:
231,110,96742,1,0,3:0:0:0:
159,84,96916,1,2,0:2:0:0:
4,166,97089,5,0,3:0:0:0:
240,283,97263,101,8,0:0:0:0:
169,159,97436,1,0,0:0:0:0:
50,341,97609,5,8,0:2:0:0:
136,293,97783,1,4,0:3:0:0:
62,244,97956,1,0,3:0:0:0:
122,375,98130,1,2,3:0:0:0:
366,221,98303,102,0,P|434:223|498:358,1,210,4|0,0:0|0:0,0:0:0:0:
389,299,98997,1,2,0:0:0:0:
293,364,99170,1,0,3:0:0:0:
201,150,99343,6,0,L|222:-10,2,140,8|2|8,0:0|0:0|0:2,0:0:0:0:
230,223,100210,1,0,0:0:0:0:
134,188,100384,2,0,B|60:187|81:231|-24:220,1,140,2|2,3:0|0:2,0:0:0:0:
157,275,100904,101,0,3:0:0:0:
26,374,101078,2,0,B|23:340|23:340|44:307,1,70,2|8,0:0|3:0,0:0:0:0:
297,155,101424,2,0,B|316:185|316:185|313:219,1,70,4|2,1:2|3:0,0:0:0:0:
227,322,101771,5,8,3:0:0:0:
74,185,101945,1,0,3:0:0:0:
229,204,102118,101,8,3:0:0:0:
126,277,102291,1,0,3:0:0:0:
269,46,102465,6,0,B|402:-5|424:134|424:134,1,210,4|0,0:0|0:0,0:0:0:0:
512,191,103158,1,0,3:0:0:0:
382,242,103332,1,2,0:0:0:0:
512,302,103505,102,0,P|477:296|444:285,1,70,8|0,0:0|0:0,0:0:0:0:
283,89,103852,2,0,P|294:123|315:164,1,70,2|0,0:0|0:0,0:0:0:0:
195,381,104199,2,0,P|214:351|230:320,1,70,0|0,3:0|0:0,0:0:0:0:
181,197,104546,6,0,B|166:281|257:324|331:268,1,210,4|0,0:2|3:0,0:0:0:0:
450,210,105239,1,2,0:0:0:0:
361,145,105413,1,0,3:0:0:0:
450,60,105586,2,0,B|436:92|436:92|446:132,1,70,8|0,0:0|0:0,0:0:0:0:
337,384,105933,101,8,0:2:0:0:
228,197,106106,1,8,0:2:0:0:
219,339,106280,5,2,3:0:0:0:
318,252,106453,1,2,3:0:0:0:
67,16,106627,102,0,L|35:238,1,210,4|0,0:0|0:0,0:0:0:0:
0,294,107320,1,0,3:0:0:0:
130,172,107494,1,8,3:0:0:0:
251,384,107667,6,0,L|238:235,2,140,8|2|2,0:0|0:0|3:0,0:0:0:0:
325,364,108534,1,0,0:0:0:0:
366,179,108708,102,0,B|349:210|349:210|352:256,1,70,4|0,0:2|0:0,0:0:0:0:
437,377,109054,2,0,B|454:346|454:346|451:311,1,70,2|0,0:0|3:0,0:0:0:0:
348,100,109401,5,8,0:0:0:0:
454,56,109575,1,8,3:0:0:0:
336,26,109748,101,4,0:0:0:0:
436,123,109921,1,8,0:0:0:0:
300,168,110095,5,10,0:0:0:0:
406,0,110268,1,2,3:0:0:0:
215,14,110442,101,8,3:0:0:0:
174,21,110528,1,8,3:0:0:0:
132,28,110615,1,0,1:0:0:0:
90,36,110702,1,0,1:0:0:0:
48,45,110789,1,4,0:0:0:0:
48,45,111309,53,0,0:0:0:0:
183,106,111482,2,0,P|209:112|272:127,1,77.0000023498536,0|4,3:0|0:3,0:0:0:0:
128,216,111829,2,0,P|74:239|29:321,2,154.000004699707,8|0|8,0:0|1:0|0:2,0:0:0:0:
173,281,112696,1,4,0:3:0:0:
340,249,112869,6,0,B|448:267|372:299|491:313,1,154.000004699707,2|0,3:0|0:0,0:0:0:0:
477,312,113563,1,0,3:0:0:0:
407,155,113736,1,2,0:0:0:0:
498,96,113910,2,0,B|515:131|515:131|510:183,1,77.0000023498536,8|0,0:0|0:0,0:0:0:0:
360,363,114257,1,8,0:2:0:0:
246,307,114430,2,0,L|145:337,1,77.0000023498536,8|0,0:2|3:0,0:0:0:0:
94,378,114777,1,4,0:3:0:0:
7,178,114950,102,0,P|16:227|122:264,1,154.000004699707,2|0,3:0|0:0,0:0:0:0:
323,79,115644,1,8,0:2:0:0:
251,4,115817,1,4,0:3:0:0:
148,99,115991,2,0,L|241:78,1,77.0000023498536,8|0,0:0|0:0,0:0:0:0:
385,191,116338,2,0,L|247:172,1,115.50000352478,2|0,0:0|2:0,0:0:0:0:
252,164,116684,2,0,P|257:219|257:270,1,77.0000023498536,8|0,0:2|3:0,0:0:0:0:
508,123,117031,6,0,P|461:33|337:48,1,231.000007049561,2|0,3:0|0:0,0:0:0:0:
430,179,117725,1,0,3:0:0:0:
333,221,117898,1,4,0:3:0:0:
478,339,118072,2,0,P|417:330|353:324,1,115.50000352478,8|0,0:0|2:0,0:0:0:0:
339,347,118419,101,8,0:2:0:0:
201,268,118592,1,8,0:2:0:0:
324,213,118765,5,2,3:0:0:0:
421,171,118939,1,0,3:0:0:0:
267,98,119112,102,0,L|109:69,2,154.000004699707,4|2|2,0:0|0:0|3:0,0:0:0:0:
102,160,119979,1,2,0:0:0:0:
170,242,120153,2,0,L|96:267,1,77.0000023498536,8|0,0:0|0:0,0:0:0:0:
355,151,120500,2,0,P|405:162|453:259,1,154.000004699707,2|8,0:0|0:2,0:0:0:0:
329,384,121020,1,4,0:3:0:0:
329,384,121106,1,0,1:0:0:0:
329,384,121193,6,0,P|365:267|363:217,1,154.000004699707,2|2,3:0|0:0,0:0:0:0:
293,198,121713,1,0,0:0:0:0:
345,106,121887,1,0,3:0:0:0:
312,36,122060,1,4,0:3:0:0:
425,100,122234,2,0,L|528:120,1,77.0000023498536,8|0,0:0|0:0,0:0:0:0:
390,275,122580,101,8,0:2:0:0:
508,194,122754,1,8,0:2:0:0:
317,75,122927,2,0,L|216:91,1,77.0000023498536,0|4,3:0|0:3,0:0:0:0:
221,81,123187,1,2,2:0:0:0:
208,55,123274,6,0,P|203:106|188:212,1,154.000004699707,2|0,3:0|0:0,0:0:0:0:
112,115,123794,2,0,P|74:126|15:142,1,77.0000023498536,2|8,0:0|0:2,0:0:0:0:
83,202,124141,1,4,0:3:0:0:
0,306,124315,2,0,P|60:310|134:382,2,154.000004699707,8|2|8,0:0|0:0|0:2,0:0:0:0:
177,175,125182,101,4,0:3:0:0:
241,259,125355,2,0,P|292:259|363:180,1,154.000004699707,4|2,0:2|0:0,0:0:0:0:
454,341,125875,1,8,0:0:0:0:
426,265,126049,1,2,3:0:0:0:
377,370,126222,1,0,3:0:0:0:
499,225,126395,5,10,0:0:0:0:
437,47,126569,1,10,0:0:0:0:
512,117,126742,101,8,3:0:0:0:
360,189,126916,1,10,3:0:0:0:
350,83,127089,5,4,3:2:0:0:
431,127,127263,1,0,3:0:0:0:
189,307,127436,102,0,P|177:209|289:147,1,231.000007049561,4|0,0:0|0:0,0:0:0:0:
399,259,128130,2,0,P|435:265|484:276,1,77.0000023498536,0|4,3:0|0:3,0:0:0:0:
346,328,128476,2,0,P|364:255|377:162,2,154.000004699707,8|2|2,0:0|0:0|3:0,0:0:0:0:
458,188,129343,5,8,0:2:0:0:
431,108,129517,2,0,B|423:70|423:70|425:26,1,77.0000023498536,4|0,0:2|0:0,0:0:0:0:
283,200,129864,2,0,B|301:126|301:126|303:40,1,154.000004699707,2|0,0:0|3:0,0:0:0:0:
372,163,130384,1,4,0:3:0:0:
211,46,130557,101,8,0:0:0:0:
128,88,130731,1,0,3:0:0:0:
126,175,130904,5,8,0:2:0:0:
41,70,131078,1,8,0:2:0:0:
0,195,131251,1,0,3:0:0:0:
58,142,131424,1,0,3:0:0:0:
90,264,131598,102,0,P|77:293|68:349,1,77.0000023498536,2|0,3:0|0:0,0:0:0:0:
206,142,131945,2,0,P|206:186|236:295,1,154.000004699707,2|8,0:0|0:2,0:0:0:0:
154,321,132465,1,4,0:3:0:0:
293,384,132638,2,0,P|313:329|313:300,1,77.0000023498536,8|0,0:0|0:0,0:0:0:0:
452,178,132985,2,0,L|335:157,1,115.50000352478,2|0,0:0|2:0,0:0:0:0:
317,162,133332,2,0,P|330:112|336:81,1,77.0000023498536,8|0,0:2|3:0,0:0:0:0:
421,274,133679,6,0,P|301:352|217:303,1,231.000007049561,2|0,3:0|3:0,0:0:0:0:
120,178,134372,1,2,3:0:0:0:
30,231,134546,1,4,0:3:0:0:
99,334,134719,2,0,B|107:293|107:293|122:246,1,77.0000023498536,8|0,0:0|0:0,0:0:0:0:
115,32,135066,101,8,0:2:0:0:
37,80,135239,2,0,L|45:164,1,77.0000023498536,8|0,0:2|3:0,0:0:0:0:
259,151,135586,5,10,3:0:0:0:
337,208,135760,2,0,L|299:382,2,154.000004699707,4|2|0,0:0|0:0|3:0,0:0:0:0:
408,290,136627,1,4,0:3:0:0:
485,149,136800,2,0,L|465:2,1,115.50000352478,8|0,0:0|2:0,0:0:0:0:
451,17,137147,2,0,P|424:24|361:37,1,77.0000023498536,2|0,0:0|0:0,0:0:0:0:
236,183,137494,1,0,3:0:0:0:
151,110,137667,1,2,3:0:0:0:
123,120,137754,1,0,1:0:0:0:
109,114,137841,102,0,P|102:191|74:351,1,231.000007049561,2|0,1:0|0:0,0:0:0:0:
184,296,138534,2,0,P|214:302|278:311,1,77.0000023498536,0|4,3:0|0:3,0:0:0:0:
118,197,138881,2,0,P|61:206|4:282,1,154.000004699707,8|8,0:0|0:2,0:0:0:0:
200,384,139401,5,8,1:2:0:0:
306,245,139575,101,0,3:0:0:0:
349,133,139748,1,0,3:0:0:0:
381,206,139921,2,0,B|375:296|275:339|196:275,1,231.000007049561,2|2,3:0|0:0,0:0:0:0:
59,227,140615,1,8,0:2:0:0:
142,93,140789,1,4,0:3:0:0:
70,115,140962,2,0,P|47:146|36:284,2,154.000004699707,8|2|2,0:0|0:0|3:0,0:0:0:0:
275,247,142002,5,4,0:2:0:0:
275,247,142349,1,2,0:0:0:0:
333,365,142523,101,8,0:0:0:0:
316,164,142696,5,2,3:0:0:0:
198,227,142869,1,0,3:0:0:0:
347,238,143043,101,8,0:0:0:0:
183,147,143216,1,8,0:0:0:0:
164,311,143390,5,8,3:0:0:0:
262,77,143563,1,10,0:0:0:0:
419,285,143736,6,0,L|424:317,1,31.4999990386963,6|0,3:0|2:0,0:0:0:0:
512,213,144083,22,0,B|387:173|430:327|276:267,1,251.999992309571,4|0,0:0|0:0,0:0:0:0:
165,114,144777,1,0,3:0:0:0:
262,183,144950,1,2,0:0:0:0:
119,295,145124,2,0,P|132:254|141:204,1,83.9999974365235,8|0,0:0|0:0,0:0:0:0:
300,9,145471,5,2,0:0:0:0:
319,23,145557,1,2,3:0:0:0:
319,11,145644,1,2,3:0:0:0:
165,114,145817,2,0,B|213:100|213:100|241:110|241:110|294:98,1,125.999996154785,2|0,0:0|2:0,0:0:0:0:
295,95,146164,102,0,B|300:166|300:166|330:190|330:190|338:267,1,167.999994873047,2|0,0:0|0:0,0:0:0:0:
427,213,146684,1,0,3:0:0:0:
235,329,146858,2,0,B|232:288|232:288|256:242,1,83.9999974365235,2|0,0:0|3:0,0:0:0:0:
409,305,147205,2,0,B|412:346|412:346|388:392,1,83.9999974365235,8|2,0:0|0:0,0:0:0:0:
184,209,147552,5,8,0:2:0:0:
370,111,147725,1,4,0:3:0:0:
317,198,147898,101,2,3:0:0:0:
250,106,148072,1,0,3:0:0:0:
103,344,148245,5,4,0:0:0:0:
177,294,148419,1,0,3:0:0:0:
103,245,148592,1,2,0:0:0:0:
205,377,148765,101,2,3:2:0:0:
339,320,148939,1,2,3:0:0:0:
270,296,149112,1,0,3:0:0:0:
486,203,149286,5,8,0:0:0:0:
337,108,149459,101,2,3:2:0:0:
285,164,149632,1,2,0:0:0:0:
332,31,149806,1,0,3:0:0:0:
180,216,149979,5,2,3:2:0:0:
195,291,150153,1,2,0:0:0:0:
16,334,150326,1,2,3:0:0:0:
6,256,150500,2,0,B|45:240|45:240|93:242,1,83.9999974365235,2|0,0:0|2:0,0:0:0:0:
262,94,150846,1,8,3:0:0:0:
165,20,151020,2,0,B|124:36|124:36|80:32,1,83.9999974365235,0|0,2:0|3:0,0:0:0:0:
317,210,151367,102,0,L|464:233,1,125.999996154785,12|0,0:2|2:0,0:0:0:0:
472,240,151713,5,8,3:0:0:0:
388,301,151887,1,0,3:0:0:0:
388,301,151973,1,8,3:0:0:0:
388,301,152060,1,8,0:0:0:0:
282,364,152234,1,8,0:0:0:0:
362,93,152407,102,0,P|288:96|218:252,1,251.999992309571,4|0,0:0|0:0,0:0:0:0:
143,333,153101,1,8,3:0:0:0:
77,307,153274,1,0,3:0:0:0:
0,188,153447,5,8,0:0:0:0:
112,82,153621,2,0,B|97:41|97:41|112:-14,1,83.9999974365235,2|0,0:0|2:0,0:0:0:0:
197,192,153968,101,0,3:0:0:0:
241,305,154141,2,0,B|220:343|220:343|222:402,1,83.9999974365235,2|0,3:0|2:0,0:0:0:0:
349,201,154488,5,2,0:0:0:0:
459,141,154661,1,2,0:0:0:0:
469,220,154835,1,0,3:0:0:0:
346,120,155008,2,0,B|360:81|360:81|348:28,1,83.9999974365235,8|0,3:0|2:0,0:0:0:0:
203,209,155355,1,0,3:0:0:0:
332,334,155528,2,0,L|444:366,1,83.9999974365235,10|0,0:0|3:0,0:0:0:0:
349,201,155875,101,2,0:0:0:0:
270,254,156049,5,8,0:2:0:0:
116,210,156222,101,4,0:2:0:0:
44,246,156395,5,8,0:2:0:0:
273,165,156569,102,0,L|439:187,1,167.999994873047,4|0,0:0|0:0,0:0:0:0:
284,285,157089,1,2,0:0:0:0:
377,384,157263,2,0,B|394:343|394:343|390:296,1,83.9999974365235,0|8,3:0|3:0,0:0:0:0:
188,111,157609,2,0,B|171:152|171:152|175:199,1,83.9999974365235,10|0,0:0|2:0,0:0:0:0:
284,66,157956,2,0,P|229:8|142:20,1,167.999994873047,2|2,0:0|3:0,0:0:0:0:
299,222,158476,5,0,3:0:0:0:
299,222,158563,1,0,3:0:0:0:
299,222,158650,2,0,P|332:232|385:266,1,83.9999974365235,2|0,0:0|0:0,0:0:0:0:
468,122,158997,2,0,P|440:138|388:152,1,83.9999974365235,2|0,3:0|0:0,0:0:0:0:
292,309,159343,101,8,0:0:0:0:
404,64,159517,1,8,0:0:0:0:
452,218,159690,5,4,0:0:0:0:
318,96,159864,1,8,0:0:0:0:
105,283,160037,101,8,3:0:0:0:
203,143,160210,1,0,3:0:0:0:
107,202,160384,5,8,3:0:0:0:
191,262,160557,1,2,3:0:0:0:
121,112,160731,102,0,P|58:131|12:228,1,167.999994873047,6|2,0:0|0:3,0:0:0:0:
87,332,161251,2,0,B|129:331|129:331|178:360,1,83.9999974365235,2|0,2:0|3:0,0:0:0:0:
387,154,161598,6,0,B|405:140|405:140|441:138,1,41.9999987182618,2|0,0:0|3:0,0:0:0:0:
511,179,161771,2,2,B|380:213|435:64|250:129,1,251.999992309571,10|0,0:0|2:0,0:1:0:0:
3,305,162465,101,2,3:2:0:0:
123,383,162638,1,0,3:0:0:0:
108,354,162725,1,0,3:0:0:0:
123,345,162812,2,0,B|144:295|144:295|123:266|123:266|153:179,1,167.999994873047,2|2,0:0|0:0,0:0:0:0:
98,68,163332,2,0,L|189:92,1,83.9999974365235,0|0,3:0|2:0,0:0:0:0:
393,201,163679,5,8,3:0:0:0:
314,259,163852,2,0,B|390:227|390:227|458:282,1,167.999994873047,10|8,0:0|0:2,0:0:0:0:
372,324,164372,1,4,0:3:0:0:
282,333,164546,101,4,1:2:0:0:
442,384,164719,1,2,3:0:0:0:
393,201,164893,6,0,L|388:107,1,83.9999974365235,4|0,0:0|2:0,0:0:0:0:
181,307,165239,2,0,L|204:166,1,125.999996154785,2|0,0:0|2:0,0:0:0:0:
221,169,165586,1,2,0:0:0:0:
279,255,165760,1,2,0:0:0:0:
146,109,165933,101,10,0:0:0:0:
125,130,166020,1,2,0:0:0:0:
120,158,166106,1,2,3:0:0:0:
236,102,166280,1,2,0:0:0:0:
142,15,166453,1,2,3:0:0:0:
25,69,166627,1,0,3:0:0:0:
25,69,166800,1,0,3:0:0:0:
225,173,166973,6,0,B|232:133|232:133|248:87,1,83.9999974365235,2|0,0:0|0:0,0:0:0:0:
39,246,167320,2,0,B|32:206|32:206|16:160,1,83.9999974365235,2|0,0:0|3:0,0:0:0:0:
212,289,167667,1,2,0:0:0:0:
100,384,167841,1,0,3:0:0:0:
90,375,167927,1,8,3:0:0:0:
101,373,168014,2,0,B|130:240,1,125.999996154785,12|0,1:2|0:0,0:0:0:0:
107,171,168361,101,8,3:0:0:0:
231,231,168534,1,2,0:0:0:0:
372,44,168708,5,8,0:0:0:0:
334,24,168794,1,0,0:2:0:0:
286,30,168881,1,0,3:0:0:0:
250,61,168968,1,0,0:2:0:0:
250,61,169054,54,0,B|199:137|221:232|221:232,1,167.999994873047,4|2,0:0|0:0,0:0:0:0:
288,282,169517,101,2,0:0:0:0:
343,331,169632,5,2,0:0:0:0:
277,373,169748,102,0,P|248:377|189:403,1,55.9999982910157,2|0,3:0|0:0,0:0:0:0:
160,303,169979,1,2,0:0:0:0:
204,234,170095,6,0,P|177:225|149:222,1,55.9999982910157,8|0,0:0|0:0,0:0:0:0:
66,353,170326,1,2,0:0:0:0:
55,276,170442,2,2,P|3:251|14:150,1,167.999994873047,2|0,2:1|3:0,0:1:0:0:
232,34,170962,102,0,P|240:58|242:82,1,41.9999987182618,2|0,0:0|2:0,0:0:0:0:
293,132,171135,2,0,P|254:143|205:161,1,83.9999974365235,2|0,3:0|2:0,0:0:0:0:
134,234,171424,5,2,0:0:0:0:
189,293,171540,2,0,P|231:301|278:315,1,83.9999974365235,2|2,0:0|0:0,0:0:0:0:
387,269,171829,101,2,0:0:0:0:
455,219,171945,5,2,0:0:0:0:
464,142,172060,101,2,0:0:0:0:
430,93,172176,5,10,0:0:0:0:
397,46,172291,101,2,0:0:0:0:
413,8,172407,5,2,0:0:0:0:
437,0,172523,102,0,B|414:170,1,167.999994873047,2|8,0:2|2:0,0:0:0:0:
422,171,173216,6,0,L|443:15,1,154.000004699707,4|2,0:0|0:0,0:0:0:0:
320,167,173736,1,0,3:0:0:0:
273,109,173910,2,0,P|235:120|187:131,1,77.0000023498536,2|4,3:0|0:3,0:0:0:0:
16,261,174257,86,0,P|26:224|35:186,1,77.0000023498536,8|0,0:0|0:0,0:0:0:0:
280,274,174604,2,0,P|269:237|260:199,1,77.0000023498536,2|0,0:0|0:0,0:0:0:0:
39,271,174950,1,0,3:0:0:0:
64,195,175124,1,8,0:2:0:0:
263,294,175297,22,0,P|248:222|238:116,1,154.000004699707,2|2,0:0|0:3,0:0:0:0:
149,266,175817,1,0,3:0:0:0:
358,152,175991,85,8,0:0:0:0:
464,214,176164,1,8,0:0:0:0:
214,361,176338,21,4,0:0:0:0:
376,239,176511,1,8,0:0:0:0:
414,332,176684,85,8,3:0:0:0:
227,230,176858,1,6,3:0:0:0:
390,34,177031,5,8,3:0:0:0:
447,86,177147,5,8,3:0:0:0:
460,155,177263,5,8,3:0:0:0:
440,190,177378,5,12,3:2:0:0:
440,190,178419,1,0,0:0:0:0:
440,190,179459,1,0,0:0:0:0:
440,190,180500,1,0,0:0:0:0:
293,136,181540,101,0,0:0:0:0:
224,122,182580,1,0,0:0:0:0:
150,149,183621,1,0,0:0:0:0:
73,138,184661,1,0,0:0:0:0:
6,183,185702,5,2,0:0:0:0:
55,242,186049,1,0,2:0:0:0:
130,240,186395,1,0,2:0:0:0:
290,58,186742,101,2,0:0:0:0:
290,58,187783,5,2,0:0:0:0:
359,28,188130,1,0,2:0:0:0:
430,52,188476,1,0,2:0:0:0:
511,225,188823,101,2,0:0:0:0:
511,225,189170,1,2,2:0:0:0:
511,225,189517,1,2,2:0:0:0:
361,384,189864,6,0,L|355:330,1,45.4999979171754,2|0,1:0|0:0,0:0:0:0:
310,277,190210,2,0,L|316:223,1,45.4999979171754,2|0,2:0|0:0,0:0:0:0:
374,184,190557,1,8,0:2:0:0:
307,155,190731,1,4,0:3:0:0:
178,348,190904,102,0,L|184:294,1,45.4999979171754,2|0,1:0|0:0,0:0:0:0:
229,241,191250,2,0,L|223:187,1,45.4999979171754,2|0,0:0|0:0,0:0:0:0:
165,148,191597,1,8,0:2:0:0:
232,119,191771,1,4,0:3:0:0:
345,41,191945,5,2,1:0:0:0:
418,76,192118,1,2,0:0:0:0:
511,65,192291,1,0,0:0:0:0:
437,97,192465,1,0,3:0:0:0:
382,177,192638,1,2,0:0:0:0:
411,103,192812,1,4,0:3:0:0:
478,342,192985,5,8,0:0:0:0:
390,382,193158,1,0,3:0:0:0:
281,188,193332,5,8,1:2:0:0:
417,247,193505,1,8,1:2:0:0:
250,384,193679,38,0,L|260:352,1,22.7499989585877,2|0,3:2|2:0,0:0:0:0:
326,330,193852,2,0,L|312:298,1,22.7499989585877,2|0,3:2|0:0,0:0:0:0:
180,174,194026,86,0,B|69:155|146:126|24:104,1,175,6|8,0:0|2:0,0:0:0:0:
149,260,194546,1,8,0:0:0:0:
35,363,194719,2,0,B|27:322|27:322|52:274,1,87.5,0|0,3:0|0:0,0:0:0:0:
304,51,195066,5,2,3:0:0:0:
404,208,195239,1,8,0:0:0:0:
512,76,195413,2,0,B|476:94|476:94|426:91,1,87.5,0|0,3:0|0:0,0:0:0:0:
255,211,195760,2,0,L|230:402,1,175,12|4,0:0|0:2,0:0:0:0:
340,283,196280,102,0,P|393:294|455:304,1,87.5,2|8,0:0|0:2,0:0:0:0:
313,123,196627,1,8,0:0:0:0:
212,306,196800,1,2,3:0:0:0:
370,200,196973,1,0,3:0:0:0:
182,85,197147,2,0,P|142:69|78:66,1,87.5,8|0,0:0|3:0,0:0:0:0:
384,89,197494,5,8,0:0:0:0:
401,62,197580,1,8,0:0:0:0:
398,26,197667,1,2,3:0:0:0:
118,166,197841,101,8,3:0:0:0:
146,208,197927,1,0,3:0:0:0:
198,222,198014,1,2,3:2:0:0:
246,201,198101,1,4,3:0:0:0:
255,208,198187,6,0,B|233:92|312:148|265:8,1,175,4|2,0:0|0:0,0:0:0:0:
360,293,198708,1,8,0:0:0:0:
432,201,198881,2,0,B|475:197|475:197|519:221,1,87.5,0|8,3:0|0:2,0:0:0:0:
314,123,199228,101,4,0:2:0:0:
158,192,199401,1,8,0:0:0:0:
85,14,199575,5,2,3:0:0:0:
229,109,199748,1,0,3:0:0:0:
34,307,199921,2,0,B|53:267|53:267|45:214,1,87.5,8|0,0:0|2:0,0:0:0:0:
31,154,200182,1,2,2:0:0:0:
44,142,200268,102,0,L|151:159,1,87.5,2|0,3:0|3:2,0:0:0:0:
270,115,200615,1,4,0:3:0:0:
373,353,200789,1,8,0:0:0:0:
455,221,200962,2,0,B|344:233|421:288|285:295,1,175,2|12,0:0|0:0,0:0:0:0:
147,147,201482,5,8,3:0:0:0:
153,150,201569,1,8,3:0:0:0:
148,154,201656,1,8,0:0:0:0:
318,212,201829,1,8,0:0:0:0:
118,300,202002,101,8,3:0:0:0:
246,138,202176,2,0,P|257:114|256:84,1,50.7500015487671,0|8,3:0|3:0,0:0:0:0:
120,11,202349,6,0,P|49:26|22:123,1,175,4|8,0:0|0:2,0:0:0:0:
189,233,202869,1,8,0:0:0:0:
137,293,203043,2,0,P|142:351|137:385,1,87.5,0|0,3:0|0:0,0:0:0:0:
240,127,203390,101,2,3:0:0:0:
110,210,203563,1,8,0:0:0:0:
308,333,203736,2,0,B|354:334|354:334|394:364,1,87.5,0|0,3:0|0:0,0:0:0:0:
441,102,204083,5,12,0:0:0:0:
271,203,204257,1,2,0:0:0:0:
445,189,204430,101,2,3:0:0:0:
364,152,204604,1,0,3:0:0:0:
232,283,204777,5,2,0:0:0:0:
346,239,204950,1,8,0:0:0:0:
276,218,205124,1,2,3:0:0:0:
306,310,205297,1,0,3:0:0:0:
454,105,205471,101,4,1:2:0:0:
443,28,205644,1,8,3:0:0:0:
264,0,205817,5,8,0:0:0:0:
259,50,205904,1,8,0:0:0:0:
250,103,205991,1,0,3:0:0:0:
41,198,206164,101,8,3:0:0:0:
31,152,206251,1,0,3:0:0:0:
45,111,206338,1,2,3:2:0:0:
25,65,206424,1,4,3:0:0:0:
34,65,206511,6,0,B|72:88|124:75,1,87.5,4|0,0:0|0:0,0:0:0:0:
457,210,206858,2,0,B|414:199|367:221,1,87.5,2|8,0:0|0:0,0:0:0:0:
253,354,207205,2,0,B|272:297|272:297|260:261|260:261|289:166,1,175,2|4,3:0|0:2,0:0:0:0:
423,295,207725,1,8,0:0:0:0:
459,127,207898,101,8,3:0:0:0:
353,237,208072,1,0,3:0:0:0:
181,301,208245,5,8,0:0:0:0:
336,373,208419,1,2,0:0:0:0:
193,191,208592,102,0,P|132:200|58:318,1,175,4|8,0:2|0:2,0:0:0:0:
309,140,209112,1,8,0:0:0:0:
211,70,209286,5,2,3:0:0:0:
281,229,209459,1,0,3:0:0:0:
422,128,209632,2,0,B|465:132|465:132|518:111,1,87.5,12|0,0:0|0:0,0:0:0:0:
175,162,209979,101,8,3:0:0:0:
106,187,210153,1,0,3:0:0:0:
384,272,210326,5,8,3:0:0:0:
453,297,210500,1,0,3:0:0:0:
234,384,210673,70,0,L|258:187,1,175,4|2,0:0|0:2,0:0:0:0:
201,162,211193,1,0,3:0:0:0:
314,101,211367,1,2,3:0:0:0:
251,59,211540,1,0,0:0:0:0:
276,308,211713,5,10,0:0:0:0:
348,344,211887,1,0,0:0:0:0:
418,239,212060,1,2,0:2:0:0:
346,270,212234,1,0,0:0:0:0:
418,384,212407,1,2,3:0:0:0:
53,302,212754,101,2,0:0:0:0:
102,240,212927,1,0,0:0:0:0:
176,279,213101,5,0,0:0:0:0:
137,174,213274,1,0,3:0:0:0:
358,192,213447,101,2,0:2:0:0:
255,228,213621,1,0,3:0:0:0:
128,88,213794,5,8,0:0:0:0:
211,120,213968,1,0,0:0:0:0:
361,12,214141,101,8,0:2:0:0:
289,29,214315,1,4,0:3:0:0:
332,40,214488,2,0,B|447:26|398:79|510:57,1,175,4|4,0:2|0:0,0:0:0:0:
502,58,215182,1,2,0:2:0:0:
375,262,215355,5,2,0:0:0:0:
478,188,215528,1,2,0:3:0:0:
371,118,215702,1,8,0:2:0:0:
434,345,215875,101,10,0:0:0:0:
465,274,216049,1,0,0:0:0:0:
308,170,216222,5,2,0:2:0:0:
297,93,216395,1,0,0:0:0:0:
285,8,216569,1,4,0:2:0:0:
302,85,216742,1,2,3:0:0:0:
196,212,216916,102,0,P|114:226|21:251,1,175,4|2,0:2|0:0,0:0:0:0:
122,10,217436,1,8,0:0:0:0:
188,53,217609,2,0,L|287:72,1,87.5,2|0,3:0|0:0,0:0:0:0:
456,297,217956,1,12,1:2:0:0:
465,280,218303,21,8,3:0:0:0:
411,246,218390,1,8,3:0:0:0:
340,254,218476,1,0,1:0:0:0:
306,268,218563,1,8,3:0:0:0:
276,301,218650,1,8,3:0:0:0:
230,338,218736,1,8,0:0:0:0:
154,347,218823,1,8,3:0:0:0:
98,322,218910,1,8,3:0:0:0:
67,285,218997,86,0,L|57:99,1,175,4|2,0:0|3:3,0:0:0:0:
101,45,219517,1,0,0:0:0:0:
241,242,219690,1,0,3:0:0:0:
224,319,219864,1,2,0:0:0:0:
436,141,220037,5,10,0:0:0:0:
399,10,220210,1,2,0:0:0:0:
493,62,220384,101,2,0:2:0:0:
337,179,220557,1,8,0:2:0:0:
433,279,220731,2,0,B|476:281|476:281|516:308,1,87.5,0|0,3:0|0:0,0:0:0:0:
234,243,221078,6,0,B|171:261|171:261|141:294|141:294|71:313,1,175,4|0,0:2|0:0,0:0:0:0:
13,189,221598,1,0,3:0:0:0:
226,28,221771,101,2,0:2:0:0:
190,159,221945,1,8,3:0:0:0:
91,38,222118,5,8,0:0:0:0:
162,72,222291,1,0,0:0:0:0:
330,76,222465,1,2,0:0:0:0:
259,110,222638,1,8,0:2:0:0:
144,225,222812,1,2,0:2:0:0:
178,154,222985,1,2,3:0:0:0:
330,225,223158,102,0,P|391:232|517:248,1,175,4|0,0:0|0:0,0:0:0:0:
351,108,223679,1,0,3:0:0:0:
470,17,223852,2,0,P|429:26|356:40,1,87.5,2|0,3:0|0:0,0:0:0:0:
201,259,224199,5,10,0:0:0:0:
242,190,224372,1,2,0:2:0:0:
119,251,224546,1,2,0:2:0:0:
229,331,224719,1,2,0:2:0:0:
85,353,224893,102,0,P|39:361|-28:377,1,87.5,8|4,0:2|0:3,0:0:0:0:
172,182,225239,2,0,B|158:128|164:77|164:77|147:4,1,175,4|0,0:2|0:0,0:0:0:0:
70,88,225760,1,0,3:0:0:0:
265,206,225933,21,8,0:0:0:0:
213,314,226106,1,8,0:0:0:0:
352,165,226280,5,4,0:0:0:0:
251,95,226453,1,8,0:0:0:0:
301,282,226627,101,2,3:2:0:0:
459,165,226800,1,0,3:0:0:0:
500,358,226973,21,8,3:0:0:0:
437,317,227089,5,8,3:0:0:0:
504,281,227205,101,8,3:0:0:0:
481,319,227320,54,0,P|440:368|303:366,1,175,4|0,0:0|0:0,0:0:0:0:
179,194,227841,1,2,0:0:0:0:
84,263,228014,2,0,B|43:264|43:264|-3:289,1,87.5,2|0,0:2|3:0,0:0:0:0:
206,45,228361,5,8,0:0:0:0:
369,122,228534,1,2,0:0:0:0:
308,218,228708,101,2,0:2:0:0:
164,267,228881,1,0,0:0:0:0:
219,357,229054,53,2,2:3:0:0:
288,324,229170,5,2,2:3:0:0:
369,322,229286,101,2,2:3:0:0:
435,373,229401,54,0,B|481:255|426:313|469:198,1,175,2|0,0:0|0:0,0:0:0:0:
432,45,229921,2,0,P|385:99|268:106,1,175,2|0,3:0|3:0,0:0:0:0:
101,0,230442,21,12,0:0:0:0:
212,50,230615,1,0,3:0:0:0:
150,239,230789,5,8,3:0:0:0:
365,144,230962,1,8,0:0:0:0:
257,384,231135,5,2,0:3:0:0:
257,384,231482,2,0,P|328:366|341:207,1,241.500004606247,4|0,0:0|0:0,0:0:0:0:
274,130,232176,1,0,3:0:0:0:
214,173,232349,1,0,3:0:0:0:
111,48,232523,2,0,P|91:192|81:226,2,161.000003070831,8|2|2,0:0|0:0|3:0,0:0:0:0:
27,89,233563,6,0,P|167:129|181:225,1,241.500004606247,0|0,3:0|3:0,0:0:0:0:
136,268,234257,1,2,0:0:0:0:
261,317,234430,1,0,3:0:0:0:
193,349,234604,2,0,P|156:354|23:387,1,161.000003070831,8|8,0:0|0:2,0:0:0:0:
253,238,235124,101,4,0:3:0:0:
357,320,235297,1,12,0:0:0:0:
451,264,235471,5,2,3:0:0:0:
405,384,235644,2,0,B|397:325|397:325|407:286|407:286|392:158,1,220.499993270874,2|0,1:1|2:0,0:0:0:0:
345,10,236338,5,8,0:2:0:0:
425,75,236511,1,4,0:3:0:0:
322,127,236684,2,0,P|264:138|209:225,1,146.999995513916,8|0,0:0|0:0,0:0:0:0:
0,373,237378,6,0,P|7:338|10:300,1,66.4999982242585,2|0,3:0|0:0,0:0:0:0:
67,254,237725,2,0,P|62:198|54:41,1,199.499994672775,2|0,0:0|3:0,0:0:0:0:
239,20,238419,101,8,0:0:0:0:
267,164,238592,5,8,0:2:0:0:
198,342,238765,69,4,0:2:0:0:
143,294,238939,1,8,0:0:0:0:
349,214,239112,5,8,0:0:0:0:
424,170,239286,1,8,3:0:0:0:
219,94,239459,101,8,3:0:0:0:
135,38,239632,1,0,3:0:0:0:
120,50,239719,1,2,3:0:0:0:
133,48,239806,1,2,1:2:0:0:
17,25,240500,22,0,L|5:63,1,35,8|4,0:2|0:3,0:0:0:0:
63,107,240846,2,0,L|73:140,1,35,0|0,3:0|0:0,0:0:0:0:
18,197,241193,2,0,L|3:270,1,70,2|8,0:0|0:2,0:0:0:0:
49,324,241713,1,4,0:3:0:0:
194,384,241887,6,0,B|246:323|213:250|213:250,1,140,2|2,1:0|0:0,0:0:0:0:
308,339,242754,2,0,L|345:349,1,35,4|8,0:3|0:2,0:0:0:0:
414,325,243101,1,0,3:0:0:0:
321,234,243274,101,8,0:2:0:0:
409,108,243447,1,8,0:2:0:0:
336,138,243621,1,2,3:2:0:0:
399,211,243794,1,0,3:0:0:0:
335,50,243968,6,0,B|292:24|231:47|218:98,1,140,2|8,1:0|0:2,0:0:0:0:
114,183,244835,1,4,0:3:0:0:
90,114,245008,2,0,L|82:71,1,35,0|0,3:0|0:0,0:0:0:0:
201,180,245355,2,0,L|195:215,1,35,2|0,0:0|0:0,0:0:0:0:
25,360,245702,101,8,0:2:0:0:
128,279,245875,1,4,0:3:0:0:
168,346,246049,2,0,B|220:409|298:367|298:367,1,140,2|2,1:0|0:0,0:0:0:0:
385,234,246916,2,0,L|378:194,1,35,4|8,0:3|0:2,0:0:0:0:
447,173,247263,1,0,3:0:0:0:
389,330,247436,5,8,2:0:0:0:
253,261,247609,1,8,2:0:0:0:
172,325,247783,1,2,3:2:0:0:
155,331,247956,1,0,3:0:0:0:
46,267,248130,101,2,3:1:0:0:
46,267,248476,2,0,L|54:193,1,70,0|8,0:0|0:2,0:0:0:0:
17,102,248997,1,4,0:3:0:0:
73,49,249170,2,0,L|67:6,1,35,0|0,3:0|0:0,0:0:0:0:
159,90,249517,2,0,L|199:98,1,35,2|0,0:0|0:0,0:0:0:0:
442,13,249864,5,8,0:2:0:0:
447,17,250210,2,0,B|430:83|435:167|435:167,1,140,2|2,1:0|0:0,0:0:0:0:
371,203,251078,1,4,0:3:0:0:
286,153,251251,101,8,0:2:0:0:
272,181,251424,1,0,3:0:0:0:
227,265,251598,5,8,0:2:0:0:
161,150,251771,1,8,0:2:0:0:
107,236,251945,101,2,3:2:0:0:
107,236,252118,1,0,3:0:0:0:
157,73,252291,5,2,1:0:0:0:
157,73,252985,2,0,L|112:81,1,35,8|4,0:2|0:3,0:0:0:0:
72,142,253332,2,0,L|-3:155,1,70,0|2,3:0|0:0,0:0:0:0:
89,257,253852,1,0,0:0:0:0:
5,319,254026,2,0,L|11:283,1,35,8|4,0:2|0:3,0:0:0:0:
256,109,254372,101,2,1:0:0:0:
256,109,254719,1,0,1:0:0:0:
367,297,254893,6,0,L|499:319,1,125.999996154785,2|8,3:2|0:2,0:0:0:0:
388,218,255586,1,0,3:0:0:0:
442,143,255760,1,8,0:2:0:0:
363,55,255933,1,8,0:2:0:0:
430,11,256106,1,0,3:0:0:0:
430,11,256280,1,0,3:0:0:0:
309,153,256453,102,0,B|252:186|252:186|192:177,1,125.999996154785,8|0,3:0|3:0,0:0:0:0:
116,68,257147,5,8,0:2:0:0:
72,147,257320,1,4,0:3:0:0:
152,261,257494,101,0,3:0:0:0:
74,322,257667,1,0,2:2:0:0:
77,247,257841,1,2,0:0:0:0:
147,334,258014,1,0,3:0:0:0:
287,150,258187,6,0,L|280:104,2,41.9999987182618,8|4|8,0:2|0:3|3:0,0:0:0:0:
291,157,258881,101,2,0:0:0:0:
348,57,259054,2,0,L|356:11,2,41.9999987182618,0|0|4,3:0|0:0|0:3,0:0:0:0:
391,237,259575,1,8,0:2:0:0:
391,237,259921,5,8,0:2:0:0:
286,285,260095,101,8,0:2:0:0:
365,326,260268,5,0,3:0:0:0:
307,372,260442,101,0,3:0:0:0:
