osu file format v14

[General]
AudioFilename: audio.mp3
AudioLeadIn: 0
PreviewTime: 93457
Countdown: 0
SampleSet: Soft
StackLeniency: 0.5
Mode: 0
LetterboxInBreaks: 0
WidescreenStoryboard: 0

[Editor]
DistanceSpacing: 0.8
BeatDivisor: 4
GridSize: 32
TimelineZoom: 2.5

[Metadata]
Title:len
TitleUnicode:len~錬~
Artist:Chata
ArtistUnicode:茶太
Creator:Hisae
Version:Requiem
Source:東方紺珠伝 ~ Legacy of Lunatic Kingdom.
Tags:Raitzuki Yonah Forge 東方事変 Touhou Jihen Toho Project 東方Project N+ NSY shuriken 宇宙を飛ぶ不思議な巫女 Sora o Tobu Fushigi na Miko The Mysterious Shrine Maiden Flying Through Space Doremy Sweet Kanjuden Japanese Rock Pop JRock J-Rock Jpop J-Pop Video Game
BeatmapID:2564215
BeatmapSetID:1233463

[Difficulty]
HPDrainRate:7.6
CircleSize:4.6
OverallDifficulty:7.6
ApproachRate:8.6
SliderMultiplier:1.5
SliderTickRate:1

[Events]
//Background and Video events
0,0,"Kyuukai is Xahlt mentee.png",0,0
//Break Periods
//Storyboard Layer 0 (Background)
//Storyboard Layer 1 (Fail)
//Storyboard Layer 2 (Pass)
//Storyboard Layer 3 (Foreground)
//Storyboard Layer 4 (Overlay)
//Storyboard Sound Samples

[TimingPoints]
336,346.820809248555,4,2,1,32,1,0
336,-238.095238095238,4,2,1,32,0,0
856,-238.095238095238,4,2,1,32,0,0
2070,-454.545454545455,4,2,1,32,0,0
2416,-238.095238095238,4,2,1,32,0,0
2937,-238.095238095238,4,2,1,32,0,0
5018,-238.095238095238,4,2,1,32,0,0
6231,-454.545454545455,4,2,1,32,0,0
6578,-238.095238095238,4,2,1,32,0,0
7099,-238.095238095238,4,2,1,32,0,0
9179,-238.095238095238,4,2,1,32,0,0
10393,-454.545454545455,4,2,1,32,0,0
10740,-238.095238095238,4,2,1,32,0,0
11260,-238.095238095238,4,2,1,32,0,0
13341,-238.095238095238,4,2,1,32,0,0
14555,-454.545454545455,4,2,1,32,0,0
14902,-238.095238095238,4,2,1,32,0,0
15422,-238.095238095238,4,2,1,32,0,0
18370,-238.095238095238,4,2,1,32,0,0
18977,-238.095238095238,4,2,1,5,0,0
19064,-108.695652173913,4,2,1,62,0,1
19757,-108.695652173913,4,2,1,62,0,1
20798,-238.095238095238,4,2,1,62,0,1
21058,-108.695652173913,4,2,1,5,0,1
21145,-108.695652173913,4,2,1,62,0,1
21665,-108.695652173913,4,2,1,62,0,1
22879,-238.095238095238,4,2,1,62,0,1
23139,-108.695652173913,4,2,1,5,0,1
23226,-108.695652173913,4,2,1,62,0,1
23919,-108.695652173913,4,2,1,62,0,1
24960,-238.095238095238,4,2,1,62,0,1
25220,-238.095238095238,4,2,1,5,0,1
25307,-108.695652173913,4,2,1,62,0,1
25827,-108.695652173913,4,2,1,62,0,1
27301,-108.695652173913,4,2,1,5,0,1
27388,-81.9672131147541,4,2,1,62,0,1
28081,-108.695652173913,4,2,1,62,0,1
29382,-108.695652173913,4,2,1,5,0,1
29468,-81.9672131147541,4,2,1,62,0,1
29989,-108.695652173913,4,2,1,62,0,1
31463,-108.695652173913,4,2,1,5,0,1
31549,-81.9672131147541,4,2,1,62,0,1
32243,-108.695652173913,4,2,1,62,0,1
33544,-108.695652173913,4,2,1,5,0,1
33630,-81.9672131147541,4,2,1,62,0,1
34151,-108.695652173913,4,2,1,62,0,1
35711,-89.2857142857143,4,2,1,32,0,0
36405,-121.951219512195,4,2,1,32,0,0
37792,-108.695652173913,4,2,1,32,0,0
38312,-121.951219512195,4,2,1,32,0,0
39873,-108.695652173913,4,2,1,32,0,0
40393,-121.951219512195,4,2,1,32,0,0
41954,-108.695652173913,4,2,1,32,0,0
42474,-121.951219512195,4,2,1,32,0,0
44035,-108.695652173913,4,2,1,32,0,0
44555,-121.951219512195,4,2,1,32,0,0
46116,-108.695652173913,4,2,1,32,0,0
46636,-121.951219512195,4,2,1,32,0,0
48197,-108.695652173913,4,2,1,32,0,0
48717,-121.951219512195,4,2,1,32,0,0
50278,-108.695652173913,4,2,1,32,0,0
50798,-121.951219512195,4,2,1,32,0,0
52012,-138.888888888889,4,2,1,32,0,0
52272,-121.951219512195,4,2,1,5,0,0
52359,-108.695652173913,4,2,1,32,0,0
53052,-121.951219512195,4,2,1,32,0,0
54440,-108.695652173913,4,2,1,32,0,0
55307,-121.951219512195,4,2,1,32,0,0
56520,-108.695652173913,4,2,1,32,0,0
57214,-121.951219512195,4,2,1,32,0,0
58601,-108.695652173913,4,2,1,32,0,0
59295,-121.951219512195,4,2,1,32,0,0
60336,-138.888888888889,4,2,1,32,0,0
60596,-121.951219512195,4,2,1,5,0,0
60682,-108.695652173913,4,2,1,32,0,0
61376,-121.951219512195,4,2,1,32,0,0
62763,-108.695652173913,4,2,1,32,0,0
63457,-121.951219512195,4,2,1,32,0,0
64497,-108.695652173913,4,2,1,32,0,0
64757,-121.951219512195,4,2,1,5,0,0
64844,-108.695652173913,4,2,1,32,0,0
65538,-121.951219512195,4,2,1,32,0,0
65885,-138.888888888889,4,2,1,32,0,0
66145,-121.951219512195,4,2,1,5,0,0
66231,-121.951219512195,4,2,1,32,0,0
66492,-121.951219512195,4,2,1,5,0,0
66578,-108.695652173913,4,2,1,32,0,0
66838,-121.951219512195,4,2,1,5,0,0
66925,-108.695652173913,4,2,1,32,0,0
67792,-121.951219512195,4,2,1,32,0,0
69006,-108.695652173913,4,2,1,32,0,0
69700,-121.951219512195,4,2,1,32,0,0
70046,-138.888888888889,4,2,1,32,0,0
70307,-121.951219512195,4,2,1,5,0,0
70393,-121.951219512195,4,2,1,32,0,0
70653,-121.951219512195,4,2,1,5,0,0
70740,-108.695652173913,4,2,1,32,0,0
71000,-121.951219512195,4,2,1,5,0,0
71087,-108.695652173913,4,2,1,32,0,0
72127,-121.951219512195,4,2,1,32,0,0
76636,-121.951219512195,4,2,1,32,0,0
77677,-121.951219512195,4,2,1,32,0,0
80798,-121.951219512195,4,2,1,32,0,0
81492,-121.951219512195,4,2,1,42,0,0
83572,-108.695652173913,4,2,1,42,0,0
85653,-108.695652173913,4,2,1,52,0,0
87734,-121.951219512195,4,2,1,42,0,0
87994,-121.951219512195,4,2,1,5,0,0
88081,-121.951219512195,4,2,1,42,0,0
88341,-121.951219512195,4,2,1,5,0,0
88428,-121.951219512195,4,2,1,32,0,0
88601,-312.499999999999,4,2,1,32,0,0
88948,-312.499999999999,4,2,1,32,0,0
89295,-121.951219512195,4,2,1,22,0,0
89642,-121.951219512195,4,2,1,12,0,0
89989,-121.951219512195,4,2,1,5,0,0
93630,-238.095238095238,4,2,1,52,0,0
93890,-108.695652173913,4,2,1,5,0,0
93977,-81.9672131147541,4,2,1,62,0,1
95711,-238.095238095238,4,2,1,62,0,1
95971,-238.095238095238,4,2,1,5,0,1
96058,-81.9672131147541,4,2,1,62,0,1
97792,-238.095238095238,4,2,1,62,0,1
98052,-238.095238095238,4,2,1,5,0,1
98139,-81.9672131147541,4,2,1,62,0,1
99873,-238.095238095238,4,2,1,62,0,1
100133,-238.095238095238,4,2,1,5,0,1
100220,-81.9672131147541,4,2,1,62,0,1
104035,-238.095238095238,4,2,1,62,0,1
104295,-238.095238095238,4,2,1,5,0,1
104382,-81.9672131147541,4,2,1,62,0,1
106116,-238.095238095238,4,2,1,62,0,1
106376,-238.095238095238,4,2,1,5,0,1
106463,-81.9672131147541,4,2,1,62,0,1
108197,-238.095238095238,4,2,1,62,0,1
108457,-238.095238095238,4,2,1,5,0,1
108544,-81.9672131147541,4,2,1,62,0,1
110625,-454.545454545455,4,2,1,42,0,0
111318,-108.695652173913,4,2,1,42,0,0
112705,-98.0392156862745,4,2,1,42,0,0
113399,-108.695652173913,4,2,1,42,0,0
114786,-98.0392156862745,4,2,1,42,0,0
115480,-108.695652173913,4,2,1,42,0,0
116867,-98.0392156862745,4,2,1,42,0,0
117561,-108.695652173913,4,2,1,42,0,0
118948,-98.0392156862745,4,2,1,42,0,0
119642,-108.695652173913,4,2,1,42,0,0
121029,-98.0392156862745,4,2,1,42,0,0
121723,-108.695652173913,4,2,1,42,0,0
123110,-98.0392156862745,4,2,1,42,0,0
123804,-108.695652173913,4,2,1,42,0,0
125191,-98.0392156862745,4,2,1,42,0,0
125711,-108.695652173913,4,2,1,42,0,0
127272,-98.0392156862745,4,2,1,42,0,0
127966,-108.695652173913,4,2,1,42,0,0
129353,-98.0392156862745,4,2,1,42,0,0
130046,-108.695652173913,4,2,1,42,0,0
131434,-98.0392156862745,4,2,1,42,0,0
132127,-108.695652173913,4,2,1,42,0,0
133515,-98.0392156862745,4,2,1,42,0,0
134208,-108.695652173913,4,2,1,42,0,0
135596,-98.0392156862745,4,2,1,42,0,0
136289,-108.695652173913,4,2,1,42,0,0
137677,-98.0392156862745,4,2,1,42,0,0
138370,-108.695652173913,4,2,1,42,0,0
139757,-98.0392156862745,4,2,1,42,0,0
140451,-108.695652173913,4,2,1,42,0,0
141838,-98.0392156862745,4,2,1,42,0,0
142359,-108.695652173913,4,2,1,42,0,0
143919,-81.9672131147541,4,2,1,42,0,0
144613,-108.695652173913,4,2,1,52,0,0
144960,-98.0392156862745,4,2,1,52,0,0
145220,-108.695652173913,4,2,1,5,0,0
145307,-833.333333333333,4,2,1,52,0,0
145827,-108.695652173913,4,2,1,52,0,0
146000,-238.095238095238,4,2,1,52,0,0
146520,-108.695652173913,4,2,1,52,0,0
147734,-454.545454545455,4,2,1,52,0,0
147994,-108.695652173913,4,2,1,5,0,0
148081,-89.2857142857143,4,2,1,52,0,0
148601,-108.695652173913,4,2,1,52,0,0
150162,-238.095238095238,4,2,1,52,0,0
150682,-108.695652173913,4,2,1,52,0,0
151203,-454.545454545455,4,2,1,52,0,0
151463,-108.695652173913,4,2,1,5,0,0
151549,-108.695652173913,4,2,1,52,0,0
152243,-89.2857142857143,4,2,1,52,0,0
152937,-108.695652173913,4,2,1,52,0,0
154324,-238.095238095238,4,2,1,52,0,0
154844,-108.695652173913,4,2,1,52,0,0
155711,-108.695652173913,4,2,1,52,0,0
155798,-108.695652173913,4,2,1,52,0,0
155885,-108.695652173913,4,2,1,52,0,0
155971,-108.695652173913,4,2,1,52,0,0
156405,-108.695652173913,4,2,1,62,0,1
158486,-89.2857142857143,4,2,1,62,0,1
159006,-108.695652173913,4,2,1,62,0,1
160567,-89.2857142857143,4,2,1,52,0,1
161260,-108.695652173913,4,2,1,52,0,1
161607,-89.2857142857143,4,2,1,52,0,1
162301,-238.095238095238,4,2,1,52,0,1
162561,-108.695652173913,4,2,1,5,0,1
162648,-75.7575757575758,4,2,1,52,0,1
163515,-89.2857142857143,4,2,1,52,0,1
163688,-89.2857142857143,4,2,1,52,0,1
164382,-238.095238095238,4,2,1,52,0,1
164642,-238.095238095238,4,2,1,5,0,1
164729,-81.9672131147541,4,2,1,52,0,1
165249,-108.695652173913,4,2,1,52,0,1
165682,-108.695652173913,4,2,1,5,0,1
165769,-108.695652173913,4,2,1,52,0,1
166809,-89.2857142857143,4,2,1,52,0,1
167070,-108.695652173913,4,2,1,5,0,1
167156,-108.695652173913,4,2,1,52,0,1
168890,-89.2857142857143,4,2,1,52,0,1
169151,-89.2857142857143,4,2,1,5,0,1
169237,-108.695652173913,4,2,1,52,0,1
170278,-89.2857142857143,4,2,1,52,0,1
170798,-108.695652173913,4,2,1,52,0,1
173052,-98.0392156862745,4,2,1,52,0,0
173572,-108.695652173913,4,2,1,52,0,0
174093,-121.951219512195,4,2,1,52,0,0
174353,-121.951219512195,4,2,1,5,0,0
174440,-108.695652173913,4,2,1,52,0,0
174700,-108.695652173913,4,2,1,5,0,0
174786,-98.0392156862745,4,2,1,52,0,0
175046,-98.0392156862745,4,2,1,5,0,0
175133,-89.2857142857143,4,2,1,52,0,0
175827,-108.695652173913,4,2,1,52,0,0
177214,-121.951219512195,4,2,1,42,0,0
178255,-121.951219512195,4,2,1,44,0,0
179295,-121.951219512195,4,2,1,48,0,0
180336,-121.951219512195,4,2,1,52,0,0
181376,-121.951219512195,4,2,1,42,0,0
182416,-121.951219512195,4,2,1,44,0,0
183457,-121.951219512195,4,2,1,48,0,0
184497,-121.951219512195,4,2,1,52,0,0
185538,-121.951219512195,4,2,1,42,0,0
186578,-121.951219512195,4,2,1,44,0,0
187619,-121.951219512195,4,2,1,48,0,0
188659,-121.951219512195,4,2,1,52,0,0
189700,-121.951219512195,4,2,1,42,0,0
190740,-121.951219512195,4,2,1,44,0,0
191781,-121.951219512195,4,2,1,48,0,0
192301,-121.951219512195,4,2,1,42,0,0
193862,-81.9672131147541,4,2,1,62,0,1
195856,-81.9672131147541,4,2,1,5,0,1
195942,-98.0392156862745,4,2,1,62,0,1
196289,-81.9672131147541,4,2,1,62,0,1
198023,-98.0392156862745,4,2,1,62,0,1
198370,-81.9672131147541,4,2,1,62,0,1
202185,-98.0392156862745,4,2,1,62,0,1
202532,-81.9672131147541,4,2,1,62,0,1
203226,-81.9672131147541,4,2,1,62,0,1
203833,-81.9672131147541,4,2,1,5,0,1
203919,-81.9672131147541,4,2,1,62,0,1
204266,-98.0392156862745,4,2,1,62,0,1
204613,-81.9672131147541,4,2,1,62,0,1
205220,-81.9672131147541,4,2,1,5,0,1
205307,-81.9672131147541,4,2,1,62,0,1
206260,-81.9672131147541,4,2,1,5,0,1
206347,-81.9672131147541,4,2,1,62,0,1
207301,-81.9672131147541,4,2,1,5,0,1
207388,-81.9672131147541,4,2,1,62,0,1
207994,-81.9672131147541,4,2,1,5,0,1
208081,-81.9672131147541,4,2,1,62,0,1
208688,-81.9672131147541,4,2,1,5,0,1
208775,-81.9672131147541,4,2,1,62,0,1
210509,-89.2857142857143,4,2,1,52,0,0
210856,-108.695652173913,4,2,1,52,0,0
212243,-238.095238095238,4,2,1,52,0,0
212503,-238.095238095238,4,2,1,5,0,0
212590,-89.2857142857143,4,2,1,52,0,0
212937,-108.695652173913,4,2,1,52,0,0
214324,-238.095238095238,4,2,1,52,0,0
214584,-108.695652173913,4,2,1,5,0,0
214671,-89.2857142857143,4,2,1,52,0,0
215018,-108.695652173913,4,2,1,52,0,0
216752,-89.2857142857143,4,2,1,52,0,0
217012,-108.695652173913,4,2,1,5,0,0
217099,-108.695652173913,4,2,1,52,0,0
217792,-238.095238095238,4,2,1,52,0,0
218052,-108.695652173913,4,2,1,5,0,0
218139,-108.695652173913,4,2,1,52,0,0
218833,-81.9672131147541,4,2,1,52,0,0
219179,-108.695652173913,4,2,1,52,0,0
219526,-89.2857142857143,4,2,1,52,0,0
219786,-108.695652173913,4,2,1,5,0,0
219873,-108.695652173913,4,2,1,52,0,0
220567,-238.095238095238,4,2,1,52,0,0
220827,-238.095238095238,4,2,1,5,0,0
220914,-89.2857142857143,4,2,1,52,0,0
221260,-108.695652173913,4,2,1,52,0,0
222648,-238.095238095238,4,2,1,52,0,0
222908,-108.695652173913,4,2,1,5,0,0
222994,-89.2857142857143,4,2,1,52,0,0
223341,-108.695652173913,4,2,1,52,0,0
224729,-238.095238095238,4,2,1,52,0,0
224989,-238.095238095238,4,2,1,5,0,0
225075,-89.2857142857143,4,2,1,52,0,0
225336,-89.2857142857143,4,2,1,5,0,0
225422,-108.695652173913,4,2,1,52,0,0
227156,-81.9672131147541,4,2,1,52,0,0
227503,-108.695652173913,4,2,1,52,0,0
229237,-89.2857142857143,4,2,1,52,0,0
229584,-108.695652173913,4,2,1,52,0,0
230971,-238.095238095238,4,2,1,52,0,0
231231,-108.695652173913,4,2,1,5,0,0
231318,-89.2857142857143,4,2,1,52,0,0
231838,-108.695652173913,4,2,1,52,0,0
233399,-89.2857142857143,4,2,1,52,0,0
233746,-108.695652173913,4,2,1,52,0,0
235133,-121.951219512195,4,2,1,52,0,0
235480,-454.545454545455,4,2,1,52,0,0
236520,-121.951219512195,4,2,1,52,0,0
237561,-454.545454545455,4,2,1,52,0,0
237908,-121.951219512195,4,2,1,52,0,0
239642,-454.545454545455,4,2,1,32,0,0
240336,-238.095238095238,4,2,1,32,0,0
241376,-454.545454545455,4,2,1,32,0,0
241723,-238.095238095238,4,2,1,32,0,0
242243,-238.095238095238,4,2,1,32,0,0
244324,-238.095238095238,4,2,1,32,0,0
245538,-454.545454545455,4,2,1,32,0,0
245885,-238.095238095238,4,2,1,32,0,0
246405,-238.095238095238,4,2,1,32,0,0
248486,-238.095238095238,4,2,1,32,0,0
249700,-454.545454545455,4,2,1,32,0,0
250046,-238.095238095238,4,2,1,32,0,0
250567,-238.095238095238,4,2,1,32,0,0
252648,-238.095238095238,4,2,1,32,0,0
253862,-454.545454545455,4,2,1,32,0,0
254208,-238.095238095238,4,2,1,32,0,0
254729,-238.095238095238,4,2,1,32,0,0
258890,-238.095238095238,4,2,1,32,0,0

[Colours]
Combo1 : 115,177,181
Combo2 : 217,115,113
Combo3 : 55,77,162
Combo4 : 171,19,236
Combo5 : 192,192,192
Combo6 : 238,204,153

[HitObjects]
490,35,336,6,0,L|482:106,1,62.9999980773926,2|0,1:3|0:0,0:0:0:0:
420,158,856,1,0,1:0:0:0:
353,54,1029,1,8,0:0:0:0:
301,116,1203,1,0,1:0:0:0:
353,54,1376,2,0,L|392:49,1,31.4999990386963,0|0,1:0|0:0,0:0:0:0:
482,97,1723,2,0,L|450:92,1,31.4999990386963,2|0,0:2|0:0,0:0:0:0:
301,116,2070,2,0,L|297:137,1,16.5000005035401,8|0,1:2|1:0,0:0:0:0:
212,216,2416,6,0,L|197:155,1,62.9999980773926,2|0,1:2|0:0,0:0:0:0:
130,116,2937,1,0,1:0:0:0:
130,116,3283,1,0,1:0:0:0:
204,37,3457,2,0,L|245:29,1,31.4999990386963,8|0,0:0|0:0,0:0:0:0:
113,25,3804,1,8,0:0:0:0:
224,126,3977,2,0,L|254:132,1,31.4999990386963,8|0,0:0|1:0,0:0:0:0:
204,37,4324,1,0,1:0:0:0:
61,143,4497,6,0,L|48:214,1,62.9999980773926,2|0,1:2|0:0,0:0:0:0:
76,287,5018,1,0,1:0:0:0:
158,213,5191,1,8,0:0:0:0:
230,260,5364,1,0,1:0:0:0:
158,213,5538,2,0,L|151:244,1,31.4999990386963,0|0,1:0|0:0,0:0:0:0:
106,362,5885,2,0,L|100:331,1,31.4999990386963,2|0,0:2|0:0,0:0:0:0:
47,215,6231,2,0,L|64:214,1,16.5000005035401,8|0,0:0|1:0,0:0:0:0:
230,260,6578,6,0,L|305:271,1,62.9999980773926,2|0,1:2|0:0,0:0:0:0:
372,333,7099,1,0,1:0:0:0:
372,333,7445,1,0,1:0:0:0:
474,243,7619,2,0,L|468:274,1,31.4999990386963,8|0,0:0|0:0,0:0:0:0:
493,357,7966,1,8,0:0:0:0:
381,215,8139,2,0,L|388:246,1,31.4999990386963,8|0,0:0|1:0,0:0:0:0:
372,333,8486,1,0,1:0:0:0:
474,243,8659,6,0,L|484:180,1,62.9999980773926,2|0,1:2|0:0,0:0:0:0:
456,85,9179,1,0,1:0:0:0:
331,120,9353,1,8,0:0:0:0:
265,43,9526,1,0,1:0:0:0:
331,120,9700,2,0,L|362:116,1,31.4999990386963,0|0,1:0|0:0,0:0:0:0:
256,189,10046,1,2,0:2:0:0:
179,146,10220,1,0,0:0:0:0:
106,242,10393,2,0,L|102:260,1,16.5000005035401,8|0,0:2|1:0,0:0:0:0:
248,345,10740,6,0,L|241:283,1,62.9999980773926,2|0,1:2|0:0,0:0:0:0:
178,223,11260,1,0,1:0:0:0:
178,223,11607,1,0,1:0:0:0:
125,349,11781,2,0,L|121:318,1,31.4999990386963,8|0,0:0|0:0,0:0:0:0:
61,191,12127,1,8,0:0:0:0:
0,326,12301,2,0,L|4:294,1,31.4999990386963,8|0,0:0|1:0,0:0:0:0:
61,191,12648,1,0,1:0:0:0:
124,348,12821,6,0,L|117:285,1,62.9999980773926,2|0,1:2|0:0,0:0:0:0:
153,214,13341,1,0,1:0:0:0:
4,294,13515,1,8,0:0:0:0:
61,191,13688,1,0,1:0:0:0:
153,214,13862,2,0,L|191:220,1,31.4999990386963,0|0,1:0|0:0,0:0:0:0:
262,152,14208,1,2,0:2:0:0:
299,236,14382,1,0,0:0:0:0:
184,218,14555,2,0,L|163:216,1,16.5000005035401,8|0,0:2|1:0,0:0:0:0:
225,71,14902,6,0,L|291:58,1,62.9999980773926,2|0,1:2|0:0,0:0:0:0:
364,0,15422,1,0,1:0:0:0:
364,0,15769,1,0,1:0:0:0:
495,91,15942,2,0,L|487:135,1,31.4999990386963,8|0,0:0|0:0,0:0:0:0:
452,12,16289,1,8,0:0:0:0:
382,100,16463,2,0,L|388:130,1,31.4999990386963,8|0,0:0|1:0,0:0:0:0:
443,228,16809,1,0,1:0:0:0:
443,228,16983,5,0,1:3:0:0:
443,228,17503,1,0,1:0:0:0:
367,163,17677,1,8,0:0:0:0:
318,283,17850,2,0,L|326:324,1,31.4999990386963,0|0,1:0|0:0,0:0:0:0:
324,313,18370,1,2,0:2:0:0:
206,166,18717,2,0,L|198:220,1,47.2499985580445,2|0,1:2|0:0,0:0:0:0:
238,295,19064,6,0,P|186:250|112:263,1,137.999995367432,6|0,1:2|0:0,0:0:0:0:
121,257,19757,1,0,1:0:0:0:
60,384,19931,1,0,1:0:0:0:
16,180,20104,2,0,P|55:190|85:188,1,68.9999976837159,8|0,0:0|0:0,0:0:0:0:
137,116,20451,2,0,P|176:109|203:97,1,68.9999976837159,0|0,0:0|0:0,0:0:0:0:
248,5,20798,2,0,L|304:18,1,47.2499985580445,2|0,1:2|0:0,0:0:0:0:
376,27,21145,6,0,P|315:49|314:114,1,137.999995367432,2|0,1:2|0:0,0:0:0:0:
361,191,21665,1,0,1:0:0:0:
361,191,22012,1,0,1:0:0:0:
501,113,22185,2,0,L|512:182,1,68.9999976837159,8|0,0:0|0:0,0:0:0:0:
512,273,22532,1,8,2:3:0:0:
436,234,22705,1,8,2:3:0:0:
361,191,22879,2,0,L|309:200,1,47.2499985580445,2|0,0:2|0:0,0:0:0:0:
247,174,23226,6,0,P|297:217|285:282,1,137.999995367432,6|0,1:2|0:0,0:0:0:0:
285,281,23919,1,2,1:2:0:0:
173,268,24093,1,0,1:0:0:0:
138,161,24266,2,0,P|57:160|12:225,1,137.999995367432,10|0,0:2|0:0,0:0:0:0:
20,197,24960,2,0,L|20:147,1,47.2499985580445,10|0,2:3|0:0,0:0:0:0:
1,65,25307,6,0,P|63:27|144:37,1,137.999995367432,2|0,1:3|0:0,0:0:0:0:
242,88,25827,1,0,1:0:0:0:
242,88,26174,1,0,1:0:0:0:
262,185,26347,2,0,L|194:172,1,68.9999976837159,8|0,0:0|0:0,0:0:0:0:
312,25,26694,1,8,2:3:0:0:
242,88,26867,1,4,2:3:0:0:
386,181,27041,2,0,L|388:313,1,103.499996525574,10|0,0:2|0:0,0:0:0:0:
493,376,27388,6,0,B|501:335|486:299|486:299|499:263|499:263|478:222|494:193,1,182.999992460633,14|0,1:2|0:0,0:0:0:0:
491,199,28081,1,0,1:0:0:0:
458,93,28255,1,0,1:0:0:0:
387,284,28428,2,0,B|350:296|350:296|310:297,1,68.9999976837159,8|0,0:0|0:0,0:0:0:0:
184,164,28775,2,0,B|211:175|211:175|242:199,1,68.9999976837159,0|0,0:0|0:0,0:0:0:0:
170,379,29122,2,0,L|158:277,1,103.499996525574,2|0,1:2|0:0,0:0:0:0:
91,201,29468,6,0,B|111:189|123:165|123:165|153:205|131:268|74:288,1,182.999992460633,14|0,1:2|0:0,0:0:0:0:
0,328,29989,1,0,1:0:0:0:
0,328,30336,1,0,1:0:0:0:
91,201,30509,2,0,L|171:213,1,68.9999976837159,8|0,0:0|0:0,0:0:0:0:
227,272,30856,1,8,2:3:0:0:
295,329,31029,1,8,2:3:0:0:
380,297,31203,2,0,L|392:181,1,103.499996525574,2|0,1:2|0:0,0:0:0:0:
488,49,31549,6,0,B|502:84|488:120|488:120|498:159|498:159|480:206|496:255,1,182.999992460633,14|0,1:2|0:0,0:0:0:0:
489,227,32243,1,2,1:2:0:0:
390,194,32416,1,0,1:0:0:0:
290,155,32590,2,0,L|299:292,1,137.999995367432,10|0,0:2|0:0,0:0:0:0:
300,293,33283,2,0,L|165:316,1,103.499996525574,2|0,1:2|0:0,0:0:0:0:
21,185,33630,6,0,L|212:207,1,182.999992460633,14|0,1:2|0:0,0:0:0:0:
300,293,34151,1,0,1:0:0:0:
202,206,34324,1,8,0:0:0:0:
336,142,34497,1,8,0:0:0:0:
429,329,34671,1,4,1:2:0:0:
300,293,34844,1,0,3:0:0:0:
486,151,35018,2,0,B|494:190|494:190|481:245,1,68.9999976837159,0|0,1:0|1:0,0:0:0:0:
336,142,35364,2,0,B|329:113|329:113|337:74,1,68.9999976837159,8|4,2:3|2:3,0:0:0:0:
373,0,35711,6,0,B|399:30|435:32|435:32|325:25|359:94|236:72,1,252.000003076172,6|0,1:2|0:0,0:0:0:0:
193,26,36405,1,10,0:2:0:0:
142,103,36578,1,0,1:0:0:0:
46,93,36752,2,0,L|77:38,1,61.5000009384155,2|0,1:2|0:0,0:0:0:0:
142,103,37099,2,0,L|111:159,1,61.5000009384155,2|0,0:2|0:0,0:0:0:0:
14,189,37445,1,10,0:2:0:0:
83,250,37619,1,0,1:0:0:0:
214,176,37792,6,0,B|266:174|266:174|306:194|306:194|372:192,1,137.999995367432,2|0,1:2|0:0,0:0:0:0:
413,259,38312,1,0,1:0:0:0:
413,259,38659,1,0,1:0:0:0:
481,167,38833,6,0,L|495:226,1,61.5000009384155,10|0,0:2|0:0,0:0:0:0:
427,318,39179,2,0,L|412:258,1,61.5000009384155,10|8,0:2|0:0,0:0:0:0:
349,186,39526,2,0,L|334:250,1,61.5000009384155,2|0,0:2|0:0,0:0:0:0:
496,227,39873,6,0,P|484:160|413:132,1,137.999995367432,2|0,1:2|0:0,0:0:0:0:
349,186,40393,1,0,1:0:0:0:
397,41,40567,1,8,0:0:0:0:
470,54,40740,1,0,1:0:0:0:
324,29,40914,6,0,B|287:24|287:24|247:25,1,61.5000009384155,2|0,1:2|0:0,0:0:0:0:
175,117,41260,2,0,B|207:119|207:119|238:114,1,61.5000009384155,2|0,0:2|0:0,0:0:0:0:
141,6,41607,1,10,0:2:0:0:
175,117,41781,1,0,1:0:0:0:
324,29,41954,6,0,L|320:200,1,137.999995367432,2|0,1:2|0:0,0:0:0:0:
275,243,42474,1,2,1:2:0:0:
320,166,42648,1,2,0:2:0:0:
418,191,42821,1,0,1:0:0:0:
353,267,42994,2,0,L|291:260,1,61.5000009384155,10|0,0:2|0:0,0:0:0:0:
198,365,43341,1,8,0:0:0:0:
295,342,43515,1,8,0:0:0:0:
158,280,43688,2,0,L|96:272,1,61.5000009384155,2|0,1:2|1:0,0:0:0:0:
16,164,44035,6,0,L|184:148,1,137.999995367432,2|0,1:2|0:0,0:0:0:0:
225,78,44555,1,0,1:0:0:0:
252,165,44729,2,0,L|259:234,1,61.5000009384155,8|2,0:0|1:2,0:0:0:0:
352,181,45075,2,0,L|325:112,1,61.5000009384155,2|0,1:2|0:0,0:0:0:0:
387,45,45422,2,0,L|424:98,1,61.5000009384155,2|0,0:2|0:0,0:0:0:0:
480,223,45769,1,10,0:2:0:0:
512,127,45942,1,0,1:0:0:0:
352,181,46116,6,0,P|349:259|414:293,1,137.999995367432,2|0,1:2|0:0,0:0:0:0:
477,306,46636,1,2,1:2:0:0:
509,202,46809,1,2,0:2:0:0:
424,134,46983,1,0,1:0:0:0:
352,181,47156,2,0,L|268:188,1,61.5000009384155,10|0,0:2|0:0,0:0:0:0:
191,126,47503,1,8,0:0:0:0:
290,186,47677,1,8,0:0:0:0:
295,74,47850,2,0,L|303:12,1,61.5000009384155,0|0,1:0|1:0,0:0:0:0:
419,166,48197,6,0,L|405:8,1,137.999995367432,2|0,1:2|0:0,0:0:0:0:
502,56,48717,1,2,1:2:0:0:
347,139,48890,1,8,0:0:0:0:
407,29,49064,1,2,1:2:0:0:
504,157,49237,6,0,L|513:241,1,61.5000009384155,2|0,1:2|0:0,0:0:0:0:
402,290,49584,2,0,L|393:212,1,61.5000009384155,2|0,0:2|0:0,0:0:0:0:
347,139,49931,1,10,0:2:0:0:
504,157,50104,1,0,1:0:0:0:
488,305,50278,6,0,P|435:372|361:368,1,137.999995367432,2|0,1:2|0:0,0:0:0:0:
273,275,50798,1,0,1:0:0:0:
273,275,51145,1,0,1:0:0:0:
160,371,51318,2,0,L|150:306,1,61.5000009384155,8|0,0:0|1:0,0:0:0:0:
186,204,51665,1,8,0:0:0:0:
70,250,51838,1,8,0:0:0:0:
46,115,52012,2,0,B|94:108|94:108|133:119,1,81.0000019775391,2|0,1:3|0:0,0:0:0:0:
264,237,52359,6,0,P|165:162|176:85,1,206.999993051148,2|0,1:2|1:0,0:0:0:0:
268,40,53052,1,10,0:2:0:0:
296,139,53226,1,0,1:0:0:0:
172,90,53399,6,0,L|108:100,1,61.5000009384155,2|0,1:2|0:0,0:0:0:0:
0,11,53746,2,0,L|63:23,1,61.5000009384155,2|0,0:2|0:0,0:0:0:0:
172,90,54093,1,8,0:0:0:0:
154,0,54266,1,0,1:0:0:0:
4,129,54440,6,0,B|-1:78|27:70|93:108|65:151|4:129|13:183|1:231|25:303,1,275.999990734864,2|0,1:2|0:0,0:0:0:0:
88,383,55307,1,0,1:0:0:0:
166,311,55480,6,0,L|237:295,1,61.5000009384155,10|0,0:2|1:0,0:0:0:0:
311,247,55827,1,10,0:2:0:0:
404,289,56000,1,8,0:0:0:0:
357,379,56174,2,0,L|294:364,1,61.5000009384155,2|0,1:2|1:0,0:0:0:0:
207,190,56520,6,0,P|301:133|406:172,1,206.999993051148,2|0,1:2|1:0,0:0:0:0:
412,294,57214,1,8,0:0:0:0:
311,247,57388,1,0,1:0:0:0:
382,88,57561,6,0,L|390:153,1,61.5000009384155,2|0,1:2|0:0,0:0:0:0:
284,137,57908,2,0,L|289:69,1,61.5000009384155,2|0,0:2|0:0,0:0:0:0:
382,88,58255,1,10,0:2:0:0:
468,213,58428,1,0,1:0:0:0:
284,137,58601,6,0,B|240:116|206:139|206:139|168:136|168:136|125:170|65:142,1,206.999993051148,2|2,1:2|1:2,0:0:0:0:
127,253,59295,1,2,1:2:0:0:
40,331,59468,1,0,1:0:0:0:
127,253,59642,2,0,B|161:248|161:248|199:254,1,61.5000009384155,10|0,0:2|0:0,0:0:0:0:
286,227,59989,1,8,0:0:0:0:
217,164,60162,1,8,0:0:0:0:
291,85,60336,2,0,B|340:87|340:87|377:102,1,81.0000019775391,2|0,1:3|0:0,0:0:0:0:
494,113,60682,6,0,P|388:140|400:243,1,206.999993051148,2|0,1:2|1:0,0:0:0:0:
459,322,61376,1,8,0:0:0:0:
475,227,61549,1,2,1:2:0:0:
361,336,61723,6,0,L|278:347,1,61.5000009384155,2|0,1:2|0:0,0:0:0:0:
184,256,62070,2,0,L|249:265,1,61.5000009384155,2|0,0:2|0:0,0:0:0:0:
361,336,62416,1,10,0:2:0:0:
449,215,62590,1,0,1:0:0:0:
361,336,62763,6,0,L|138:371,1,206.999993051148,2|0,1:2|1:0,0:0:0:0:
52,358,63457,1,2,1:2:0:0:
0,274,63630,1,0,1:0:0:0:
74,208,63804,2,0,L|138:215,1,61.5000009384155,10|0,0:2|0:0,0:0:0:0:
221,260,64151,1,8,0:0:0:0:
265,177,64324,1,8,0:0:0:0:
231,93,64497,2,0,L|102:84,1,103.499996525574,2|0,1:3|0:0,0:0:0:0:
58,160,64844,6,0,L|221:172,1,137.999995367432,2|0,1:2|0:0,0:0:0:0:
285,145,65364,2,0,L|353:134,1,68.9999976837159,2|8,1:2|0:0,0:0:0:0:
414,193,65711,1,2,1:2:0:0:
343,240,65885,6,0,L|254:254,1,81.0000019775391,2|0,1:2|0:0,0:0:0:0:
203,206,66231,2,0,P|216:246|197:318,1,92.2500014076233,2|0,0:2|0:0,0:0:0:0:
146,366,66578,2,0,L|273:359,1,103.499996525574,10|0,0:2|0:0,0:0:0:0:
364,339,66925,6,0,L|81:313,1,275.999990734864,2|0,1:2|0:0,0:0:0:0:
0,153,67792,1,0,1:0:0:0:
29,239,67966,2,0,L|104:237,1,61.5000009384155,8|0,0:0|0:0,0:0:0:0:
204,130,68312,5,10,0:2:0:0:
222,241,68486,1,8,0:0:0:0:
94,132,68659,2,0,L|18:133,1,61.5000009384155,2|0,0:2|0:0,0:0:0:0:
186,27,69006,6,0,B|238:-2|311:30|311:30|336:77|398:79,1,206.999993051148,2|2,1:2|1:2,0:0:0:0:
489,108,69700,1,10,0:2:0:0:
448,25,69873,1,0,1:0:0:0:
370,157,70046,6,0,L|267:170,1,81.0000019775391,2|0,1:2|0:0,0:0:0:0:
197,199,70393,2,0,L|301:205,1,92.2500014076233,2|0,0:2|0:0,0:0:0:0:
394,267,70740,2,0,L|261:285,1,103.499996525574,10|0,0:2|0:0,0:0:0:0:
200,366,71087,6,0,B|174:343|125:340|125:340|147:299|217:306|200:366|290:381|388:361,1,344.999988418579,2|0,1:2|0:0,0:0:0:0:
493,189,72127,1,10,0:2:0:0:
503,287,72301,1,0,1:0:0:0:
370,223,72474,1,8,0:0:0:0:
503,287,72648,2,0,L|506:354,2,61.5000009384155,8|0|0,0:0|1:0|1:0,0:0:0:0:
498,181,73168,5,2,1:2:0:0:
419,291,73341,1,2,1:2:0:0:
309,231,73515,2,0,L|376:222,1,61.5000009384155,2|2,0:2|1:2,0:0:0:0:
410,111,73862,2,0,L|344:101,1,61.5000009384155,10|0,0:2|1:0,0:0:0:0:
256,44,74208,5,2,1:2:0:0:
153,40,74382,1,2,0:2:0:0:
80,114,74555,1,2,0:2:0:0:
159,34,74729,1,2,0:2:0:0:
197,160,74902,2,0,L|203:234,1,61.5000009384155,10|2,0:2|1:2,0:0:0:0:
247,336,75249,5,2,1:2:0:0:
153,384,75422,1,2,0:2:0:0:
66,331,75596,2,0,L|69:270,1,61.5000009384155,2|0,0:2|1:0,0:0:0:0:
197,160,75942,2,0,L|204:248,1,61.5000009384155,2|0,0:2|1:0,0:0:0:0:
257,338,76289,5,2,1:2:0:0:
149,311,76463,1,2,0:2:0:0:
288,197,76636,1,8,0:0:0:0:
356,285,76809,1,10,0:2:0:0:
450,184,76983,2,0,L|388:190,1,61.5000009384155,2|0,1:2|1:0,0:0:0:0:
315,29,77330,6,0,L|399:39,1,61.5000009384155,2|2,1:2|0:2,0:0:0:0:
330,116,77677,1,2,0:2:0:0:
238,71,77850,1,2,1:2:0:0:
151,127,78023,1,10,0:2:0:0:
245,68,78197,1,2,1:2:0:0:
409,157,78371,6,0,L|498:166,1,61.5000009384155,2|2,1:2|1:2,0:0:0:0:
374,251,78717,2,0,L|291:261,1,61.5000009384155,10|0,0:2|0:0,0:0:0:0:
444,346,79064,2,0,L|513:353,1,61.5000009384155,10|2,0:2|1:2,0:0:0:0:
406,149,79411,5,2,1:2:0:0:
372,259,79584,1,2,0:2:0:0:
304,172,79757,2,0,L|216:157,1,61.5000009384155,2|2,1:2|1:2,0:0:0:0:
137,82,80104,2,0,L|222:70,1,61.5000009384155,2|0,1:2|1:0,0:0:0:0:
91,201,80451,5,10,0:2:0:0:
185,246,80625,1,2,1:2:0:0:
98,305,80798,2,0,L|15:295,1,61.5000009384155,10|2,0:2|0:2,0:0:0:0:
160,355,81145,2,0,L|247:344,1,61.5000009384155,2|0,1:2|3:2,0:0:0:0:
354,329,81492,5,2,1:2:0:0:
273,188,81665,1,2,1:2:0:0:
480,214,81838,2,0,L|403:204,1,61.5000009384155,2|0,0:2|0:0,0:0:0:0:
222,95,82185,2,0,L|308:86,1,61.5000009384155,10|0,0:2|1:0,0:0:0:0:
479,57,82532,5,2,1:2:0:0:
375,26,82705,1,2,0:2:0:0:
420,144,82879,2,0,L|418:232,1,61.5000009384155,2|0,1:2|0:0,0:0:0:0:
354,329,83226,1,10,0:2:0:0:
268,180,83399,1,2,1:2:0:0:
411,201,83572,5,2,1:2:0:0:
239,302,83746,1,2,0:2:0:0:
404,204,83919,2,0,L|412:131,1,68.9999976837159,2|0,0:2|1:0,0:0:0:0:
272,187,84266,2,0,L|269:109,1,68.9999976837159,2|0,1:2|0:0,0:0:0:0:
126,10,84613,5,2,1:2:0:0:
65,74,84786,1,2,0:2:0:0:
195,63,84960,1,10,0:2:0:0:
144,180,85133,1,10,0:2:0:0:
38,101,85307,2,0,L|35:27,1,68.9999976837159,2|0,1:2|3:0,0:0:0:0:
203,45,85653,5,2,1:2:0:0:
52,104,85827,1,2,0:2:0:0:
243,156,86000,1,2,0:2:0:0:
148,172,86174,1,2,1:2:0:0:
273,74,86347,2,0,L|341:76,1,68.9999976837159,10|0,0:2|0:0,0:0:0:0:
457,62,86694,5,2,1:2:0:0:
505,143,86867,1,2,0:2:0:0:
362,151,87041,1,2,1:2:0:0:
461,69,87214,1,2,0:2:0:0:
478,253,87388,1,10,0:2:0:0:
352,142,87561,1,2,1:2:0:0:
506,154,87734,6,0,L|507:259,1,92.2500014076233,2|0,1:2|0:0,0:0:0:0:
478,345,88081,2,0,L|477:250,1,92.2500014076233,2|0,0:2|0:0,0:0:0:0:
506,154,88428,1,2,0:2:0:0:
463,86,88601,2,0,B|439:80|439:80|408:83,4,48,0|0|0|0|0,0:2|0:2|0:2|0:2|0:0,0:0:0:0:
415,82,93630,6,0,L|360:82,1,47.2499985580445,2|0,0:2|0:0,0:0:0:0:
295,23,93977,6,0,P|321:84|233:163,1,182.999992460633,6|0,0:2|0:0,0:0:0:0:
133,212,94497,1,0,1:0:0:0:
84,78,94671,1,0,1:0:0:0:
206,47,94844,1,0,1:0:0:0:
303,225,95018,2,0,B|375:223|375:223|421:245|421:245|495:246,1,182.999992460633,8|0,0:0|0:0,0:0:0:0:
480,245,95711,2,0,L|473:296,1,47.2499985580445,2|0,1:2|0:0,0:0:0:0:
395,353,96058,6,0,P|324:302|213:329,1,182.999992460633,6|0,1:2|0:0,0:0:0:0:
149,369,96578,1,0,1:0:0:0:
149,369,96925,1,0,1:0:0:0:
38,229,97099,2,0,L|129:216,1,91.4999962303163,8|0,0:0|0:0,0:0:0:0:
233,212,97445,1,8,2:3:0:0:
276,118,97619,1,8,2:3:0:0:
216,36,97792,2,0,L|165:43,1,47.2499985580445,2|0,1:2|0:0,0:0:0:0:
89,0,98139,6,0,P|152:59|124:141,1,182.999992460633,6|0,1:2|0:0,0:0:0:0:
124,141,98833,1,2,1:2:0:0:
38,229,99006,1,0,1:0:0:0:
157,279,99179,2,0,L|348:264,1,182.999992460633,10|0,0:2|0:0,0:0:0:0:
339,264,99873,2,0,L|290:268,1,47.2499985580445,10|0,2:3|0:0,0:0:0:0:
253,348,100220,6,0,P|289:264|210:189,1,182.999992460633,6|0,1:2|0:0,0:0:0:0:
124,141,100740,1,0,1:0:0:0:
124,141,101087,1,0,1:0:0:0:
225,57,101260,2,0,L|321:42,1,91.4999962303163,8|0,0:0|0:0,0:0:0:0:
445,49,101607,5,8,2:3:0:0:
315,42,101781,1,4,2:3:0:0:
392,165,101954,1,6,2:3:0:0:
448,41,102127,1,0,3:2:0:0:
397,172,102301,6,0,B|385:215|398:243|398:243|389:278|389:278|408:316|399:355,1,182.999992460633,6|0,1:2|0:0,0:0:0:0:
286,331,102821,1,0,0:0:0:0:
284,216,102994,1,0,1:0:0:0:
397,172,103168,1,0,1:0:0:0:
284,216,103341,2,0,L|177:232,1,91.4999962303163,8|0,0:0|0:0,0:0:0:0:
47,133,103688,2,0,L|138:147,1,91.4999962303163,0|0,0:0|0:0,0:0:0:0:
193,229,104035,2,0,L|137:237,1,47.2499985580445,2|0,1:2|0:0,0:0:0:0:
59,222,104382,6,0,P|126:279|122:375,1,182.999992460633,6|0,1:2|0:0,0:0:0:0:
21,326,104902,1,0,1:0:0:0:
21,326,105249,1,0,1:0:0:0:
146,235,105422,2,0,L|242:222,1,91.4999962303163,8|0,0:0|0:0,0:0:0:0:
308,296,105769,1,8,2:3:0:0:
414,288,105942,1,8,2:3:0:0:
472,203,106116,2,0,L|423:174,1,47.2499985580445,2|0,0:2|0:0,0:0:0:0:
378,80,106463,6,0,P|395:165|326:218,1,182.999992460633,6|0,1:2|0:0,0:0:0:0:
325,218,107156,1,0,1:0:0:0:
378,80,107330,1,0,1:0:0:0:
507,200,107503,2,0,L|311:219,1,182.999992460633,8|0,0:0|0:0,0:0:0:0:
165,316,108197,2,0,L|213:318,1,47.2499985580445,10|0,2:3|0:0,0:0:0:0:
310,346,108544,6,0,P|230:310|219:224,1,182.999992460633,6|0,1:2|0:0,0:0:0:0:
262,132,109064,1,0,1:0:0:0:
324,217,109237,1,8,0:0:0:0:
378,80,109411,1,8,0:0:0:0:
507,200,109584,5,4,1:2:0:0:
372,73,109757,1,8,0:0:0:0:
320,226,109931,1,8,0:0:0:0:
365,66,110104,1,0,1:0:0:0:
507,200,110278,1,8,2:3:0:0:
482,88,110451,1,4,2:3:0:0:
507,200,110625,6,0,L|506:250,1,49.5000015106202,4|0,0:2|1:0,0:0:0:0:
400,322,111318,1,2,1:2:0:0:
415,211,111492,1,0,1:0:0:0:
468,337,111665,6,0,L|387:319,1,68.9999976837159,10|0,0:2|0:0,0:0:0:0:
326,232,112012,2,0,L|258:246,1,68.9999976837159,2|0,0:2|0:0,0:0:0:0:
203,369,112359,2,0,L|271:384,1,68.9999976837159,2|0,1:2|0:0,0:0:0:0:
258,246,112705,6,0,B|227:253|211:258|211:258|288:317|388:301,1,229.500001400757,6|0,1:2|0:0,0:0:0:0:
415,211,113399,1,0,1:0:0:0:
506,249,113572,1,0,1:0:0:0:
497,120,113746,2,0,L|419:108,1,68.9999976837159,10|0,0:2|0:0,0:0:0:0:
331,147,114093,5,10,2:3:0:0:
429,109,114266,1,8,2:3:0:0:
405,8,114440,2,0,L|336:0,1,68.9999976837159,2|0,1:2|0:0,0:0:0:0:
206,62,114786,6,0,B|274:53|274:53|227:130|99:99,1,229.500001400757,6|0,1:2|1:0,0:0:0:0:
55,44,115480,1,0,1:0:0:0:
0,128,115653,1,0,1:0:0:0:
140,173,115827,6,0,L|132:103,1,68.9999976837159,10|0,0:2|0:0,0:0:0:0:
0,128,116174,2,0,L|5:196,1,68.9999976837159,2|0,0:2|0:0,0:0:0:0:
72,236,116520,2,0,L|64:321,1,68.9999976837159,2|0,1:2|0:0,0:0:0:0:
0,380,116867,6,0,P|54:318|187:352,1,229.500001400757,6|2,1:2|1:2,0:0:0:0:
184,348,117561,1,2,1:2:0:0:
227,241,117734,1,0,1:0:0:0:
311,371,117908,2,0,L|397:371,1,68.9999976837159,10|0,0:2|0:0,0:0:0:0:
461,285,118255,1,8,2:3:0:0:
349,241,118428,1,8,2:3:0:0:
475,155,118601,2,0,L|406:155,1,68.9999976837159,2|0,1:2|1:0,0:0:0:0:
267,82,118948,6,0,P|337:103|339:250,1,229.500001400757,6|0,1:2|1:0,0:0:0:0:
227,241,119642,1,0,1:0:0:0:
349,241,119815,1,2,1:2:0:0:
250,351,119989,6,0,L|182:356,1,68.9999976837159,10|0,0:2|0:0,0:0:0:0:
113,264,120336,2,0,L|44:259,1,68.9999976837159,2|0,0:2|0:0,0:0:0:0:
3,367,120682,1,2,1:2:0:0:
44,259,120856,1,2,0:0:0:0:
182,356,121029,6,0,B|271:349|271:349|321:326|321:326|439:318,1,229.500001400757,6|2,1:2|0:2,0:0:0:0:
474,378,121723,1,2,1:2:0:0:
512,272,121896,1,0,1:0:0:0:
418,208,122070,2,0,L|328:212,1,68.9999976837159,10|0,0:2|0:0,0:0:0:0:
249,246,122416,1,8,2:3:0:0:
178,176,122590,1,8,2:3:0:0:
214,89,122763,2,0,L|308:85,1,68.9999976837159,0|0,1:0|0:0,0:0:0:0:
436,108,123110,6,0,B|476:110|497:130|497:130|455:51|362:56,1,229.500001400757,6|2,1:2|0:2,0:0:0:0:
214,89,123804,1,0,1:0:0:0:
272,2,123977,1,2,1:2:0:0:
305,139,124151,6,0,L|315:240,1,68.9999976837159,10|0,0:2|0:0,0:0:0:0:
206,157,124497,2,0,L|214:88,1,68.9999976837159,2|0,1:2|0:0,0:0:0:0:
381,177,124844,2,0,L|391:275,1,68.9999976837159,10|0,0:2|0:0,0:0:0:0:
443,338,125191,6,0,P|386:284|303:301,1,153.000000933838,6|0,1:2|0:0,0:0:0:0:
209,382,125711,1,8,0:0:0:0:
248,282,125885,2,0,L|316:291,1,68.9999976837159,0|0,1:0|0:0,0:0:0:0:
443,338,126231,5,8,0:0:0:0:
316,290,126405,1,8,0:0:0:0:
474,211,126578,1,8,2:3:0:0:
318,303,126752,1,8,0:0:0:0:
303,158,126925,2,0,L|403:166,1,68.9999976837159,0|0,1:0|0:0,0:0:0:0:
485,30,127272,6,0,P|371:5|266:77,1,229.500001400757,12|0,1:2|0:0,0:0:0:0:
210,180,127966,1,2,1:2:0:0:
303,158,128139,1,0,1:0:0:0:
179,87,128312,6,0,L|105:98,1,68.9999976837159,10|0,0:2|0:0,0:0:0:0:
28,202,128659,2,0,L|97:213,1,68.9999976837159,2|0,0:2|0:0,0:0:0:0:
185,301,129006,2,0,L|111:312,1,68.9999976837159,2|0,1:2|0:0,0:0:0:0:
28,202,129353,6,0,P|108:134|215:189,1,229.500001400757,6|0,1:2|0:0,0:0:0:0:
185,301,130046,1,0,1:0:0:0:
124,229,130220,1,0,1:0:0:0:
279,254,130393,6,0,L|361:259,1,68.9999976837159,10|0,0:2|1:0,0:0:0:0:
414,199,130740,1,10,2:3:0:0:
495,242,130914,1,8,2:3:0:0:
489,332,131087,2,0,L|420:327,1,68.9999976837159,2|0,1:2|1:0,0:0:0:0:
271,380,131434,6,0,P|327:288|225:242,1,229.500001400757,6|0,1:2|0:0,0:0:0:0:
90,315,132127,1,0,1:0:0:0:
205,319,132301,1,0,1:0:0:0:
134,204,132474,6,0,L|41:218,1,68.9999976837159,10|0,0:2|0:0,0:0:0:0:
178,120,132821,2,0,L|271:134,1,68.9999976837159,2|0,0:2|0:0,0:0:0:0:
359,42,133168,2,0,L|291:53,1,68.9999976837159,2|0,1:2|0:0,0:0:0:0:
358,164,133515,6,0,B|431:173|431:173|372:226|284:207,1,229.500001400757,6|2,1:2|0:2,0:0:0:0:
178,120,134208,1,2,1:2:0:0:
291,53,134382,1,0,1:0:0:0:
358,164,134555,2,0,L|374:256,1,68.9999976837159,8|0,0:0|0:0,0:0:0:0:
422,305,134902,1,8,2:3:0:0:
512,240,135075,1,8,2:3:0:0:
506,130,135249,2,0,L|439:114,1,68.9999976837159,2|0,1:2|1:0,0:0:0:0:
291,53,135596,6,0,P|315:158|224:223,1,229.500001400757,6|0,1:2|0:0,0:0:0:0:
127,202,136289,1,0,1:0:0:0:
197,112,136463,1,2,1:2:0:0:
84,93,136636,6,0,L|13:101,1,68.9999976837159,10|0,0:2|0:0,0:0:0:0:
127,202,136983,2,0,L|198:210,1,68.9999976837159,2|0,0:2|0:0,0:0:0:0:
265,105,137330,2,0,L|196:112,1,68.9999976837159,2|0,1:2|1:0,0:0:0:0:
259,275,137677,6,0,B|310:287|351:262|351:262|393:273|393:273|441:249|510:274,1,229.500001400757,6|0,1:2|0:0,0:0:0:0:
512,158,138370,1,2,1:2:0:0:
422,86,138544,1,0,1:0:0:0:
344,173,138717,2,0,L|426:182,1,68.9999976837159,10|0,0:2|0:0,0:0:0:0:
422,86,139064,1,8,2:3:0:0:
332,12,139237,1,8,2:3:0:0:
250,95,139411,2,0,L|168:104,1,68.9999976837159,2|0,1:2|0:0,0:0:0:0:
15,47,139757,6,0,L|135:33,2,114.750000700378,6|2|2,1:2|0:0|0:2,0:0:0:0:
0,175,140451,1,0,1:0:0:0:
91,136,140625,1,0,1:0:0:0:
117,288,140798,6,0,L|209:298,1,68.9999976837159,10|0,0:2|0:0,0:0:0:0:
266,215,141145,2,0,L|334:207,1,68.9999976837159,2|0,0:2|0:0,0:0:0:0:
426,327,141492,2,0,L|358:320,1,68.9999976837159,2|0,1:2|0:0,0:0:0:0:
435,198,141838,6,0,B|494:192|494:192|458:156|387:158,1,153.000000933838,6|0,1:2|0:0,0:0:0:0:
266,113,142359,1,8,0:0:0:0:
346,67,142532,2,0,L|433:53,1,68.9999976837159,0|0,1:0|0:0,0:0:0:0:
396,205,142879,5,10,0:2:0:0:
258,108,143052,1,8,0:0:0:0:
418,132,143226,1,8,2:3:0:0:
286,213,143399,1,8,0:0:0:0:
346,67,143572,2,0,L|343:146,1,68.9999976837159,0|0,1:0|0:0,0:0:0:0:
363,352,143919,6,0,B|419:369|440:336|385:269|327:286|303:390|185:340,1,274.499988690949,14|0,1:2|1:0,0:0:0:0:
137,251,144613,1,0,1:0:0:0:
252,254,144786,1,0,1:0:0:0:
207,347,144960,2,0,L|86:360,1,114.750000700378,8|0,0:0|0:0,0:0:0:0:
7,371,145307,6,0,L|9:353,1,18.0000004394531,2|0,1:3|0:0,0:0:0:0:
35,199,145827,1,0,0:0:0:0:
137,251,146000,2,0,L|144:294,2,31.4999990386963,2|0|0,1:3|0:0|0:0,0:0:0:0:
223,157,146520,1,0,1:0:0:0:
151,88,146694,2,0,L|58:83,1,68.9999976837159,2|0,0:2|0:0,0:0:0:0:
3,127,147041,5,8,0:0:0:0:
52,0,147214,1,0,0:0:0:0:
151,88,147388,1,0,1:0:0:0:
16,117,147561,1,0,1:0:0:0:
137,4,147734,2,0,L|168:8,1,24.7500007553101,2|0,0:2|0:0,0:0:0:0:
248,96,148081,6,0,L|334:117,2,84.0000010253906,4|0|0,1:2|0:0|0:0,0:0:0:0:
309,237,148601,1,0,0:0:0:0:
482,124,148775,2,0,L|415:140,1,68.9999976837159,0|0,1:0|1:0,0:0:0:0:
317,257,149121,5,8,0:0:0:0:
341,166,149295,1,0,0:0:0:0:
470,305,149468,1,0,1:0:0:0:
440,216,149642,1,0,0:0:0:0:
362,378,149815,1,0,1:0:0:0:
393,283,149989,1,0,0:0:0:0:
492,313,150162,6,0,L|492:357,2,31.4999990386963,2|0|0,1:3|0:0|0:0,0:0:0:0:
422,185,150682,1,0,0:0:0:0:
341,212,150856,1,0,1:0:0:0:
512,243,151029,1,0,1:0:0:0:
410,93,151203,2,0,L|410:118,1,24.7500007553101,8|0,0:0|0:0,0:0:0:0:
411,152,151549,5,8,2:3:0:0:
317,141,151723,1,4,2:3:0:0:
485,159,151896,1,8,3:3:0:0:
244,132,152070,1,0,3:0:0:0:
345,236,152243,6,0,B|401:207|417:145|417:145|406:108|343:82|316:142,1,252.000003076172,6|0,1:2|0:0,0:0:0:0:
170,216,152937,1,0,1:0:0:0:
225,142,153110,1,0,1:0:0:0:
264,295,153283,6,0,L|194:305,1,68.9999976837159,8|0,0:0|0:0,0:0:0:0:
78,233,153630,1,0,1:0:0:0:
170,216,153804,1,0,0:0:0:0:
96,336,153977,2,0,L|26:326,1,68.9999976837159,0|0,1:0|0:0,0:0:0:0:
170,216,154324,6,0,L|170:254,2,31.4999990386963,2|0|0,1:3|0:0|0:0,0:0:0:0:
61,144,154844,1,0,1:0:0:0:
226,129,155018,1,8,0:0:0:0:
170,216,155191,1,0,1:0:0:0:
61,144,155364,6,0,P|91:101|141:88,1,103.499996525574,8|0,0:0|0:0,0:0:0:0:
172,86,155711,1,0,3:0:0:0:
237,56,155885,1,0,3:0:0:0:
307,29,156058,2,0,L|321:134,1,103.499996525574,4|0,0:3|0:0,0:0:0:0:
379,177,156405,6,0,L|371:210,3,34.4999988418579,6|0|2|0,1:2|3:0|3:0|3:0,0:0:0:0:
472,212,156752,2,0,L|479:245,3,34.4999988418579,0|0|0|0,3:0|3:0|3:0|3:0,0:0:0:0:
408,294,157099,2,0,L|398:336,1,34.4999988418579,8|0,2:3|3:0,0:0:0:0:
481,364,157272,2,0,L|474:331,1,34.4999988418579,6|0,2:3|3:0,0:0:0:0:
408,294,157445,6,0,L|346:284,3,34.4999988418579,10|0|0|0,0:2|3:0|3:0|3:0,0:0:0:0:
317,370,157792,2,0,L|282:374,3,34.4999988418579,2|0|0|0,1:2|3:0|3:0|3:0,0:0:0:0:
229,259,158139,2,0,L|264:264,3,34.4999988418579,2|0|0|0,1:2|3:0|3:0|3:0,0:0:0:0:
408,294,158486,6,0,P|469:228|442:139,1,168.000002050781,2|0,1:3|0:0,0:0:0:0:
359,63,159006,1,0,1:0:0:0:
336,187,159179,1,8,0:0:0:0:
456,156,159353,1,8,0:0:0:0:
359,63,159526,6,0,L|309:50,1,34.4999988418579,6|0,0:3|0:0,0:0:0:0:
253,126,159700,2,0,L|219:134,1,34.4999988418579,10|0,0:0|0:0,0:0:0:0:
214,36,159873,2,0,L|248:45,1,34.4999988418579,8|0,0:0|0:0,0:0:0:0:
350,166,160046,2,0,L|316:174,1,34.4999988418579,0|0,1:0|1:0,0:0:0:0:
228,247,160220,1,8,2:3:0:0:
134,113,160393,1,4,2:3:0:0:
40,220,160567,6,0,B|96:249|160:214|160:214|228:250|228:250|297:220|360:290,1,336.000004101563,14|0,1:2|0:0,0:0:0:0:
427,356,161434,1,0,1:0:0:0:
487,225,161607,2,0,P|423:162|340:170,1,168.000002050781,8|0,0:0|0:0,0:0:0:0:
228,247,162127,1,0,0:0:0:0:
349,165,162301,2,0,L|301:165,1,47.2499985580445,0|0,1:0|0:0,0:0:0:0:
228,165,162648,6,0,B|281:165|281:165|254:207|198:282|178:130|22:181|2:301,1,395.999998791504,4|0,1:2|0:0,0:0:0:0:
0,382,163515,1,0,1:0:0:0:
125,322,163688,2,0,B|217:321|217:321|287:358|287:358|375:359,1,252.000003076172,8|0,0:0|0:0,0:0:0:0:
479,271,164382,2,0,L|487:224,1,47.2499985580445,4|0,1:2|0:0,0:0:0:0:
499,150,164729,6,0,B|492:193|492:193|439:128|351:153,1,182.999992460633,4|0,1:2|0:0,0:0:0:0:
435,71,165249,1,0,0:0:0:0:
401,246,165422,2,0,P|350:255|304:232,1,103.499996525574,0|0,1:0|0:0,0:0:0:0:
293,210,165769,5,10,0:2:0:0:
293,210,165856,1,2,0:0:0:0:
293,210,165942,1,2,0:0:0:0:
340,67,166116,1,2,1:2:0:0:
367,149,166289,1,0,0:0:0:0:
256,50,166463,1,2,1:2:0:0:
206,122,166636,1,0,0:0:0:0:
293,210,166809,6,0,P|236:235|175:210,1,126.000001538086,2|0,1:3|0:0,0:0:0:0:
161,186,167156,1,0,0:0:0:0:
97,263,167330,1,0,1:0:0:0:
38,120,167503,2,0,L|107:111,1,68.9999976837159,2|0,0:2|0:0,0:0:0:0:
238,128,167850,6,0,L|284:136,3,34.4999988418579,14|2|2|2,0:0|0:0|0:0|0:2,0:0:0:0:
214,53,168197,2,0,L|179:57,1,34.4999988418579,10|2,2:3|3:3,0:0:0:0:
107,111,168371,1,6,2:3:0:0:
214,53,168544,2,0,L|307:42,1,68.9999976837159,10|0,0:2|1:0,0:0:0:0:
435,25,168890,6,0,P|380:50|370:110,1,126.000001538086,4|0,1:2|0:0,0:0:0:0:
448,166,169237,6,0,L|511:148,2,45.9999984558106,2|2|2,1:2|0:2|0:2,0:0:0:0:
365,225,169584,5,2,1:2:0:0:
397,243,169700,5,2,0:2:0:0:
416,274,169815,5,2,0:2:0:0:
404,309,169931,6,0,L|370:299,2,34.4999988418579,10|2|2,0:2|0:2|0:2,0:0:0:0:
512,341,170278,6,0,L|322:371,1,168.000002050781,6|8,1:2|0:0,0:0:0:0:
225,328,170798,1,0,1:0:0:0:
289,202,170971,6,0,L|359:211,1,68.9999976837159,10|0,0:2|0:0,0:0:0:0:
436,282,171275,6,0,L|433:324,2,34.4999988418579,2|2|2,0:2|0:2|0:2,0:0:0:0:
490,222,171578,5,2,0:2:0:0:
495,208,171665,6,0,L|491:162,2,45.9999984558106,2|2|2,1:2|0:2|0:2,0:0:0:0:
436,282,172012,6,0,L|367:289,1,68.9999976837159,10|0,0:2|0:0,0:0:0:0:
262,139,172359,2,0,B|284:173|284:173|290:211,1,68.9999976837159,2|0,0:2|0:0,0:0:0:0:
163,271,172705,2,0,B|167:243|167:243|190:209,1,68.9999976837159,2|0,0:2|0:0,0:0:0:0:
261,302,173052,6,0,P|219:362|145:373,1,153.000000933838,6|0,1:2|0:0,0:0:0:0:
57,266,173572,1,2,1:2:0:0:
190,209,173746,2,0,L|261:217,1,68.9999976837159,2|0,1:2|0:0,0:0:0:0:
422,285,174093,6,0,L|318:254,1,92.2500014076233,10|0,0:2|0:0,0:0:0:0:
258,216,174440,2,0,L|368:230,1,103.499996525574,2|0,1:2|0:0,0:0:0:0:
454,125,174787,2,0,L|314:135,1,114.750000700378,2|0,0:2|0:0,0:0:0:0:
219,50,175133,6,0,B|177:37|153:80|208:126|246:77|304:11|404:62,1,252.000003076172,6|0,1:2|1:0,0:0:0:0:
512,213,175827,1,8,0:0:0:0:
454,125,176000,1,8,0:0:0:0:
382,236,176174,5,6,1:2:0:0:
328,152,176347,1,8,0:0:0:0:
406,231,176520,1,0,1:0:0:0:
277,254,176694,1,8,0:0:0:0:
347,151,176867,5,8,2:3:0:0:
371,150,176954,1,8,2:3:0:0:
395,149,177041,1,4,2:3:0:0:
418,148,177127,1,4,2:3:0:0:
439,148,177214,5,2,0:2:0:0:
340,232,178255,5,2,0:2:0:0:
223,226,179295,5,2,0:2:0:0:
273,78,180336,5,2,0:2:0:0:
340,232,181376,5,2,0:2:0:0:
268,330,182417,5,2,0:2:0:0:
146,322,183457,5,2,0:2:0:0:
205,184,184498,5,2,0:2:0:0:
249,289,185538,5,2,0:2:0:0:
127,355,186579,5,2,0:2:0:0:
20,308,187619,5,2,0:2:0:0:
121,196,188660,5,2,0:2:0:0:
0,218,189700,6,0,L|124:196,1,123.000001876831,2|0,1:2|0:0,0:0:0:0:
172,131,190220,1,2,1:2:0:0:
141,54,190393,2,0,L|63:50,1,61.5000009384155,10|0,0:2|0:0,0:0:0:0:
141,54,190740,6,0,L|270:62,1,123.000001876831,2|2,1:2|1:2,0:0:0:0:
342,19,191260,1,2,0:2:0:0:
440,115,191434,2,0,L|518:110,1,61.5000009384155,10|2,0:2|1:2,0:0:0:0:
440,115,191781,6,0,L|311:123,1,123.000001876831,0|2,1:0|0:2,0:0:0:0:
214,213,192301,2,0,B|205:252|205:252|204:276,1,61.5000009384155,2|2,0:2|0:2,0:0:0:0:
244,353,192648,1,2,1:2:0:0:
321,264,192821,6,0,B|330:303|330:303|330:324,1,61.5000009384155,8|0,0:0|0:0,0:0:0:0:
239,359,193168,2,0,B|198:357|198:357|178:352,2,61.5000009384155,8|8|0,0:0|0:0|1:0,0:0:0:0:
327,256,193688,1,0,1:0:0:0:
439,321,193862,6,0,B|478:345|478:345|412:386|347:358,1,182.999992460633,14|2,1:2|0:2,0:0:0:0:
204,273,194382,1,10,0:2:0:0:
316,165,194555,2,0,L|423:177,1,91.4999962303163,10|0,0:2|0:0,0:0:0:0:
489,118,194902,5,6,0:3:0:0:
379,50,195075,1,10,0:2:0:0:
406,175,195249,1,2,1:2:0:0:
475,26,195422,1,10,0:2:0:0:
282,76,195596,2,0,L|131:120,1,137.249994345474,10|0,0:2|0:0,0:0:0:0:
84,64,195942,5,2,1:2:0:0:
219,169,196116,1,2,0:2:0:0:
78,164,196289,1,2,0:2:0:0:
176,26,196463,1,0,1:0:0:0:
282,76,196636,2,0,L|377:85,1,91.4999962303163,10|0,0:2|0:0,0:0:0:0:
468,178,196983,6,0,L|373:187,1,91.4999962303163,2|2,1:2|0:2,0:0:0:0:
248,203,197330,1,10,0:2:0:0:
248,203,197416,1,8,0:0:0:0:
248,203,197503,1,10,0:2:0:0:
282,76,197677,5,2,1:2:0:0:
376,186,197850,1,8,0:0:0:0:
413,110,198023,5,6,1:2:0:0:
345,252,198197,1,2,0:2:0:0:
489,322,198370,1,2,0:2:0:0:
449,221,198544,1,10,0:2:0:0:
331,335,198717,6,0,L|242:311,1,91.4999962303163,10|2,0:2|0:2,0:0:0:0:
175,224,199064,1,0,1:0:0:0:
70,222,199237,1,8,0:0:0:0:
37,324,199411,2,0,L|127:312,1,91.4999962303163,2|2,1:2|1:2,0:0:0:0:
265,236,199757,2,0,L|174:224,1,91.4999962303163,10|2,0:2|0:2,0:0:0:0:
70,222,200104,5,2,1:2:0:0:
12,138,200278,1,2,0:2:0:0:
58,59,200451,1,2,1:2:0:0:
147,36,200625,1,10,0:2:0:0:
219,91,200798,2,0,L|309:79,1,91.4999962303163,10|0,0:2|0:0,0:0:0:0:
453,6,201145,5,12,0:0:0:0:
426,132,201318,1,0,1:0:0:0:
309,79,201492,1,8,2:3:0:0:
512,82,201665,1,4,2:3:0:0:
403,222,201838,2,0,L|312:236,1,91.4999962303163,8|0,0:0|3:2,0:0:0:0:
164,354,202185,5,6,1:2:0:0:
225,192,202359,1,2,0:2:0:0:
278,345,202532,1,2,0:2:0:0:
127,224,202705,1,10,0:0:0:0:
49,361,202879,6,0,B|26:327|41:294|41:294|24:248|24:248|39:218|27:166,1,182.999992460633,10|2,0:0|0:2,0:0:0:0:
15,78,203399,1,10,0:2:0:0:
108,132,203572,2,0,L|268:149,1,137.249994345474,10|0,0:2|0:0,0:0:0:0:
273,152,203919,1,2,0:2:0:0:
341,84,204093,1,2,1:2:0:0:
491,215,204266,5,2,1:2:0:0:
427,75,204440,1,2,0:2:0:0:
391,154,204613,1,2,0:2:0:0:
512,61,204786,1,10,0:2:0:0:
405,239,204960,2,0,L|250:258,1,137.249994345474,10|0,0:2|0:0,0:0:0:0:
238,260,205307,5,2,0:2:0:0:
273,152,205480,1,2,1:2:0:0:
405,239,205653,1,10,0:2:0:0:
405,239,205740,1,8,0:0:0:0:
405,239,205827,1,10,0:2:0:0:
489,154,206000,2,0,L|488:299,1,137.249994345474,10|0,0:2|0:0,0:0:0:0:
487,322,206347,5,6,1:2:0:0:
387,384,206520,1,2,0:2:0:0:
283,329,206694,1,2,0:2:0:0:
234,222,206867,1,10,0:2:0:0:
279,114,207041,6,0,L|429:114,1,137.249994345474,2|0,1:2|0:0,0:0:0:0:
448,115,207388,1,2,0:2:0:0:
403,9,207561,1,10,0:2:0:0:
287,24,207734,6,0,L|122:23,1,137.249994345474,10|0,0:2|0:0,0:0:0:0:
119,24,208081,1,10,0:2:0:0:
279,114,208255,1,2,1:2:0:0:
171,207,208428,6,0,L|25:200,1,137.249994345474,10|0,0:2|0:0,0:0:0:0:
4,198,208775,1,2,1:2:0:0:
119,24,208948,1,8,0:0:0:0:
149,131,209122,1,10,1:2:0:0:
14,79,209295,1,2,0:2:0:0:
234,48,209468,6,0,L|349:63,1,91.4999962303163,10|0,0:2|0:0,0:0:0:0:
440,148,209815,1,8,2:3:0:0:
425,46,209989,1,4,2:3:0:0:
332,161,210162,2,0,L|241:173,1,91.4999962303163,0|0,1:0|0:0,0:0:0:0:
114,153,210509,6,0,P|164:189|140:288,1,168.000002050781,14|2,1:2|0:2,0:0:0:0:
59,310,211029,1,2,0:2:0:0:
156,371,211203,2,0,L|250:358,1,68.9999976837159,2|0,1:2|0:0,0:0:0:0:
264,264,211549,1,10,1:2:0:0:
400,365,211723,1,2,0:2:0:0:
224,361,211896,1,2,1:2:0:0:
393,243,212070,1,2,0:2:0:0:
246,266,212243,2,0,L|192:264,1,47.2499985580445,2|0,1:2|0:0,0:0:0:0:
112,258,212590,6,0,B|166:262|166:262|122:316|36:311,1,168.000002050781,6|2,1:2|0:2,0:0:0:0:
0,246,213110,1,2,0:2:0:0:
22,157,213283,1,2,1:2:0:0:
102,108,213457,1,2,0:2:0:0:
190,135,213630,2,0,L|269:144,1,68.9999976837159,8|0,0:0|0:0,0:0:0:0:
343,129,213977,1,0,1:0:0:0:
368,40,214151,1,0,1:0:0:0:
280,13,214324,2,0,L|219:20,1,47.2499985580445,2|0,1:2|0:0,0:0:0:0:
152,7,214671,6,0,P|197:31|182:140,1,168.000002050781,6|2,1:2|0:2,0:0:0:0:
101,184,215191,1,2,0:2:0:0:
181,252,215364,2,0,L|251:261,1,68.9999976837159,2|2,1:2|0:2,0:0:0:0:
357,332,215711,2,0,L|289:341,1,68.9999976837159,10|2,0:2|0:2,0:0:0:0:
188,356,216058,1,2,1:2:0:0:
181,252,216231,1,2,0:2:0:0:
268,192,216405,2,0,L|342:203,1,68.9999976837159,2|0,1:2|0:0,0:0:0:0:
484,113,216752,6,0,L|359:126,1,126.000001538086,6|0,1:2|0:0,0:0:0:0:
332,130,217099,1,2,1:2:0:0:
455,228,217272,1,8,0:0:0:0:
493,109,217445,1,2,1:2:0:0:
336,202,217619,1,0,1:0:0:0:
462,235,217792,2,0,L|467:290,1,47.2499985580445,10|0,1:2|0:0,0:0:0:0:
424,365,218139,6,0,L|369:356,3,34.4999988418579,10|0|0|0,1:2|1:0|1:0|1:0,0:0:0:0:
228,245,218486,2,0,L|235:279,1,34.4999988418579,8|8,3:2|0:0,0:0:0:0:
320,282,218659,2,0,L|314:316,1,34.4999988418579,0|0,3:0|3:0,0:0:0:0:
215,365,218833,6,0,B|162:371|128:346|128:346|68:347|24:374,1,182.999992460633,6|2,1:2|0:2,0:0:0:0:
0,273,219353,1,2,0:2:0:0:
78,202,219526,2,0,L|212:210,1,126.000001538086,2|0,1:2|0:0,0:0:0:0:
232,212,219873,1,10,0:2:0:0:
103,111,220046,1,2,0:2:0:0:
280,72,220220,1,2,1:2:0:0:
188,93,220393,1,2,0:2:0:0:
358,56,220567,2,0,L|416:45,1,47.2499985580445,2|0,1:2|0:0,0:0:0:0:
509,26,220914,6,0,P|441:62|440:165,1,168.000002050781,6|2,1:2|0:2,0:0:0:0:
493,226,221434,1,2,0:2:0:0:
512,115,221607,1,2,1:2:0:0:
347,180,221781,1,2,0:2:0:0:
502,228,221954,2,0,L|497:327,1,68.9999976837159,10|0,0:2|0:0,0:0:0:0:
426,376,222301,1,0,1:0:0:0:
317,369,222474,1,0,1:0:0:0:
247,282,222648,2,0,L|247:235,1,47.2499985580445,2|0,1:2|0:0,0:0:0:0:
266,171,222994,6,0,P|206:225|128:203,1,168.000002050781,6|2,1:2|0:2,0:0:0:0:
43,142,223515,1,2,0:2:0:0:
101,54,223688,2,0,L|173:52,1,68.9999976837159,2|0,1:2|0:0,0:0:0:0:
316,73,224035,1,10,0:2:0:0:
169,52,224208,1,2,0:2:0:0:
266,171,224382,1,2,1:2:0:0:
217,110,224555,1,2,0:2:0:0:
315,234,224729,2,0,L|370:248,1,47.2499985580445,2|0,1:2|0:0,0:0:0:0:
456,269,225075,6,0,P|406:271|364:349,1,126.000001538086,6|0,1:2|0:0,0:0:0:0:
368,357,225422,1,2,0:2:0:0:
456,269,225596,1,2,0:2:0:0:
462,365,225769,1,10,0:2:0:0:
326,254,225942,1,2,0:2:0:0:
275,339,226116,1,10,0:2:0:0:
333,242,226289,1,10,1:2:0:0:
365,344,226463,1,10,0:2:0:0:
205,290,226636,1,10,1:2:0:0:
286,165,226809,6,0,L|341:165,2,45.9999984558106,10|4|0,2:3|2:3|0:0,0:0:0:0:
196,194,227156,6,0,L|6:203,1,182.999992460633,6|0,1:2|0:0,0:0:0:0:
177,177,227677,1,0,0:0:0:0:
123,287,227850,2,0,L|55:301,1,68.9999976837159,0|0,1:0|0:0,0:0:0:0:
100,114,228197,1,8,0:0:0:0:
203,200,228370,1,0,0:0:0:0:
10,198,228544,1,0,1:0:0:0:
105,108,228717,1,0,0:0:0:0:
196,194,228890,6,0,L|136:193,2,45.9999984558106,10|4|0,2:3|2:3|0:0,0:0:0:0:
265,259,229237,6,0,L|463:275,1,168.000002050781,6|2,1:2|0:2,0:0:0:0:
285,281,229757,1,0,0:0:0:0:
354,165,229931,2,0,L|448:155,1,68.9999976837159,2|0,1:2|1:0,0:0:0:0:
288,83,230278,6,0,L|194:73,1,68.9999976837159,10|0,0:2|0:0,0:0:0:0:
105,108,230625,1,10,0:2:0:0:
144,24,230798,1,8,0:0:0:0:
184,156,230971,2,0,L|186:210,1,47.2499985580445,2|0,1:2|0:0,0:0:0:0:
152,300,231318,6,0,P|220:233|368:295,1,252.000003076172,6|0,1:2|1:0,0:0:0:0:
375,368,232012,1,0,1:0:0:0:
261,338,232185,1,0,1:0:0:0:
424,235,232359,6,0,L|496:244,1,68.9999976837159,8|0,0:0|0:0,0:0:0:0:
373,144,232705,2,0,L|300:154,1,68.9999976837159,0|0,1:0|0:0,0:0:0:0:
427,60,233052,2,0,L|500:70,1,68.9999976837159,0|0,1:0|0:0,0:0:0:0:
339,8,233399,6,0,L|153:31,1,168.000002050781,0|0,1:2|0:0,0:0:0:0:
29,161,233919,2,0,B|18:126|18:126|20:92,1,68.9999976837159,0|0,1:0|0:0,0:0:0:0:
71,0,234266,1,0,1:0:0:0:
148,141,234440,6,0,B|149:173|149:173|138:208,1,68.9999976837159,8|0,0:0|0:0,0:0:0:0:
85,354,234786,1,2,1:2:0:0:
50,260,234960,1,0,1:2:0:0:
174,302,235133,2,0,L|240:302,1,61.5000009384155,0|0,1:3|0:0,0:0:0:0:
383,305,235480,6,0,L|346:304,1,33.0000010070801,0|0,1:2|0:0,0:0:0:0:
236,302,236000,1,0,0:0:0:0:
274,220,236174,1,0,1:0:0:0:
353,175,236347,1,0,1:0:0:0:
446,176,236520,6,0,L|515:185,1,61.5000009384155,8|0,0:0|0:0,0:0:0:0:
484,91,236867,1,0,1:0:0:0:
416,30,237041,1,0,0:0:0:0:
325,43,237214,2,0,L|256:52,1,61.5000009384155,0|0,1:0|0:0,0:0:0:0:
121,77,237561,6,0,L|155:70,1,33.0000010070801,0|0,1:2|0:0,0:0:0:0:
264,50,238081,1,0,1:0:0:0:
235,187,238255,2,0,L|167:175,1,61.5000009384155,8|0,0:0|0:0,0:0:0:0:
58,181,238601,5,4,1:3:0:0:
121,77,238775,1,0,3:0:0:0:
145,254,238948,1,8,0:0:0:0:
52,176,239122,1,8,2:3:0:0:
235,187,239295,1,12,2:3:0:0:
139,260,239468,1,4,2:3:0:0:
314,130,239642,6,0,L|370:132,1,49.5000015106202,2|0,1:2|0:0,0:0:0:0:
438,161,240336,1,8,0:0:0:0:
376,210,240509,1,0,1:0:0:0:
314,263,240683,1,0,1:0:0:0:
242,196,240856,1,0,0:0:0:0:
314,263,241029,2,0,L|317:301,1,31.4999990386963,2|0,0:2|0:0,0:0:0:0:
380,357,241376,2,0,L|382:337,1,16.5000005035401,8|0,0:2|1:0,0:0:0:0:
493,215,241723,6,0,L|499:278,1,62.9999980773926,2|0,1:2|0:0,0:0:0:0:
485,378,242243,1,0,1:0:0:0:
485,378,242590,1,0,1:0:0:0:
381,340,242763,2,0,L|350:346,1,31.4999990386963,8|0,0:0|0:0,0:0:0:0:
422,270,243110,1,8,0:0:0:0:
314,263,243283,2,0,L|284:257,1,31.4999990386963,8|0,0:0|0:0,0:0:0:0:
209,199,243630,1,0,0:0:0:0:
294,119,243804,6,0,B|366:134,1,62.9999980773926,2|0,1:2|0:0,0:0:0:0:
494,78,244324,1,0,1:0:0:0:
457,178,244497,1,8,0:0:0:0:
356,132,244671,1,0,1:0:0:0:
457,178,244844,2,0,L|464:209,1,31.4999990386963,0|0,1:0|0:0,0:0:0:0:
359,264,245191,2,0,L|365:233,1,31.4999990386963,2|0,0:2|0:0,0:0:0:0:
431,103,245538,2,0,L|450:99,1,16.5000005035401,8|0,0:0|1:0,0:0:0:0:
334,39,245885,6,0,L|271:29,1,62.9999980773926,2|0,1:2|0:0,0:0:0:0:
186,40,246405,1,0,1:0:0:0:
186,40,246751,1,0,1:0:0:0:
74,163,246925,2,0,L|80:132,1,31.4999990386963,8|0,0:0|0:0,0:0:0:0:
78,30,247272,1,8,0:0:0:0:
185,173,247445,2,0,L|178:142,1,31.4999990386963,8|0,0:0|1:0,0:0:0:0:
186,40,247792,1,0,1:0:0:0:
74,163,247966,6,0,L|64:226,1,62.9999980773926,2|0,1:2|0:0,0:0:0:0:
11,300,248485,1,0,1:0:0:0:
177,257,248659,1,8,0:0:0:0:
222,336,248832,1,0,1:0:0:0:
177,257,249006,2,0,L|134:262,1,31.4999990386963,0|0,1:0|0:0,0:0:0:0:
220,176,249352,1,2,0:2:0:0:
309,177,249526,1,0,0:0:0:0:
380,228,249700,2,0,L|402:230,1,16.5000005035401,8|0,0:0|1:0,0:0:0:0:
508,316,250046,6,0,L|437:324,1,62.9999980773926,2|0,1:2|0:0,0:0:0:0:
340,373,250566,1,0,1:0:0:0:
340,373,250913,1,0,1:0:0:0:
380,228,251087,2,0,L|376:259,1,31.4999990386963,8|0,0:0|0:0,0:0:0:0:
340,373,251433,1,8,0:0:0:0:
268,260,251607,2,0,L|272:292,1,31.4999990386963,8|0,0:0|1:0,0:0:0:0:
340,373,251954,1,0,1:0:0:0:
384,196,252127,6,0,L|375:259,1,62.9999980773926,2|0,1:2|0:0,0:0:0:0:
340,373,252647,1,0,1:0:0:0:
268,260,252821,1,8,0:0:0:0:
174,321,252994,1,0,1:0:0:0:
154,207,253168,2,0,L|186:212,1,31.4999990386963,0|0,1:0|0:0,0:0:0:0:
267,166,253515,1,2,0:2:0:0:
276,254,253688,1,0,0:0:0:0:
186,212,253862,2,0,L|165:210,1,16.5000005035401,8|0,0:0|1:0,0:0:0:0:
48,131,254208,6,0,L|114:118,1,62.9999980773926,2|0,1:2|0:0,0:0:0:0:
204,22,254729,1,0,1:0:0:0:
204,22,255075,1,0,1:0:0:0:
261,135,255249,2,0,L|269:179,1,31.4999990386963,8|0,0:0|1:0,0:0:0:0:
194,34,255595,1,8,0:0:0:0:
109,118,255769,2,0,L|102:154,1,31.4999990386963,8|0,0:0|1:0,0:0:0:0:
106,259,256116,1,0,1:0:0:0:
106,259,256289,5,0,1:3:0:0:
106,259,256809,1,0,1:0:0:0:
102,148,256983,1,8,0:0:0:0:
197,183,257156,1,0,1:0:0:0:
218,280,257330,2,0,L|226:321,1,31.4999990386963,0|0,1:0|0:0,0:0:0:0:
273,372,257676,5,2,0:2:0:0:
273,372,258023,1,8,0:0:0:0:
328,245,258197,1,0,1:0:0:0:
403,334,258370,6,0,L|474:343,1,62.9999980773926,2|0,1:2|0:0,0:0:0:0:
512,278,258890,1,0,1:3:0:0:
512,278,259237,1,0,1:0:0:0:
401,180,259411,2,0,L|395:147,1,31.4999990386963,8|0,0:0|0:0,0:0:0:0:
422,264,259757,1,8,0:0:0:0:
506,170,259931,2,0,L|512:140,1,31.4999990386963,8|0,0:0|1:0,0:0:0:0:
491,66,260278,5,0,1:3:0:0:
