osu file format v14

[General]
AudioFilename: audio.mp3
AudioLeadIn: 0
PreviewTime: 93014
Countdown: 0
SampleSet: Soft
StackLeniency: 0.5
Mode: 0
LetterboxInBreaks: 0
WidescreenStoryboard: 1

[Editor]
Bookmarks: 19228,35875,52523,73332,94141,110789,127436,144083,160731,171424,171540,171742,171829,172176,172291,172407,173216,177378,194026,210673,212667,214488,215875,217176,218736,218910,219083,220384,222812,223158,224286,225413,227060,227147,227320,227494,229488,229575,229921,230095,231309,231482,232869,233476,234604,234777,235644,236251,237291,237378,237638,238332,239459,239632,239806,254372,260442
DistanceSpacing: 1
BeatDivisor: 4
GridSize: 32
TimelineZoom: 2.699999

[Metadata]
Title:len
TitleUnicode:len~錬~
Artist:Chata
ArtistUnicode:茶太
Creator:Cami
Version:xiqingwa's Lunatic
Source:東方紺珠伝 ~ Legacy of Lunatic Kingdom.
Tags:xiqingwa Forge 東方事変 Touhou Jihen Toho Project 東方Project N+ NSY shuriken 宇宙を飛ぶ不思議な巫女 Sora o Tobu Fushigi na Miko The Mysterious Shrine Maiden Flying Through Space Doremy Sweet
BeatmapID:1810519
BeatmapSetID:857816

[Difficulty]
HPDrainRate:5
CircleSize:4
OverallDifficulty:7
ApproachRate:8
SliderMultiplier:1
SliderTickRate:1

[Events]
//Background and Video events
0,0,"doremyy love. so. sweet.jpg",0,0
//Break Periods
2,88965,93044
//Storyboard Layer 0 (Background)
//Storyboard Layer 1 (Fail)
//Storyboard Layer 2 (Pass)
//Storyboard Layer 3 (Foreground)
//Storyboard Sound Samples

[TimingPoints]
500,346.820809248555,6,2,1,50,1,0
500,-133.333333333333,4,2,1,50,0,0
19141,-133.333333333333,4,2,1,5,0,0
19228,-83.3333333333333,4,2,1,75,0,0
19575,-100,4,2,1,75,0,0
20268,-83.3333333333333,4,2,2,75,0,0
20355,-83.3333333333333,4,2,1,75,0,0
20442,-83.3333333333333,4,2,1,75,0,0
21222,-83.3333333333333,4,2,1,5,0,0
21309,-83.3333333333333,4,2,1,75,0,0
22349,-83.3333333333333,4,2,2,75,0,0
22436,-83.3333333333333,4,2,1,75,0,0
22523,-83.3333333333333,4,2,1,75,0,0
23303,-83.3333333333333,4,2,1,5,0,0
23390,-83.3333333333333,4,2,1,75,0,0
23736,-83.3333333333333,4,2,1,75,0,0
24430,-83.3333333333333,4,2,2,75,0,0
24517,-83.3333333333333,4,2,1,75,0,0
24604,-83.3333333333333,4,2,1,75,0,0
25384,-83.3333333333333,4,2,1,5,0,0
25471,-83.3333333333333,4,2,1,75,0,0
26511,-83.3333333333333,4,2,2,75,0,0
26684,-83.3333333333333,4,2,2,75,0,0
26771,-83.3333333333333,4,2,2,5,0,0
26858,-83.3333333333333,4,2,2,75,0,0
26945,-83.3333333333333,4,2,1,75,0,0
27552,-83.3333333333333,4,2,1,75,0,0
28245,-100,4,2,1,75,0,0
28592,-83.3333333333333,4,2,2,75,0,0
28679,-83.3333333333333,4,2,1,75,0,0
28765,-83.3333333333333,4,2,1,75,0,0
29632,-83.3333333333333,4,2,1,75,0,0
30153,-83.3333333333333,4,2,1,75,0,0
30673,-83.3333333333333,4,2,2,75,0,0
30760,-83.3333333333333,4,2,1,75,0,0
30846,-83.3333333333333,4,2,1,75,0,0
31713,-83.3333333333333,4,2,1,75,0,0
32754,-83.3333333333333,4,2,2,75,0,0
32841,-83.3333333333333,4,2,1,75,0,0
32927,-83.3333333333333,4,2,1,75,0,0
33447,-83.3333333333333,4,2,1,75,0,0
33708,-83.3333333333333,4,2,1,5,0,0
33794,-83.3333333333333,4,2,1,75,0,0
34488,-83.3333333333333,4,2,2,75,0,0
34661,-83.3333333333333,4,2,1,75,0,0
34835,-83.3333333333333,4,2,1,75,0,0
35008,-83.3333333333333,4,2,2,75,0,0
35355,-83.3333333333333,4,2,1,75,0,0
35528,-83.3333333333333,4,2,1,70,0,0
35875,-83.3333333333333,4,2,1,50,0,0
36569,-133.333333333333,4,2,1,50,0,0
40037,-133.333333333333,4,2,1,50,0,0
40384,-133.333333333333,4,2,1,50,0,0
44199,-133.333333333333,4,2,1,50,0,0
44546,-133.333333333333,4,2,1,50,0,0
48361,-133.333333333333,4,2,1,50,0,0
48708,-133.333333333333,4,2,1,50,0,0
51482,-133.333333333333,4,2,1,50,0,0
52176,-133.333333333333,4,2,1,50,0,0
52523,-100,4,2,1,50,0,0
53043,-133.333333333333,4,2,1,50,0,0
54604,-133.333333333333,4,2,1,50,0,0
54950,-133.333333333333,4,2,1,50,0,0
56684,-133.333333333333,4,2,1,50,0,0
57031,-133.333333333333,4,2,1,50,0,0
58765,-133.333333333333,4,2,1,50,0,0
59112,-133.333333333333,4,2,1,50,0,0
60846,-133.333333333333,4,2,1,50,0,0
61193,-133.333333333333,4,2,1,50,0,0
62927,-133.333333333333,4,2,1,50,0,0
63274,-133.333333333333,4,2,1,50,0,0
65008,-133.333333333333,4,2,1,50,0,0
65355,-133.333333333333,4,2,1,50,0,0
67089,-133.333333333333,4,2,1,50,0,0
67783,-133.333333333333,4,2,1,50,0,0
69170,-133.333333333333,4,2,1,50,0,0
72985,-133.333333333333,4,2,1,50,0,0
73332,-100,4,2,1,50,0,0
73679,-100,4,2,1,50,0,0
74372,-100,4,2,1,50,0,0
74719,-100,4,2,1,50,0,0
75413,-100,4,2,1,50,0,0
75760,-100,4,2,1,50,0,0
76453,-100,4,2,1,50,0,0
76713,-100,4,2,1,5,0,0
76800,-100,4,2,1,50,0,0
77060,-100,4,2,1,5,0,0
77147,-100,4,2,1,50,0,0
77407,-100,4,2,1,5,0,0
77494,-100,4,2,1,50,0,0
77841,-100,4,2,1,50,0,0
78534,-100,4,2,1,50,0,0
78881,-100,4,2,1,50,0,0
79575,-100,4,2,1,50,0,0
79921,-100,4,2,1,50,0,0
80615,-100,4,2,1,50,0,0
80875,-100,4,2,1,5,0,0
80962,-100,4,2,1,50,0,0
81222,-100,4,2,1,5,0,0
81309,-100,4,2,1,50,0,0
81656,-100,4,2,1,65,0,0
81829,-100,4,2,1,50,0,0
81916,-100,4,2,1,5,0,0
82002,-100,4,2,1,50,0,0
82696,-100,4,2,1,50,0,0
83043,-100,4,2,1,50,0,0
83390,-100,4,2,1,50,0,0
83736,-100,4,2,1,50,0,0
84083,-100,4,2,1,50,0,0
84777,-100,4,2,1,50,0,0
85037,-100,4,2,1,5,0,0
85124,-100,4,2,1,50,0,0
85384,-100,4,2,1,5,0,0
85471,-100,4,2,1,50,0,0
85817,-100,4,2,1,65,0,0
85991,-100,4,2,1,50,0,0
86078,-100,4,2,1,5,0,0
86164,-100,4,2,1,50,0,0
86858,-100,4,2,1,50,0,0
87205,-100,4,2,1,50,0,0
87552,-100,4,2,1,50,0,0
87898,-100,4,2,1,50,0,0
88158,-100,4,2,1,5,0,0
88245,-100,4,2,1,50,0,0
88505,-100,4,2,1,5,0,0
88592,-100,4,2,1,50,0,0
88765,-100,4,2,1,50,0,0
88939,-100,4,2,1,5,0,0
89112,-100,4,2,1,40,0,0
89286,-100,4,2,1,5,0,0
89459,-100,4,2,1,30,0,0
89632,-100,4,2,1,5,0,0
89806,-100,4,2,1,20,0,0
89979,-100,4,2,1,5,0,0
90153,-100,4,2,1,47,0,0
90326,-100,4,2,1,45,0,0
90500,-100,4,2,1,42,0,0
90673,-100,4,2,1,40,0,0
90846,-100,4,2,1,37,0,0
91020,-100,4,2,1,35,0,0
91193,-100,4,2,1,32,0,0
91367,-100,4,2,1,30,0,0
91540,-100,4,2,1,27,0,0
91713,-100,4,2,1,25,0,0
91887,-100,4,2,1,22,0,0
92060,-100,4,2,1,20,0,0
92234,-100,4,2,1,17,0,0
92407,-100,4,2,1,15,0,0
92580,-100,4,2,1,10,0,0
92754,-100,4,2,1,5,0,0
93794,-133.333333333333,4,2,1,25,0,0
94054,-133.333333333333,4,2,1,5,0,0
94141,-83.3333333333333,4,2,1,75,0,0
94488,-100,4,2,1,75,0,0
95182,-83.3333333333333,4,2,2,75,0,0
95268,-83.3333333333333,4,2,1,75,0,0
96135,-83.3333333333333,4,2,1,5,0,0
96222,-83.3333333333333,4,2,1,75,0,0
97263,-83.3333333333333,4,2,2,75,0,0
97349,-83.3333333333333,4,2,1,75,0,0
98216,-83.3333333333333,4,2,1,5,0,0
98303,-83.3333333333333,4,2,1,75,0,0
98650,-83.3333333333333,4,2,1,75,0,0
99343,-83.3333333333333,4,2,2,75,0,0
99430,-83.3333333333333,4,2,1,75,0,0
100297,-83.3333333333333,4,2,1,5,0,0
100384,-83.3333333333333,4,2,1,75,0,0
101424,-83.3333333333333,4,2,2,75,0,0
101684,-83.3333333333333,4,2,1,5,0,0
101771,-83.3333333333333,4,2,1,75,0,0
102465,-83.3333333333333,4,2,1,75,0,0
102812,-100,4,2,1,75,0,0
103505,-83.3333333333333,4,2,2,75,0,0
103679,-83.3333333333333,4,2,1,75,0,0
105586,-83.3333333333333,4,2,2,75,0,0
105760,-83.3333333333333,4,2,1,75,0,0
106280,-100,4,2,1,75,0,0
106540,-83.3333333333333,4,2,1,5,0,0
106627,-83.3333333333333,4,2,1,75,0,0
106973,-83.3333333333333,4,2,1,75,0,0
107667,-83.3333333333333,4,2,2,75,0,0
107841,-83.3333333333333,4,2,1,75,0,0
108621,-83.3333333333333,4,2,1,5,0,0
108708,-83.3333333333333,4,2,1,75,0,0
109401,-83.3333333333333,4,2,2,75,0,0
109575,-83.3333333333333,4,2,1,75,0,0
109748,-83.3333333333333,4,2,2,75,0,0
110268,-83.3333333333333,4,2,1,75,0,0
110789,-83.3333333333333,4,2,1,70,0,0
111135,-83.3333333333333,4,2,1,60,0,0
111482,-100,4,2,1,70,0,0
111829,-100,4,2,2,60,0,0
111916,-100,4,2,1,60,0,0
113910,-100,4,2,2,60,0,0
114083,-100,4,2,1,60,0,0
114864,-100,4,2,1,5,0,0
114950,-100,4,2,1,60,0,0
115991,-100,4,2,2,60,0,0
116164,-100,4,2,1,60,0,0
118072,-100,4,2,2,60,0,0
118245,-100,4,2,1,60,0,0
119026,-100,4,2,1,5,0,0
119112,-100,4,2,1,70,0,0
119459,-100,4,2,1,60,0,0
120153,-100,4,2,2,60,0,0
120326,-100,4,2,1,60,0,0
122234,-100,4,2,2,60,0,0
122407,-100,4,2,1,60,0,0
123187,-100,4,2,1,5,0,0
123274,-100,4,2,1,60,0,0
124315,-100,4,2,2,60,0,0
124488,-100,4,2,1,60,0,0
125875,-100,4,2,2,60,0,0
126049,-100,4,2,1,60,0,0
126395,-100,4,2,2,60,0,0
126742,-100,4,2,1,60,0,0
126916,-100,4,2,2,60,0,0
127089,-100,4,2,1,60,0,0
127436,-100,4,2,1,70,0,0
127783,-100,4,2,1,60,0,0
128476,-100,4,2,2,60,0,0
128650,-100,4,2,1,60,0,0
130557,-100,4,2,2,60,0,0
130731,-100,4,2,1,60,0,0
131511,-100,4,2,1,5,0,0
131598,-100,4,2,1,60,0,0
132638,-100,4,2,2,60,0,0
132812,-100,4,2,1,60,0,0
134719,-100,4,2,2,60,0,0
134893,-100,4,2,1,60,0,0
135673,-100,4,2,1,5,0,0
135760,-100,4,2,1,70,0,0
136106,-100,4,2,1,60,0,0
136800,-100,4,2,2,60,0,0
136973,-100,4,2,1,60,0,0
138881,-100,4,2,2,60,0,0
139054,-100,4,2,1,60,0,0
139835,-100,4,2,1,5,0,0
139921,-100,4,2,1,60,0,0
140962,-100,4,2,2,60,0,0
141135,-100,4,2,1,60,0,0
142523,-100,4,2,2,60,0,0
142696,-100,4,2,1,60,0,0
143043,-100,4,2,2,60,0,0
143390,-100,4,2,1,60,0,0
143563,-100,4,2,2,60,0,0
143736,-100,4,2,1,60,0,0
143997,-100,4,2,1,5,0,0
144083,-83.3333333333333,4,2,1,70,0,0
144430,-83.3333333333333,4,2,1,60,0,0
145124,-83.3333333333333,4,2,2,60,0,0
145384,-83.3333333333333,4,2,1,5,0,0
145471,-83.3333333333333,4,2,1,60,0,0
147205,-83.3333333333333,4,2,2,60,0,0
147378,-83.3333333333333,4,2,1,60,0,0
148158,-83.3333333333333,4,2,1,5,0,0
148245,-83.3333333333333,4,2,1,70,0,0
148592,-83.3333333333333,4,2,1,60,0,0
149286,-83.3333333333333,4,2,2,60,0,0
149459,-83.3333333333333,4,2,1,60,0,0
151367,-83.3333333333333,4,2,2,70,0,0
151627,-83.3333333333333,4,2,1,5,0,0
151713,-83.3333333333333,4,2,1,60,0,0
152407,-83.3333333333333,4,2,1,70,0,0
152754,-100,4,2,1,60,0,0
153447,-83.3333333333333,4,2,2,60,0,0
153621,-83.3333333333333,4,2,1,60,0,0
155442,-83.3333333333333,4,2,2,60,0,0
155702,-83.3333333333333,4,2,1,60,0,0
156569,-83.3333333333333,4,2,1,70,0,0
156656,-100,4,2,1,60,0,0
157609,-83.3333333333333,4,2,2,60,0,0
157696,-83.3333333333333,4,2,1,60,0,0
158910,-83.3333333333333,4,2,1,5,0,0
158997,-83.3333333333333,4,2,1,70,0,0
159257,-83.3333333333333,4,2,1,5,0,0
159343,-83.3333333333333,4,2,2,60,0,0
159690,-83.3333333333333,4,2,1,70,0,0
159777,-100,4,2,1,60,0,0
160037,-83.3333333333333,4,2,2,60,0,0
160124,-83.3333333333333,4,2,1,60,0,0
160731,-83.3333333333333,4,2,1,70,0,0
161338,-83.3333333333333,4,2,1,5,0,0
161424,-83.3333333333333,4,2,1,60,0,0
161598,-100,4,2,1,60,0,0
161771,-83.3333333333333,4,2,2,60,0,0
161858,-83.3333333333333,4,2,1,60,0,0
162725,-83.3333333333333,4,2,1,5,0,0
162812,-83.3333333333333,4,2,1,60,0,0
163592,-83.3333333333333,4,2,1,5,0,0
163679,-83.3333333333333,4,2,1,60,0,0
163852,-83.3333333333333,4,2,2,60,0,0
163939,-83.3333333333333,4,2,1,60,0,0
164546,-83.3333333333333,4,2,1,70,0,0
164806,-83.3333333333333,4,2,1,5,0,0
164893,-83.3333333333333,4,2,1,70,0,0
165153,-83.3333333333333,4,2,1,5,0,0
165239,-83.3333333333333,4,2,1,60,0,0
165933,-83.3333333333333,4,2,2,60,0,0
166020,-83.3333333333333,4,2,1,60,0,0
167234,-83.3333333333333,4,2,1,5,0,0
167320,-83.3333333333333,4,2,1,70,0,0
168014,-83.3333333333333,4,2,2,70,0,0
168101,-83.3333333333333,4,2,1,60,0,0
169054,-83.3333333333333,4,2,1,70,0,0
169141,-100,4,2,1,60,0,0
170095,-83.3333333333333,4,2,2,60,0,0
170182,-83.3333333333333,4,2,1,60,0,0
172176,-83.3333333333333,4,2,2,60,0,0
172263,-83.3333333333333,4,2,1,60,0,0
172869,-83.3333333333333,4,2,1,60,0,0
173130,-83.3333333333333,4,2,1,5,0,0
173216,-83.3333333333333,4,2,1,60,0,0
173563,-83.3333333333333,4,2,1,60,0,0
174257,-83.3333333333333,4,2,2,60,0,0
174343,-83.3333333333333,4,2,1,60,0,0
175991,-83.3333333333333,4,2,2,60,0,0
176684,-83.3333333333333,4,2,1,60,0,0
177378,-200,4,2,1,50,0,0
178245,-200,4,2,1,5,0,0
178419,-200,4,2,1,50,0,0
179286,-200,4,2,1,5,0,0
179459,-200,4,2,1,50,0,0
180326,-200,4,2,1,5,0,0
180500,-200,4,2,1,50,0,0
181367,-200,4,2,1,5,0,0
181540,-200,4,2,1,50,0,0
182407,-200,4,2,1,5,0,0
182580,-200,4,2,1,50,0,0
183447,-200,4,2,1,5,0,0
183621,-200,4,2,1,50,0,0
184488,-200,4,2,1,5,0,0
184661,-200,4,2,1,50,0,0
185528,-200,4,2,1,5,0,0
185702,-200,4,2,1,50,0,0
186569,-200,4,2,1,5,0,0
186742,-200,4,2,1,50,0,0
187609,-200,4,2,1,5,0,0
187783,-200,4,2,1,50,0,0
188650,-200,4,2,1,5,0,0
188823,-200,4,2,1,50,0,0
189690,-200,4,2,1,5,0,0
189864,-200,4,2,1,50,0,0
192985,-133.333333333333,4,2,1,50,0,0
193332,-133.333333333333,4,2,1,50,0,0
193679,-100,4,2,1,50,0,0
193852,-100,4,2,1,50,0,0
194026,-71.4285714285714,4,2,1,85,0,1
194546,-71.4285714285714,4,2,2,85,0,1
194719,-71.4285714285714,4,2,1,85,0,1
195239,-71.4285714285714,4,2,2,85,0,1
195413,-71.4285714285714,4,2,1,85,0,1
195760,-71.4285714285714,4,2,2,85,0,1
196020,-71.4285714285714,4,2,1,5,0,1
196106,-71.4285714285714,4,2,1,85,0,1
196627,-71.4285714285714,4,2,2,85,0,1
196800,-71.4285714285714,4,2,1,85,0,1
197147,-71.4285714285714,4,2,2,85,0,1
197320,-71.4285714285714,4,2,1,85,0,1
197494,-71.4285714285714,4,2,2,85,0,1
197667,-71.4285714285714,4,2,1,85,0,1
198187,-71.4285714285714,4,2,1,85,0,1
198534,-71.4285714285714,4,2,1,85,0,1
198708,-71.4285714285714,4,2,2,85,0,1
198881,-71.4285714285714,4,2,1,85,0,1
199401,-71.4285714285714,4,2,2,85,0,1
199575,-71.4285714285714,4,2,1,85,0,1
199921,-71.4285714285714,4,2,2,85,0,1
200095,-71.4285714285714,4,2,1,85,0,1
200789,-71.4285714285714,4,2,2,85,0,1
200962,-71.4285714285714,4,2,1,85,0,1
201309,-100,4,2,1,85,0,1
202002,-71.4285714285714,4,2,2,85,0,1
202349,-71.4285714285714,4,2,1,85,0,1
202696,-71.4285714285714,4,2,1,85,0,1
202869,-71.4285714285714,4,2,2,85,0,1
203043,-71.4285714285714,4,2,1,85,0,1
203563,-71.4285714285714,4,2,2,85,0,1
203736,-71.4285714285714,4,2,1,85,0,1
204083,-71.4285714285714,4,2,2,85,0,1
204343,-71.4285714285714,4,2,1,5,0,1
204430,-71.4285714285714,4,2,1,85,0,1
204950,-71.4285714285714,4,2,2,85,0,1
205124,-71.4285714285714,4,2,1,85,0,1
205471,-71.4285714285714,4,2,2,85,0,1
205644,-71.4285714285714,4,2,1,85,0,1
205817,-71.4285714285714,4,2,2,85,0,1
205991,-71.4285714285714,4,2,1,85,0,1
206511,-71.4285714285714,4,2,1,85,0,1
206858,-71.4285714285714,4,2,1,85,0,1
207031,-71.4285714285714,4,2,2,85,0,1
207205,-71.4285714285714,4,2,1,85,0,1
207725,-71.4285714285714,4,2,2,85,0,1
207898,-71.4285714285714,4,2,1,85,0,1
208245,-71.4285714285714,4,2,2,85,0,1
208592,-71.4285714285714,4,2,1,85,0,1
208852,-71.4285714285714,4,2,1,5,0,1
208939,-71.4285714285714,4,2,1,85,0,1
209112,-71.4285714285714,4,2,2,85,0,1
209286,-71.4285714285714,4,2,1,85,0,1
209632,-71.4285714285714,4,2,1,85,0,1
209893,-71.4285714285714,4,2,1,5,0,1
209979,-71.4285714285714,4,2,2,85,0,1
210153,-71.4285714285714,4,2,1,85,0,1
210326,-71.4285714285714,4,2,2,85,0,1
210500,-71.4285714285714,4,2,1,85,0,1
210673,-71.4285714285714,4,2,1,75,0,1
211020,-100,4,2,1,75,0,1
211713,-71.4285714285714,4,2,2,75,0,0
211887,-71.4285714285714,4,2,1,75,0,0
212667,-71.4285714285714,4,2,1,5,0,0
212754,-71.4285714285714,4,2,1,75,0,0
213794,-71.4285714285714,4,2,2,75,0,0
213968,-71.4285714285714,4,2,1,75,0,0
214488,-100,4,2,1,75,0,0
214748,-71.4285714285714,4,2,1,5,0,0
214835,-71.4285714285714,4,2,1,95,0,0
215095,-71.4285714285714,4,2,1,5,0,0
215182,-71.4285714285714,4,2,1,75,0,0
215875,-71.4285714285714,4,2,2,75,0,0
216049,-71.4285714285714,4,2,1,75,0,0
216829,-71.4285714285714,4,2,1,5,0,0
216916,-71.4285714285714,4,2,1,75,0,0
217436,-71.4285714285714,4,2,2,75,0,0
217609,-71.4285714285714,4,2,1,75,0,0
217956,-71.4285714285714,4,2,2,75,0,0
218216,-71.4285714285714,4,2,2,5,0,0
218303,-71.4285714285714,4,2,1,75,0,0
218997,-71.4285714285714,4,2,1,75,0,0
219343,-71.4285714285714,4,2,1,75,0,0
220037,-71.4285714285714,4,2,2,75,0,0
220124,-71.4285714285714,4,2,1,75,0,0
222118,-71.4285714285714,4,2,2,75,0,0
222291,-71.4285714285714,4,2,1,75,0,0
223072,-71.4285714285714,4,2,1,5,0,0
223158,-71.4285714285714,4,2,1,75,0,0
223505,-71.4285714285714,4,2,1,75,0,0
224199,-71.4285714285714,4,2,2,75,0,0
224372,-71.4285714285714,4,2,1,75,0,0
225933,-71.4285714285714,4,2,2,75,0,0
226106,-71.4285714285714,4,2,2,75,0,0
226280,-71.4285714285714,4,2,2,75,0,0
226453,-71.4285714285714,4,2,1,75,0,0
226627,-71.4285714285714,4,2,2,85,0,0
226800,-71.4285714285714,4,2,1,85,0,0
227320,-71.4285714285714,4,2,1,95,0,0
227580,-71.4285714285714,4,2,1,5,0,0
227667,-71.4285714285714,4,2,1,95,0,0
228361,-71.4285714285714,4,2,2,80,0,0
228534,-71.4285714285714,4,2,1,80,0,0
230442,-62.5,4,2,2,80,0,0
230615,-62.5,4,2,1,80,0,0
230789,-62.5,4,2,2,80,0,0
231135,-62.5,4,2,1,80,0,0
231395,-62.5,4,2,1,5,0,0
231482,-83.3333333333333,4,2,1,75,0,0
231829,-100,4,2,1,75,0,0
232523,-83.3333333333333,4,2,2,75,0,0
232696,-83.3333333333333,4,2,1,75,0,0
233476,-83.3333333333333,4,2,1,5,0,0
233563,-83.3333333333333,4,2,1,75,0,0
234604,-83.3333333333333,4,2,2,75,0,0
234777,-83.3333333333333,4,2,1,75,0,0
235297,-83.3333333333333,4,2,2,75,0,0
235557,-83.3333333333333,4,2,1,5,0,0
235644,-100,4,2,1,60,0,0
236684,-100,4,2,2,60,0,0
236858,-100,4,2,1,60,0,0
237638,-100,4,2,1,5,0,0
237725,-100,4,2,1,60,0,0
238419,-100,4,2,2,60,0,0
238592,-100,4,2,1,60,0,0
238939,-100,4,2,2,60,0,0
239286,-100,4,2,1,60,0,0
239806,-133.333333333333,4,2,1,50,0,0

[Colours]
Combo1 : 185,26,146
Combo2 : 97,97,97
Combo3 : 193,0,0
Combo4 : 125,125,125
Combo5 : 0,120,179
Combo6 : 167,167,167
SliderTrackOverride : 0,78,115

[HitObjects]
374,126,500,6,0,P|377:169|370:204,1,75.000002861023,2|0,1:2|0:0,0:0:0:0:
312,267,1020,1,0,1:0:0:0:
312,267,1193,2,0,L|270:268,1,37.5000014305115,10|0,0:0|0:0,0:0:0:0:
158,272,1540,2,0,L|195:271,2,37.5000014305115,2|0|2,1:2|0:0|0:2,0:0:0:0:
75,273,2060,1,0,0:0:0:0:
123,187,2234,2,0,L|160:187,1,37.5000014305115,10|0,0:0|0:0,0:0:0:0:
271,122,2580,6,0,P|251:166|248:199,1,75.000002861023,2|0,1:2|0:0,0:0:0:0:
274,267,3101,1,0,1:0:0:0:
274,267,3274,2,0,L|314:266,1,37.5000014305115,2|0,0:0|0:0,0:0:0:0:
431,264,3621,2,0,L|393:264,1,37.5000014305115,10|0,0:0|1:0,0:0:0:0:
339,175,3968,2,0,L|376:174,2,37.5000014305115,10|8|2,0:0|0:0|1:2,0:0:0:0:
271,122,4488,1,0,1:0:0:0:
364,13,4661,6,0,P|356:55|357:94,1,75.0000028610231,2|0,1:2|0:0,0:0:0:0:
448,126,5182,1,0,1:0:0:0:
448,126,5355,2,0,L|491:126,1,37.5000014305115,10|0,0:0|0:0,0:0:0:0:
376,174,5702,2,0,L|333:174,2,37.5000014305115,2|0|2,1:2|0:0|0:0,0:0:0:0:
466,213,6222,1,0,0:0:0:0:
466,213,6395,2,0,L|468:258,1,37.5000014305115,10|0,0:0|0:0,0:0:0:0:
358,266,6742,6,0,P|389:293|404:329,1,75.0000028610231,2|0,1:2|0:0,0:0:0:0:
316,345,7263,1,0,1:2:0:0:
316,345,7436,2,0,L|276:347,1,37.5000014305115,2|0,0:0|0:0,0:0:0:0:
235,260,7783,2,0,L|275:262,1,37.5000014305115,10|0,0:0|1:0,0:0:0:0:
155,251,8130,2,0,L|117:249,2,37.5000014305115,10|8|2,0:0|0:0|1:2,0:0:0:0:
203,174,8650,1,0,1:0:0:0:
83,97,8823,6,0,P|104:136|112:174,1,75.0000028610231,2|0,1:2|0:0,0:0:0:0:
38,246,9343,1,0,1:0:0:0:
38,246,9517,2,0,L|-1:247,1,37.5000014305115,10|0,0:0|0:0,0:0:0:0:
74,332,9864,2,0,L|111:331,2,37.5000014305115,2|0|2,1:2|0:0|0:0,0:0:0:0:
128,249,10384,1,0,0:0:0:0:
128,249,10557,2,0,L|167:250,1,37.5000014305115,10|0,0:0|0:0,0:0:0:0:
289,297,10904,6,0,P|270:262|267:226,1,75.0000028610231,2|0,1:2|0:0,0:0:0:0:
303,148,11424,1,0,1:0:0:0:
303,148,11598,2,0,L|343:151,1,37.5000014305115,2|0,0:0|0:0,0:0:0:0:
219,138,11945,2,0,L|181:135,1,37.5000014305115,10|0,0:0|1:0,0:0:0:0:
61,122,12291,2,0,L|98:124,2,37.5000014305115,10|8|2,0:0|0:0|1:2,0:0:0:0:
0,192,12812,1,0,1:0:0:0:
93,281,12985,6,0,P|81:242|83:206,1,75.0000028610231,2|0,1:2|0:0,0:0:0:0:
174,230,13505,1,0,1:0:0:0:
174,230,13679,2,0,L|218:227,1,37.5000014305115,10|0,0:0|0:0,0:0:0:0:
255,313,14026,2,0,L|211:310,2,37.5000014305115,2|0|2,1:2|0:0|0:0,0:0:0:0:
306,226,14546,1,0,0:0:0:0:
306,226,14719,2,0,L|350:229,1,37.5000014305115,10|0,0:0|0:0,0:0:0:0:
461,206,15066,6,0,P|439:249|433:277,1,75.0000028610231,2|0,1:2|0:0,0:0:0:0:
459,359,15586,1,2,1:2:0:0:
459,359,15760,2,0,L|500:357,1,37.5000014305115,0|2,0:0|0:2,0:0:0:0:
373,337,16106,2,0,L|335:338,1,37.5000014305115,10|0,0:0|1:0,0:0:0:0:
222,370,16453,2,0,L|259:371,2,37.5000014305115,8|8|0,0:0|0:0|1:0,0:0:0:0:
132,328,16973,5,0,1:0:0:0:
132,328,17147,1,0,1:2:0:0:
230,170,17841,6,0,L|225:216,1,37.5000014305115,8|8,0:0|0:0,0:0:0:0:
218,287,18187,1,0,0:0:0:0:
243,89,18534,1,0,0:0:0:0:
435,152,18881,6,0,P|413:154|374:170,1,56.2500021457673,0|0,0:0|0:0,0:0:0:0:
360,160,19228,6,0,P|336:224|350:273,2,119.999996337891,6|2|2,1:2|0:2|1:2,0:0:0:0:
512,179,20095,1,0,1:0:0:0:
512,179,20268,2,0,P|524:236|501:290,1,119.999996337891,10|2,0:0|0:2,0:0:0:0:
281,221,20962,6,0,P|316:230|349:273,1,89.9999972534181,2|0,1:2|0:0,0:0:0:0:
352,286,21309,6,0,P|285:308|256:352,1,119.999996337891,2|2,1:2|0:2,0:0:0:0:
441,370,21829,1,0,1:0:0:0:
441,370,22002,2,0,L|436:300,1,59.9999981689454,2|0,0:0|1:0,0:0:0:0:
359,153,22349,2,0,L|350:272,2,119.999996337891,10|2|2,0:0|0:2|1:2,0:0:0:0:
192,110,23390,6,0,B|303:105|241:166|365:153,1,179.999994506836,6|0,1:2|1:0,0:0:0:0:
394,33,24083,2,0,L|331:37,1,59.9999981689454,2|0,1:2|0:0,0:0:0:0:
242,179,24430,6,0,P|272:105|207:28,1,179.999994506836,8|0,0:0|0:0,0:0:0:0:
114,129,25124,2,0,P|154:124|177:111,1,59.9999981689454,2|0,1:2|0:0,0:0:0:0:
23,80,25471,6,0,L|27:205,1,119.999996337891,2|2,1:2|0:2,0:0:0:0:
92,265,25991,1,0,1:2:0:0:
92,265,26164,2,0,P|128:268|156:265,1,59.9999981689454,2|0,0:0|1:0,0:0:0:0:
299,248,26511,6,0,P|257:291|247:329,1,89.9999972534181,14|0,0:0|0:0,0:0:0:0:
260,333,26858,2,0,L|328:332,1,59.9999981689454,4|8,0:3|0:3,0:0:0:0:
485,323,27205,2,0,L|417:322,1,59.9999981689454,2|4,0:2|0:3,0:0:0:0:
310,157,27552,6,0,P|399:148|433:165,2,119.999996337891,6|2|2,1:2|0:2|1:2,0:0:0:0:
310,319,28419,1,0,0:0:0:0:
310,319,28592,2,0,P|366:335|424:321,1,119.999996337891,10|2,0:0|0:2,0:0:0:0:
219,156,29286,2,0,P|230:201|266:234,1,89.9999972534181,2|2,1:2|0:0,0:0:0:0:
276,230,29632,6,0,P|315:168|368:153,1,119.999996337891,2|2,1:2|0:2,0:0:0:0:
397,309,30153,1,2,1:2:0:0:
397,309,30326,2,0,L|329:310,1,59.9999981689454,0|2,0:2|1:2,0:0:0:0:
145,354,30673,2,0,L|137:213,2,119.999996337891,8|2|2,0:0|0:2|1:2,0:0:0:0:
446,196,31713,6,0,B|326:183|389:252|261:227,1,179.999994506836,6|0,1:2|0:0,0:0:0:0:
240,117,32407,2,0,L|306:123,1,59.9999981689454,2|0,1:2|1:2,0:0:0:0:
396,263,32754,6,0,P|366:186|432:113,1,179.999994506836,10|0,0:0|0:0,0:0:0:0:
512,206,33447,2,0,P|476:207|446:198,1,59.9999981689454,2|0,0:0|0:0,0:0:0:0:
354,38,33794,6,0,L|490:35,2,119.999996337891,2|2|10,1:2|0:2|0:0,0:0:0:0:
270,97,34661,1,4,0:3:0:0:
184,39,34835,1,6,0:0:0:0:
188,52,35008,1,8,0:0:0:0:
103,119,35182,1,10,0:2:0:0:
108,100,35355,1,0,1:2:0:0:
199,177,35528,6,0,L|203:243,1,59.9999981689454,8|4,0:3|0:3,0:0:0:0:
213,347,35875,1,2,1:2:0:0:
394,146,36569,6,0,P|353:151|324:169,1,75.0000028610231,10|2,0:0|1:2,0:0:0:0:
202,236,37263,2,0,P|243:241|272:259,1,75.0000028610231,2|8,0:2|0:0,0:0:0:0:
407,284,37956,2,0,P|401:206|415:128,1,150.000005722046,2|2,0:2|0:0,0:0:0:0:
395,44,38823,1,0,0:0:0:0:
295,20,38997,6,0,P|279:40|251:59,1,56.2500021457673,10|0,0:0|0:0,0:0:0:0:
236,57,39343,2,0,L|197:52,1,37.5000014305115,10|8,0:0|0:0,0:0:0:0:
145,144,39690,2,0,L|184:139,1,37.5000014305115,2|0,1:2|1:0,0:0:0:0:
62,90,40037,6,0,P|51:111|47:128,1,37.5000014305115,2|0,1:2|0:0,0:0:0:0:
52,215,40384,2,0,P|62:243|94:273,1,75.0000028610231,2|10,0:0|0:0,0:0:0:0:
184,248,40904,1,0,0:0:0:0:
227,335,41078,6,0,L|151:338,2,75.0000028610231,2|2|8,1:2|0:2|0:0,0:0:0:0:
305,281,41945,1,0,0:0:0:0:
381,365,42118,6,0,L|388:241,1,112.500004291535,2|2,1:2|1:2,0:0:0:0:
306,184,42812,2,0,L|263:189,1,37.5000014305115,2|0,0:0|0:0,0:0:0:0:
184,248,43158,1,10,0:0:0:0:
184,248,43332,1,0,1:0:0:0:
173,125,43505,2,0,L|216:130,1,37.5000014305115,10|8,0:0|0:0,0:0:0:0:
91,114,43852,2,0,L|53:109,1,37.5000014305115,2|0,1:2|1:0,0:0:0:0:
168,36,44199,6,0,L|259:30,1,75.0000028610231,2|2,1:2|0:0,0:0:0:0:
354,122,44893,2,0,L|315:120,1,37.5000014305115,10|0,0:0|0:0,0:0:0:0:
424,59,45239,2,0,P|447:107|446:132,2,75.0000028610231,2|2|10,1:2|0:0|0:0,0:0:0:0:
354,122,46106,1,0,0:0:0:0:
397,238,46280,2,0,L|480:236,1,75.0000028610231,2|0,1:2|0:0,0:0:0:0:
306,196,46800,5,2,1:2:0:0:
306,196,46973,2,0,L|304:238,1,37.5000014305115,2|0,0:0|0:0,0:0:0:0:
323,344,47320,6,0,L|274:339,1,37.5000014305115,10|0,0:0|1:0,0:0:0:0:
168,327,47667,2,0,L|205:330,2,37.5000014305115,10|8|2,0:0|0:0|1:2,0:0:0:0:
82,319,48187,1,0,1:0:0:0:
138,175,48361,6,0,L|139:261,1,75.0000028610231,2|0,1:2|0:0,0:0:0:0:
34,181,48881,1,2,1:2:0:0:
34,181,49054,2,0,L|37:136,1,37.5000014305115,10|0,0:0|0:0,0:0:0:0:
64,29,49401,6,0,P|39:55|-1:67,2,75.0000028610231,2|2|10,1:2|0:2|0:0,0:0:0:0:
154,42,50268,1,0,0:0:0:0:
245,126,50442,6,0,L|129:132,1,112.500004291535,2|0,1:2|1:0,0:0:0:0:
34,181,51135,1,10,0:0:0:0:
34,181,51309,1,0,0:0:0:0:
138,249,51482,6,0,L|142:208,1,37.5000014305115,2|0,1:2|0:0,0:0:0:0:
127,330,51829,2,0,L|123:367,1,37.5000014305115,10|0,0:0|0:0,0:0:0:0:
244,251,52176,2,0,L|240:210,1,37.5000014305115,2|0,1:2|1:0,0:0:0:0:
259,355,52523,1,2,1:2:0:0:
259,355,53216,6,0,L|299:351,1,37.5000014305115,10|0,0:0|0:0,0:0:0:0:
416,336,53563,2,0,L|378:339,1,37.5000014305115,0|0,1:2|0:0,0:0:0:0:
336,251,53910,2,0,L|412:257,1,75.0000028610231,2|8,0:0|0:0,0:0:0:0:
234,165,54604,6,0,P|218:220|218:285,1,112.500004291535,2|0,1:2|1:0,0:0:0:0:
259,355,55297,2,0,L|220:357,1,37.5000014305115,2|0,0:0|0:0,0:0:0:0:
316,274,55644,6,0,L|355:276,1,37.5000014305115,10|0,0:0|1:0,0:0:0:0:
473,283,55991,2,0,L|435:281,2,37.5000014305115,10|8|2,0:0|0:0|1:2,0:0:0:0:
234,165,56684,5,2,1:2:0:0:
234,165,57031,2,0,P|237:120|230:85,1,75.0000028610231,2|10,0:0|0:0,0:0:0:0:
143,32,57552,1,0,0:0:0:0:
77,115,57725,6,0,P|130:118|154:132,2,75.0000028610231,2|2|10,1:2|0:2|0:0,0:0:0:0:
2,178,58592,1,0,0:0:0:0:
15,37,58765,6,0,L|133:32,1,112.500004291535,2|2,1:2|1:2,0:0:0:0:
185,132,59459,2,0,L|142:127,1,37.5000014305115,10|0,0:0|0:0,0:0:0:0:
227,54,59806,6,0,L|270:49,1,37.5000014305115,10|0,0:0|1:0,0:0:0:0:
382,34,60153,2,0,L|344:38,2,37.5000014305115,10|8|2,0:0|0:0|1:2,0:0:0:0:
468,87,60673,1,0,1:0:0:0:
313,146,60846,6,0,P|366:134|402:175,1,112.500004291535,2|0,1:2|1:0,0:0:0:0:
338,275,61540,2,0,L|337:233,1,37.5000014305115,10|0,0:0|0:0,0:0:0:0:
220,147,61887,6,0,L|214:238,2,75.0000028610231,2|2|8,1:2|0:0|0:0,0:0:0:0:
228,53,62754,1,0,0:0:0:0:
132,156,62927,6,0,P|160:125|220:148,1,112.500004291535,2|0,1:2|1:0,0:0:0:0:
131,241,63621,2,0,L|83:236,1,37.5000014305115,2|0,0:0|0:0,0:0:0:0:
189,310,63968,6,0,L|237:305,1,37.5000014305115,10|0,0:0|1:0,0:0:0:0:
343,291,64315,2,0,L|305:294,2,37.5000014305115,10|8|2,0:0|0:0|1:2,0:0:0:0:
131,241,65008,6,0,L|16:233,1,112.500004291535,2|0,1:2|1:0,0:0:0:0:
40,136,65702,2,0,L|84:133,1,37.5000014305115,10|0,0:0|0:0,0:0:0:0:
202,121,66049,6,0,P|160:104|144:78,2,75.0000028610231,2|2|10,1:2|0:0|0:0,0:0:0:0:
279,70,66916,1,0,0:0:0:0:
329,215,67089,6,0,L|214:209,1,112.500004291535,2|0,1:2|1:0,0:0:0:0:
96,257,67783,2,0,L|133:256,1,37.5000014305115,2|0,0:0|0:0,0:0:0:0:
77,136,68130,2,0,L|39:135,1,37.5000014305115,10|0,0:0|1:0,0:0:0:0:
164,120,68476,2,0,L|201:120,2,37.5000014305115,10|8|2,0:0|0:0|1:2,0:0:0:0:
286,163,68997,1,0,1:0:0:0:
355,54,69170,6,0,B|345:117|385:96|382:159,1,112.500004291535,2|0,1:2|1:0,0:0:0:0:
310,280,69864,2,0,L|314:236,1,37.5000014305115,2|0,0:0|0:0,0:0:0:0:
438,248,70210,2,0,L|439:328,2,75.0000028610231,2|2|10,1:2|0:0|0:0,0:0:0:0:
371,187,71078,1,0,0:0:0:0:
464,96,71251,6,0,P|476:137|474:173,2,75.0000028610231,2|0|2,1:2|0:0|0:0,0:0:0:0:
343,73,72118,1,0,0:0:0:0:
343,73,72291,2,0,L|342:114,1,37.5000014305115,10|0,0:0|1:0,0:0:0:0:
329,239,72638,2,0,L|329:201,2,37.5000014305115,10|8|2,0:0|0:0|1:2,0:0:0:0:
264,312,73158,1,0,1:0:0:0:
187,190,73332,6,0,L|252:186,1,50,2|0,1:2|0:0,0:0:0:0:
123,207,73679,2,0,L|188:211,1,50,2|0,0:2|1:0,0:0:0:0:
61,185,74026,5,10,0:0:0:0:
85,183,74199,1,0,0:0:0:0:
177,92,74372,6,0,L|112:96,1,50,2|0,1:2|0:0,0:0:0:0:
241,75,74719,2,0,L|176:71,1,50,2|0,0:0|0:0,0:0:0:0:
303,97,75066,5,10,0:0:0:0:
279,99,75239,1,0,0:0:0:0:
401,39,75413,6,0,L|403:97,1,50,2|0,1:2|0:0,0:0:0:0:
363,173,75760,1,2,0:0:0:0:
362,197,75933,1,0,1:0:0:0:
421,268,76106,6,0,L|423:326,1,50,2|8,0:0|0:0,0:0:0:0:
256,330,76453,2,0,P|265:282|314:267,2,100,2|2|2,1:2|1:0|1:0,0:0:0:0:
175,148,77494,6,0,P|173:91|173:90,1,50,2|0,1:2|0:0,0:0:0:0:
212,214,77841,2,0,P|214:157|214:156,1,50,2|0,0:0|1:2,0:0:0:0:
174,279,78187,5,10,0:0:0:0:
172,254,78361,1,0,0:0:0:0:
69,287,78534,6,0,P|71:344|71:345,1,50,2|0,1:2|0:0,0:0:0:0:
32,221,78881,2,0,P|30:278|30:279,1,50,2|0,0:0|0:0,0:0:0:0:
70,156,79227,5,10,0:0:0:0:
72,181,79401,1,0,0:0:0:0:
20,64,79575,6,0,L|76:67,1,50,2|0,1:2|0:0,0:0:0:0:
170,109,79921,1,2,0:0:0:0:
194,107,80095,1,0,1:0:0:0:
279,55,80268,6,0,L|335:58,1,50,2|0,0:0|0:0,0:0:0:0:
345,194,80615,2,0,P|296:198|273:155,2,100,2|2|2,1:2|1:0|1:0,0:0:0:0:
397,278,81482,1,0,0:0:0:0:
397,278,81569,1,0,0:0:0:0:
397,278,81656,6,0,L|319:283,1,75,4|0,1:0|0:0,0:0:0:0:
301,296,82002,2,0,L|239:292,1,50,2|0,0:0|1:0,0:0:0:0:
167,222,82349,2,0,L|105:226,1,50,10|0,0:0|0:0,0:0:0:0:
274,146,82696,6,0,L|277:200,1,50,2|0,1:2|0:0,0:0:0:0:
261,73,83043,2,0,L|258:127,1,50,2|0,0:0|0:0,0:0:0:0:
284,9,83390,5,10,0:0:0:0:
285,33,83563,1,0,0:0:0:0:
136,50,83736,6,0,L|197:47,1,50,2|0,1:2|0:0,0:0:0:0:
69,63,84083,2,0,L|130:66,1,50,2|0,0:0|1:0,0:0:0:0:
0,50,84430,6,0,L|61:47,1,50,2|0,0:0|0:0,0:0:0:0:
102,183,84777,2,0,P|42:180|24:145,2,100,2|2|2,1:2|1:0|1:0,0:0:0:0:
155,287,85644,5,0,0:0:0:0:
155,287,85731,1,0,0:0:0:0:
155,287,85817,2,0,L|65:290,1,75,4|0,1:0|0:0,0:0:0:0:
52,303,86164,2,0,L|-18:303,1,50,2|0,0:0|1:0,0:0:0:0:
192,208,86511,2,0,L|262:208,1,50,10|0,0:0|0:0,0:0:0:0:
331,326,86858,6,0,L|281:326,1,50,2|0,1:2|0:0,0:0:0:0:
440,268,87205,2,0,L|390:268,1,50,2|0,0:0|0:0,0:0:0:0:
512,339,87552,5,8,0:0:0:0:
487,339,87725,1,0,0:0:0:0:
476,121,87898,6,0,P|488:165|485:204,1,75,2|0,1:2|0:0,0:0:0:0:
390,268,88245,2,0,P|345:256|313:234,1,75,2|0,0:0|0:0,0:0:0:0:
341,120,88592,1,2,0:0:0:0:
341,120,88765,1,8,0:0:0:0:
216,132,93794,6,0,P|226:157|228:189,1,56.2500021457673,2|0,0:0|0:0,0:0:0:0:
252,196,94141,6,0,P|238:239|166:268,2,119.999996337891,6|2|2,1:2|0:2|1:2,0:0:0:0:
131,83,95008,1,0,1:0:0:0:
131,83,95182,2,0,P|75:102|52:155,1,119.999996337891,10|2,0:0|0:2,0:0:0:0:
338,201,95875,6,0,P|333:161|298:117,1,89.9999972534181,2|0,1:2|0:0,0:0:0:0:
287,118,96222,6,0,P|304:78|382:60,1,119.999996337891,2|2,1:2|0:2,0:0:0:0:
397,204,96742,1,0,1:0:0:0:
397,204,96916,2,0,L|333:200,1,59.9999981689454,2|0,0:0|1:0,0:0:0:0:
167,124,97263,2,0,L|288:117,2,119.999996337891,10|2|2,0:0|0:2|1:2,0:0:0:0:
241,274,98303,6,0,B|348:274|290:203|401:203,1,179.999994506836,6|0,1:2|1:0,0:0:0:0:
476,301,98997,2,0,L|410:295,1,59.9999981689454,2|4,1:2|0:3,0:0:0:0:
268,192,99343,6,0,P|326:261|297:343,1,179.999994506836,10|0,0:0|0:0,0:0:0:0:
185,294,100037,2,0,P|222:276|248:273,1,59.9999981689454,2|0,1:2|0:0,0:0:0:0:
98,357,100384,2,0,L|92:230,1,119.999996337891,2|0,1:2|0:2,0:0:0:0:
142,133,100904,1,2,1:2:0:0:
142,133,101078,2,0,L|204:137,1,59.9999981689454,0|2,0:0|1:2,0:0:0:0:
350,37,101424,6,0,P|311:61|290:101,1,89.9999972534181,12|0,0:0|0:0,0:0:0:0:
303,116,101771,2,0,L|376:117,1,59.9999981689454,8|8,0:3|0:3,0:0:0:0:
501,81,102118,2,0,L|428:82,1,59.9999981689454,4|4,0:3|0:3,0:0:0:0:
313,235,102465,6,0,P|360:202|429:218,2,119.999996337891,6|2|2,1:2|0:2|1:2,0:0:0:0:
346,374,103332,1,0,0:0:0:0:
346,374,103505,2,0,P|403:383|452:349,1,119.999996337891,10|2,0:0|0:2,0:0:0:0:
251,167,104199,2,0,P|227:195|220:255,1,89.9999972534181,2|2,1:2|0:0,0:0:0:0:
227,266,104546,6,0,P|180:213|127:207,1,119.999996337891,2|0,1:2|0:2,0:0:0:0:
143,359,105066,1,2,1:2:0:0:
143,359,105239,2,0,L|145:287,1,59.9999981689454,0|2,0:0|1:2,0:0:0:0:
27,183,105586,2,0,L|28:302,2,119.999996337891,10|2|2,0:0|0:2|1:2,0:0:0:0:
245,136,106627,6,0,B|141:148|183:78|75:92,1,179.999994506836,6|0,1:2|1:0,0:0:0:0:
27,183,107320,2,0,B|91:179,1,59.9999981689454,2|4,1:2|0:3,0:0:0:0:
197,65,107667,6,0,P|163:144|214:219,1,179.999994506836,10|0,0:0|0:0,0:0:0:0:
317,115,108361,2,0,P|284:119|247:134,1,59.9999981689454,2|0,1:2|0:0,0:0:0:0:
413,198,108708,2,0,L|421:68,2,119.999996337891,2|2|10,1:2|0:2|0:0,0:0:0:0:
355,291,109575,1,4,0:3:0:0:
233,240,109748,1,14,0:2:0:0:
246,237,109921,1,8,0:0:0:0:
169,323,110095,1,10,0:2:0:0:
156,320,110268,1,0,1:2:0:0:
72,226,110442,6,0,L|138:230,1,59.9999981689454,8|4,0:3|0:3,0:0:0:0:
0,292,110789,1,6,1:2:0:0:
195,144,111482,6,0,L|251:138,1,50,2|0,1:2|0:0,0:0:0:0:
389,129,111829,2,0,P|349:163|340:211,2,100,10|2|2,0:0|0:0|1:2,0:0:0:0:
390,331,112869,2,0,L|284:334,1,100,2|2,1:2|0:0,0:0:0:0:
113,181,113563,5,2,1:2:0:0:
125,181,113736,1,0,0:0:0:0:
205,278,113910,2,0,L|139:272,1,50,10|0,0:2|1:0,0:0:0:0:
29,258,114257,2,0,L|78:262,2,50,2|0|2,0:0|0:0|1:2,0:0:0:0:
236,94,114950,6,0,P|247:154|232:192,2,100,2|2|2,1:2|0:0|1:2,0:0:0:0:
149,138,115817,1,0,0:0:0:0:
155,273,115991,2,0,L|271:271,2,100,10|2|2,0:2|0:0|1:2,0:0:0:0:
328,211,117031,6,0,P|351:264|341:309,1,100,2|2,1:2|0:0,0:0:0:0:
254,271,117552,1,0,0:0:0:0:
193,172,117725,2,0,L|243:169,1,50,2|0,1:2|0:0,0:0:0:0:
178,313,118072,6,0,L|128:310,1,50,10|0,0:2|0:0,0:0:0:0:
1,300,118419,2,0,L|51:303,2,50,2|0|2,0:0|0:0|1:2,0:0:0:0:
254,264,119112,6,0,P|266:320|250:369,2,100,6|2|2,1:2|0:0|1:2,0:0:0:0:
171,233,119979,1,0,0:0:0:0:
76,307,120153,2,0,L|179:315,2,100,10|2|2,0:0|0:0|1:2,0:0:0:0:
151,138,121193,6,0,P|174:201|170:236,1,100,2|2,1:2|0:0,0:0:0:0:
75,201,121713,1,0,0:0:0:0:
58,112,121887,2,0,L|57:58,1,50,2|0,1:2|0:0,0:0:0:0:
223,57,122234,6,0,L|168:60,1,50,10|0,0:2|0:0,0:0:0:0:
305,55,122580,2,0,L|354:52,2,50,2|0|2,0:0|0:0|1:2,0:0:0:0:
398,252,123274,6,0,B|392:160|438:201|433:107,1,150,2|0,1:2|0:0,0:0:0:0:
304,237,123968,2,0,L|307:292,1,50,2|0,1:2|0:0,0:0:0:0:
345,134,124315,2,0,P|284:128|246:143,2,100,10|2|2,0:2|0:0|1:2,0:0:0:0:
409,202,125182,1,0,0:0:0:0:
302,286,125355,6,0,L|304:229,1,50,2|0,1:2|0:0,0:0:0:0:
366,349,125702,1,2,0:0:0:0:
225,340,125875,2,0,L|168:343,1,50,8|0,0:0|1:0,0:0:0:0:
68,352,126222,1,0,0:0:0:0:
125,215,126395,5,10,0:0:0:0:
137,216,126568,1,8,0:0:0:0:
49,267,126742,2,0,L|-2:264,1,50,8|8,0:3|0:0,0:0:0:0:
195,298,127089,1,2,1:2:0:0:
322,161,127436,6,0,P|264:178|241:217,1,100,6|2,1:2|0:0,0:0:0:0:
284,290,127956,1,0,0:0:0:0:
403,190,128130,2,0,L|407:135,1,50,2|0,1:2|0:0,0:0:0:0:
287,42,128476,6,0,P|284:97|300:145,2,100,10|2|2,0:0|0:0|1:2,0:0:0:0:
392,45,129343,1,0,0:0:0:0:
304,152,129517,2,0,L|200:149,1,100,2|2,1:2|0:0,0:0:0:0:
405,261,130210,5,2,1:2:0:0:
417,260,130383,1,0,0:0:0:0:
316,235,130557,2,0,L|313:294,1,50,10|0,0:2|1:0,0:0:0:0:
411,175,130904,2,0,L|413:125,2,50,2|0|2,0:0|0:0|1:2,0:0:0:0:
222,116,131598,6,0,P|285:125|307:165,1,100,2|2,1:2|0:0,0:0:0:0:
217,216,132118,1,0,0:0:0:0:
217,216,132291,2,0,L|150:212,1,50,2|0,1:2|0:0,0:0:0:0:
75,110,132638,6,0,P|88:163|81:212,2,100,10|2|2,0:0|0:0|1:2,0:0:0:0:
0,165,133505,1,0,0:0:0:0:
87,310,133679,2,0,L|195:303,1,100,2|2,1:2|0:0,0:0:0:0:
302,236,134199,1,0,1:0:0:0:
302,236,134372,2,0,L|247:232,1,50,2|0,1:2|0:0,0:0:0:0:
429,304,134719,6,0,L|484:300,1,50,10|0,0:2|1:0,0:0:0:0:
344,328,135066,2,0,L|294:331,2,50,2|0|2,0:0|0:0|1:2,0:0:0:0:
340,105,135760,6,0,P|380:142|376:191,1,100,6|2,1:2|0:0,0:0:0:0:
302,236,136280,1,0,0:0:0:0:
302,236,136453,2,0,L|249:240,1,50,2|0,1:2|0:0,0:0:0:0:
148,169,136800,6,0,P|203:145|250:151,2,100,10|2|2,0:0|0:0|1:2,0:0:0:0:
159,277,137667,1,0,0:0:0:0:
327,217,137841,2,0,L|337:96,1,100,2|2,1:2|0:0,0:0:0:0:
260,21,138361,1,0,0:0:0:0:
260,21,138534,2,0,L|264:77,1,50,2|0,1:2|1:0,0:0:0:0:
429,122,138881,6,0,L|433:66,1,50,10|0,0:2|0:0,0:0:0:0:
425,208,139228,2,0,L|421:257,2,50,2|0|2,0:0|0:0|1:2,0:0:0:0:
414,348,139748,1,0,0:0:0:0:
238,226,139921,6,0,P|302:235|310:317,1,150,2|0,1:2|0:0,0:0:0:0:
200,355,140615,2,0,P|212:328|228:312,1,50,2|0,1:2|0:0,0:0:0:0:
309,188,140962,2,0,P|271:227|221:221,2,100,10|2|2,0:0|0:0|1:2,0:0:0:0:
153,175,141829,1,0,0:0:0:0:
226,313,142002,6,0,B|337:307|336:307,1,100,2|2,1:2|0:0,0:0:0:0:
429,255,142523,1,8,0:0:0:0:
384,120,142696,2,0,B|382:175,1,50,2|0,1:2|0:0,0:0:0:0:
397,33,143043,5,10,0:0:0:0:
385,34,143216,1,8,0:0:0:0:
288,95,143390,1,8,0:3:0:0:
300,96,143563,1,8,0:0:0:0:
209,22,143736,2,0,L|148:26,1,50,2|0,1:2|0:0,0:0:0:0:
0,69,144083,6,0,B|112:63|41:122|174:116,1,179.999994506836,6|0,1:2|0:0,0:0:0:0:
5,214,144777,2,0,L|5:150,1,59.9999981689454,2|0,1:2|0:0,0:0:0:0:
146,242,145124,2,0,L|146:306,1,59.9999981689454,10|0,0:0|0:0,0:0:0:0:
223,121,145471,6,0,B|193:128|193:128|166:116,1,59.9999981689454,2|0,0:2|0:0,0:0:0:0:
294,50,145817,1,0,1:2:0:0:
320,147,145991,1,2,0:2:0:0:
131,34,146164,6,0,L|196:30,1,59.9999981689454,2|0,1:2|0:0,0:0:0:0:
106,119,146511,2,0,L|171:115,1,59.9999981689454,0|2,0:2|0:2,0:0:0:0:
81,204,146858,2,0,L|146:200,1,59.9999981689454,2|0,0:2|1:0,0:0:0:0:
320,147,147205,5,10,0:0:0:0:
241,180,147378,1,2,0:0:0:0:
369,220,147552,5,2,1:2:0:0:
290,253,147725,1,2,0:0:0:0:
415,297,147898,6,0,L|351:328,1,59.9999981689454,2|0,1:2|0:0,0:0:0:0:
501,200,148245,6,0,B|519:278|519:278|489:326,1,119.999996337891,6|0,1:2|0:0,0:0:0:0:
426,150,148765,1,2,0:2:0:0:
426,150,148939,2,0,L|433:81,1,59.9999981689454,2|0,1:2|0:0,0:0:0:0:
349,251,149286,6,0,L|284:253,1,59.9999981689454,8|2,0:0|0:0,0:0:0:0:
149,199,149632,2,0,L|214:201,1,59.9999981689454,2|0,0:0|0:0,0:0:0:0:
54,268,149979,1,2,1:2:0:0:
46,162,150152,1,0,0:0:0:0:
203,260,150326,6,0,L|209:200,1,59.9999981689454,2|0,1:2|0:0,0:0:0:0:
129,53,150673,2,0,L|135:113,1,59.9999981689454,0|0,0:2|1:2,0:0:0:0:
254,123,151020,2,0,L|260:63,1,59.9999981689454,2|0,0:2|1:2,0:0:0:0:
12,191,151367,6,0,B|72:176|72:176|102:193,1,89.9999972534181,14|0,0:0|0:0,0:0:0:0:
140,265,151713,2,0,L|132:333,1,59.9999981689454,8|4,0:3|0:3,0:0:0:0:
254,123,152060,2,0,L|314:108,1,59.9999981689454,4|0,0:3|1:3,0:0:0:0:
397,283,152407,5,4,1:2:0:0:
323,258,152580,1,0,0:0:0:0:
251,287,152754,1,2,0:2:0:0:
215,354,152927,1,2,0:2:0:0:
242,276,153101,6,0,L|246:219,1,50,0|2,1:0|0:2,0:0:0:0:
90,138,153447,5,8,0:0:0:0:
176,178,153621,1,2,0:2:0:0:
285,103,153794,1,0,0:2:0:0:
371,143,153968,1,2,0:2:0:0:
242,197,154141,2,0,L|180:193,1,59.9999981689454,2|0,1:2|0:0,0:0:0:0:
432,207,154488,6,0,L|434:270,1,59.9999981689454,2|0,1:2|0:0,0:0:0:0:
347,247,154835,2,0,L|349:310,1,59.9999981689454,0|2,0:2|1:2,0:0:0:0:
259,287,155182,2,0,L|261:350,1,59.9999981689454,0|4,0:2|0:3,0:0:0:0:
72,220,155528,5,10,0:2:0:0:
182,201,155701,1,0,0:0:0:0:
119,110,155875,5,2,0:0:0:0:
229,129,156048,1,2,0:2:0:0:
153,32,156222,5,2,1:2:0:0:
263,13,156395,1,2,0:0:0:0:
305,204,156569,6,0,L|267:200,3,29.9999990844727,4|0|2|0,1:2|0:0|0:0|0:0,0:0:0:0:
367,138,156916,2,0,L|407:132,3,25,2|0|2|0,0:2|0:0|0:2|0:0,0:0:0:0:
477,209,157263,2,0,L|442:207,3,25,2|0|8|0,1:2|0:0|0:3|0:0,0:0:0:0:
350,306,157609,6,0,L|353:270,3,29.9999990844727,10|0|2|0,0:0|0:0|0:2|0:0,0:0:0:0:
429,336,157956,2,0,L|432:372,3,29.9999990844727,2|0|2|0,0:2|0:0|0:2|0:0,0:0:0:0:
265,354,158303,2,0,L|268:318,3,29.9999990844727,2|0|2|0,1:2|0:0|0:2|0:0,0:0:0:0:
225,239,158650,6,0,B|164:229|164:229|136:243,1,89.9999972534181,2|0,1:2|0:0,0:0:0:0:
43,253,158997,2,0,B|104:263|104:263|132:249,1,89.9999972534181,2|0,0:2|0:0,0:0:0:0:
85,167,159343,1,10,0:2:0:0:
85,167,159517,1,10,0:0:0:0:
184,314,159690,5,4,1:2:0:0:
180,146,159864,1,2,1:2:0:0:
281,277,160037,5,10,0:0:0:0:
261,185,160211,1,2,1:2:0:0:
394,234,160384,6,0,L|388:295,1,59.9999981689454,8|4,0:3|0:3,0:0:0:0:
310,109,160731,2,2,B|373:107|373:107|419:144|419:144|488:144,1,179.999994506836,4|0,1:2|0:0,0:0:0:0:
509,50,161424,2,0,L|443:56,1,59.9999981689454,2|2,1:2|0:2,0:0:0:0:
268,138,161771,6,0,B|295:102|295:102|280:19,2,119.999996337891,8|0|2,0:0|0:0|1:2,0:0:0:0:
177,69,162638,1,0,0:0:0:0:
71,178,162812,2,0,B|133:177|133:177|176:221|176:221|248:221,1,179.999994506836,2|0,1:2|0:0,0:0:0:0:
381,203,163505,2,0,L|319:206,1,59.9999981689454,0|0,0:0|1:0,0:0:0:0:
492,201,163852,2,2,B|507:146|507:146|492:108,1,89.9999972534181,10|0,0:2|0:0,0:0:0:0:
479,101,164199,1,0,1:0:0:0:
479,101,164372,1,0,0:0:0:0:
441,269,164546,6,0,B|459:295|459:295|461:329,1,59.9999981689454,6|0,1:2|0:0,0:0:0:0:
225,287,164893,2,0,L|317:283,1,89.9999972534181,4|0,0:0|0:0,0:0:0:0:
325,284,165239,2,0,L|323:353,1,59.9999981689454,2|0,0:2|1:0,0:0:0:0:
274,201,165586,2,0,L|272:132,1,59.9999981689454,2|4,0:2|0:3,0:0:0:0:
385,59,165933,5,10,0:0:0:0:
384,73,166019,1,2,0:2:0:0:
384,88,166106,1,2,0:2:0:0:
233,62,166280,2,0,B|263:49|263:49|292:55|291:55,1,59.9999981689454,2|0,0:2|0:2,0:0:0:0:
194,151,166627,2,0,B|196:150|167:156|167:156|137:143,1,59.9999981689454,2|0,0:2|0:0,0:0:0:0:
22,66,166973,6,0,B|44:90|44:90|35:164,1,89.9999972534181,2|0,1:2|0:0,0:0:0:0:
34,161,167320,1,2,0:2:0:0:
91,236,167494,1,0,1:0:0:0:
59,325,167667,2,0,L|-3:328,1,59.9999981689454,2|2,0:2|1:2,0:0:0:0:
177,272,168014,6,0,L|211:276,3,29.9999990844727,14|4|4|4,2:0|2:3|0:3|0:3,0:0:0:0:
178,356,168361,2,0,L|144:360,3,29.9999990844727,8|4|4|8,0:3|0:3|0:3|0:3,0:0:0:0:
267,332,168708,1,4,0:3:0:0:
333,268,168881,1,2,1:2:0:0:
215,196,169054,6,0,B|206:161|206:161|235:112,1,79.9999975585938,6|0,1:2|0:0,0:0:0:0:
244,103,169401,2,0,L|296:95,2,33.3333333333333,2|2|2,0:2|0:2|0:2,0:0:0:0:
351,143,169748,2,0,L|384:147,2,33.3333333333333,2|2|2,1:2|0:2|0:2,0:0:0:0:
443,67,170095,5,10,0:2:0:0:
443,67,170182,1,2,0:2:0:0:
443,67,170268,1,2,0:2:0:0:
512,219,170442,2,0,B|469:196|469:196|400:231,1,119.999996337891,2|0,0:0|1:0,0:0:0:0:
328,283,170962,1,2,0:2:0:0:
479,362,171135,6,0,L|487:286,1,59.9999981689454,2|0,1:2|0:0,0:0:0:0:
457,193,171439,2,0,L|455:155,2,29.9999990844727,2|2|2,0:2|0:0|0:0,0:0:0:0:
403,261,171742,1,2,0:0:0:0:
387,275,171829,2,0,L|339:282,2,39.9999987792969,2|2|2,0:0|0:0|0:0,0:0:0:0:
337,364,172176,2,0,L|272:360,1,59.9999981689454,10|0,0:0|0:2,0:0:0:0:
214,313,172407,1,2,0:0:0:0:
194,297,172523,6,0,P|191:262|199:230,1,59.9999981689454,2|4,0:0|0:3,0:0:0:0:
307,117,172869,2,0,P|310:152|302:184,1,59.9999981689454,2|0,0:0|0:0,0:0:0:0:
121,171,173216,6,0,P|203:199|153:276,1,179.999994506836,6|0,1:2|1:0,0:0:0:0:
32,201,173910,2,0,P|23:155|29:134,1,59.9999981689454,2|0,1:2|0:0,0:0:0:0:
112,2,174257,2,2,P|69:44|-3:40,2,119.999996337891,10|4|2,0:0|0:3|1:2,0:0:0:0:
311,139,175297,6,0,B|204:143|251:200|143:200,1,179.999994506836,2|0,1:2|1:2,0:0:0:0:
185,68,175991,1,10,0:0:0:0:
199,68,176164,1,8,0:0:0:0:
89,125,176338,2,0,L|24:120,1,59.9999981689454,14|8,0:2|0:0,0:0:0:0:
13,261,176684,2,0,L|78:256,1,59.9999981689454,4|6,0:3|0:0,0:0:0:0:
187,204,177031,6,0,L|147:199,2,39.9999987792969,8|8|4,0:3|0:3|0:3,0:0:0:0:
284,256,177378,6,0,P|288:201|347:217,1,125,2|0,0:2|0:0,0:0:0:0:
425,220,178419,2,0,B|429:147|386:184|388:99,1,125,2|0,0:2|0:0,0:0:0:0:
419,28,179459,2,0,P|473:28|469:88,1,125,2|0,0:2|0:0,0:0:0:0:
351,83,180500,2,0,L|345:209,1,125,2|0,0:2|0:0,0:0:0:0:
283,166,181540,6,0,P|314:126|387:133,1,125,2|0,0:2|0:0,0:0:0:0:
463,128,182580,2,0,B|463:213|428:171|428:250,1,125,2|0,0:2|0:0,0:0:0:0:
458,322,183621,2,0,P|494:319|506:244,1,125,2|0,0:2|0:0,0:0:0:0:
414,251,184661,2,0,L|285:258,1,125,2|0,0:2|0:0,0:0:0:0:
167,236,185702,6,0,P|221:207|201:158,1,125,2|0,0:2|0:0,0:0:0:0:
126,129,186742,2,0,B|99:198|149:174|125:257,1,125,2|0,0:2|0:0,0:0:0:0:
116,327,187783,2,0,P|126:286|195:297,1,125,2|0,0:2|0:0,0:0:0:0:
95,375,188823,2,0,B|90:248|90:249,1,125,2|0,0:2|0:0,0:0:0:0:
126,129,189864,5,2,1:2:0:0:
264,158,190557,6,0,L|235:160,1,25,10|0,0:0|0:0,0:0:0:0:
346,155,190904,1,2,1:2:0:0:
128,247,191598,6,0,L|157:249,1,25,10|0,0:0|0:0,0:0:0:0:
46,244,191945,1,2,1:2:0:0:
308,247,192985,6,0,L|305:297,1,37.5000014305115,8|0,0:0|1:0,0:0:0:0:
315,164,193332,2,0,L|317:126,2,37.5000014305115,8|8|2,0:0|0:0|1:2,0:0:0:0:
323,42,193852,1,2,1:2:0:0:
140,100,194026,6,0,P|195:106|218:121,1,69.9999978637696,6|0,1:2|0:0,0:0:0:0:
47,222,194372,2,0,P|102:216|125:201,1,69.9999978637696,2|8,0:0|0:0,0:0:0:0:
48,48,194719,1,2,1:2:0:0:
0,134,194893,1,0,0:0:0:0:
140,100,195066,6,0,P|97:122|79:144,1,69.9999978637696,2|8,1:2|0:0,0:0:0:0:
253,233,195413,2,0,P|210:211|192:189,1,69.9999978637696,2|2,1:2|0:0,0:0:0:0:
295,71,195760,1,10,0:2:0:0:
325,161,195933,1,0,0:0:0:0:
140,100,196106,6,0,P|181:97|216:113,1,69.9999978637696,2|0,1:2|0:0,0:0:0:0:
119,252,196453,2,0,P|86:263|51:259,1,69.9999978637696,2|8,0:0|0:0,0:0:0:0:
52,90,196800,2,0,L|49:6,1,69.9999978637696,2|0,1:2|0:0,0:0:0:0:
168,184,197147,5,10,0:2:0:0:
222,249,197320,1,0,1:0:0:0:
185,329,197494,1,10,0:0:0:0:
185,329,197580,1,8,0:0:0:0:
185,329,197667,1,0,1:0:0:0:
295,292,197841,2,0,P|334:277|363:276,1,69.9999978637696,4|4,0:3|1:3,0:0:0:0:
291,107,198187,6,0,P|267:141|260:169,1,69.9999978637696,6|0,1:2|0:0,0:0:0:0:
441,229,198534,2,0,P|417:195|410:167,1,69.9999978637696,2|8,0:0|0:0,0:0:0:0:
482,23,198881,1,2,1:2:0:0:
500,117,199054,1,0,0:0:0:0:
337,36,199228,6,0,P|374:38|403:56,1,69.9999978637696,2|8,1:2|0:0,0:0:0:0:
226,125,199575,2,0,P|263:123|292:105,1,69.9999978637696,2|0,1:2|1:0,0:0:0:0:
151,58,199921,1,10,0:0:0:0:
98,141,200095,1,0,0:0:0:0:
242,191,200268,6,0,P|237:146|218:115,1,69.9999978637696,2|0,1:2|0:0,0:0:0:0:
82,234,200615,2,0,P|67:265|65:300,1,69.9999978637696,2|8,0:0|0:0,0:0:0:0:
286,275,200962,2,0,L|199:281,1,69.9999978637696,2|0,1:2|0:0,0:0:0:0:
394,297,201309,5,6,1:2:0:0:
414,190,201482,1,0,0:0:0:0:
242,191,201656,5,8,0:3:0:0:
286,275,201829,1,4,0:3:0:0:
354,128,202002,2,0,P|310:114|282:117,1,69.9999978637696,10|0,0:2|0:0,0:0:0:0:
89,28,202349,6,0,P|132:42|155:62,1,69.9999978637696,6|0,1:2|0:0,0:0:0:0:
242,191,202696,2,0,P|199:205|176:225,1,69.9999978637696,2|8,0:0|0:0,0:0:0:0:
89,354,203043,2,0,P|132:368|155:388,1,69.9999978637696,2|0,1:2|0:0,0:0:0:0:
15,251,203390,5,2,1:2:0:0:
114,149,203563,1,8,0:0:0:0:
229,258,203736,2,0,P|183:258|159:269,1,69.9999978637696,2|0,1:2|0:0,0:0:0:0:
353,131,204083,2,0,P|307:131|283:120,1,69.9999978637696,10|0,1:2|0:0,0:0:0:0:
498,75,204430,6,0,P|512:114|509:146,1,69.9999978637696,6|0,1:2|0:0,0:0:0:0:
347,285,204777,2,0,P|346:250|359:218,1,69.9999978637696,2|8,0:0|0:0,0:0:0:0:
512,356,205124,2,0,L|440:361,1,69.9999978637696,2|0,1:2|0:0,0:0:0:0:
255,340,205471,5,10,0:2:0:0:
347,285,205644,1,0,1:0:0:0:
350,382,205817,1,10,0:0:0:0:
350,382,205904,1,8,0:0:0:0:
350,382,205991,1,0,1:0:0:0:
182,311,206164,2,0,P|208:274|237:258,1,69.9999978637696,4|0,0:3|1:3,0:0:0:0:
83,163,206511,6,0,P|74:202|78:235,1,69.9999978637696,6|0,1:2|0:0,0:0:0:0:
218,74,206858,2,0,P|227:113|223:146,1,69.9999978637696,2|8,0:0|0:0,0:0:0:0:
36,62,207205,1,2,1:2:0:0:
125,25,207378,1,0,0:0:0:0:
83,163,207552,6,0,P|38:177|21:194,1,69.9999978637696,2|8,1:2|0:0,0:0:0:0:
233,247,207898,2,0,P|188:233|171:216,1,69.9999978637696,2|0,1:2|1:0,0:0:0:0:
342,192,208245,1,10,0:0:0:0:
333,301,208419,1,2,0:0:0:0:
227,152,208592,6,0,P|228:100|275:85,1,104.999996795654,6|0,1:2|0:0,0:0:0:0:
350,104,208939,2,0,B|416:98|385:140|469:135,1,104.999996795654,2|0,0:0|0:0,0:0:0:0:
512,191,209286,1,2,1:2:0:0:
342,192,209459,1,0,0:0:0:0:
489,0,209632,6,0,P|501:43|500:71,1,69.9999978637696,6|0,1:2|0:0,0:0:0:0:
330,260,209979,2,0,P|330:225|341:191,1,69.9999978637696,10|8,0:0|0:3,0:0:0:0:
466,277,210326,2,0,P|478:320|477:348,1,69.9999978637696,8|2,0:0|1:2,0:0:0:0:
236,273,210673,6,0,P|302:265|297:347,2,139.999995727539,6|2|2,1:2|0:2|1:2,0:0:0:0:
252,374,211540,1,0,0:0:0:0:
140,191,211713,2,0,L|222:193,1,69.9999978637696,10|0,0:0|0:0,0:0:0:0:
82,311,212060,1,2,0:2:0:0:
52,227,212233,1,0,0:0:0:0:
181,289,212407,2,0,P|165:325|162:357,1,69.9999978637696,2|0,1:2|0:0,0:0:0:0:
280,147,212754,5,2,1:2:0:0:
296,239,212927,1,0,0:0:0:0:
199,99,213101,5,2,0:0:0:0:
183,191,213274,1,0,1:0:0:0:
346,133,213447,2,0,P|305:135|273:151,1,69.9999978637696,2|0,0:2|1:0,0:0:0:0:
400,269,213794,2,0,B|400:176|456:231|451:117,2,139.999995727539,10|2|6,0:0|0:0|1:2,0:0:0:0:
512,234,214661,1,0,0:0:0:0:
324,251,214835,6,0,P|383:270|377:320,1,104.999996795654,6|0,1:2|0:0,0:0:0:0:
330,360,215182,2,0,L|253:364,1,69.9999978637696,2|0,0:0|1:0,0:0:0:0:
134,259,215528,2,0,L|211:263,1,69.9999978637696,2|0,1:2|1:0,0:0:0:0:
2,280,215875,6,0,P|-11:228|68:199,2,139.999995727539,10|2|2,0:0|0:2|1:2,0:0:0:0:
134,259,216742,1,0,0:0:0:0:
62,123,216916,6,0,L|54:201,1,69.9999978637696,2|0,1:2|0:0,0:0:0:0:
168,26,217263,1,2,0:0:0:0:
190,131,217436,1,8,0:0:0:0:
319,0,217609,2,0,L|311:78,1,69.9999978637696,2|0,1:2|1:0,0:0:0:0:
236,239,217956,6,0,P|261:192|316:192,1,104.999996795654,14|0,0:2|0:0,0:0:0:0:
377,237,218303,2,0,L|371:275,3,34.9999989318848,8|8|4|4,0:3|0:3|0:3|0:3,0:0:0:0:
430,159,218650,1,8,0:3:0:0:
430,159,218736,1,8,0:3:0:0:
430,159,218823,1,4,0:3:0:0:
430,159,218910,1,4,0:3:0:0:
430,159,218997,6,0,L|288:154,1,139.999995727539,6|2,1:2|0:2,0:0:0:0:
161,201,219517,1,0,1:0:0:0:
286,323,219690,2,0,P|296:283|291:251,1,69.9999978637696,2|0,1:2|0:0,0:0:0:0:
117,322,220037,5,10,0:0:0:0:
201,364,220210,1,0,0:0:0:0:
161,201,220384,5,2,0:2:0:0:
212,279,220557,1,0,0:0:0:0:
57,255,220731,2,0,P|57:204|75:168,1,69.9999978637696,2|0,1:2|0:0,0:0:0:0:
205,110,221078,6,0,P|149:102|129:55,1,104.999996795654,2|0,1:2|0:0,0:0:0:0:
184,1,221424,2,0,L|265:8,1,69.9999978637696,2|0,0:0|1:2,0:0:0:0:
350,148,221771,2,0,L|269:155,1,69.9999978637696,2|0,0:2|1:0,0:0:0:0:
445,42,222118,5,10,0:0:0:0:
472,149,222291,1,0,0:0:0:0:
360,12,222465,5,2,0:2:0:0:
333,119,222638,1,0,0:0:0:0:
498,0,222812,2,0,P|466:16|444:44,1,69.9999978637696,2|0,1:2|0:0,0:0:0:0:
256,101,223158,6,0,P|314:119|323:168,1,104.999996795654,2|0,1:2|0:0,0:0:0:0:
269,219,223505,2,0,L|198:217,1,69.9999978637696,2|0,0:0|1:0,0:0:0:0:
64,145,223852,2,0,L|135:143,1,69.9999978637696,2|0,1:2|0:0,0:0:0:0:
63,316,224199,5,10,0:0:0:0:
11,224,224373,1,0,0:0:0:0:
165,330,224546,5,2,0:2:0:0:
175,220,224720,1,0,0:0:0:0:
0,342,224893,2,0,P|38:321|68:316,1,69.9999978637696,2|0,1:2|0:0,0:0:0:0:
239,266,225239,6,0,P|197:235|211:187,1,104.999996795654,2|0,1:2|0:0,0:0:0:0:
276,138,225586,2,0,L|351:142,1,69.9999978637696,2|0,0:2|1:0,0:0:0:0:
437,269,225933,2,0,L|362:273,1,69.9999978637696,10|8,0:0|0:0,0:0:0:0:
422,94,226280,5,14,0:0:0:0:
471,179,226453,1,4,0:3:0:0:
261,92,226627,5,10,0:0:0:0:
345,141,226800,1,2,1:2:0:0:
170,195,226973,2,0,P|208:174|249:172,1,69.9999978637696,12|4,0:3|0:3,0:0:0:0:
198,275,227234,5,2,0:0:0:0:
198,275,227320,2,0,P|161:218|116:231,1,104.999996795654,6|0,1:2|0:0,0:0:0:0:
63,274,227667,2,0,L|66:348,1,69.9999978637696,2|2,0:2|1:2,0:0:0:0:
295,307,228014,2,0,L|298:233,1,69.9999978637696,2|0,1:2|0:0,0:0:0:0:
157,162,228361,5,10,0:0:0:0:
198,275,228534,1,2,0:2:0:0:
301,116,228708,5,2,0:2:0:0:
297,237,228881,1,0,0:0:0:0:
157,162,229054,6,0,L|218:167,2,46.6666652425131,2|2|2,1:2|0:2|0:2,0:0:0:0:
78,218,229401,2,0,P|115:270|70:315,2,139.999995727539,2|2|2,1:2|0:2|0:2,0:0:0:0:
0,263,230268,1,0,1:0:0:0:
208,178,230442,6,0,B|144:179|160:134|97:139,1,120,10|0,0:0|0:0,0:0:0:0:
12,155,230789,1,10,0:0:0:0:
12,155,230962,1,8,0:0:0:0:
114,322,231135,2,0,P|121:279|113:240,1,80,2|0,1:2|0:0,0:0:0:0:
324,310,231482,6,0,P|266:310|232:357,2,119.999996337891,6|2|2,1:2|0:0|1:2,0:0:0:0:
363,384,232349,1,0,0:0:0:0:
401,281,232523,2,0,L|272:276,2,119.999996337891,10|2|2,0:0|0:2|1:2,0:0:0:0:
115,258,233563,6,0,P|136:206|198:230,1,119.999996337891,2|2,1:2|0:0,0:0:0:0:
281,276,234083,2,0,L|273:142,1,119.999996337891,0|0,1:2|1:2,0:0:0:0:
203,33,234604,6,0,L|196:102,1,59.9999981689454,10|0,0:0|0:0,0:0:0:0:
182,243,234950,2,0,L|188:183,2,59.9999981689454,2|0|14,0:0|1:0|0:0,0:0:0:0:
171,339,235471,1,0,0:0:0:0:
313,299,235644,6,0,B|219:297|274:249|180:242,1,150,6|0,0:0|1:0,0:0:0:0:
49,296,236338,2,0,L|102:291,1,50,2|0,0:0|0:0,0:0:0:0:
103,179,236684,2,0,L|-17:167,2,100,10|2|2,0:0|0:0|1:2,0:0:0:0:
181,242,237552,1,0,0:0:0:0:
285,135,237725,6,0,P|263:185|334:245,1,150,2|0,1:2|1:0,0:0:0:0:
420,99,238419,2,0,L|359:96,1,50,10|0,0:0|0:0,0:0:0:0:
463,266,238765,5,6,0:0:0:0:
500,146,238939,1,8,0:0:0:0:
367,277,239112,5,10,0:0:0:0:
344,178,239286,1,8,0:3:0:0:
276,306,239459,5,4,0:3:0:0:
224,250,239633,1,4,0:3:0:0:
147,306,239806,6,0,P|128:242|146:194,1,112.500004291535,2|0,0:2|1:2,0:0:0:0:
230,140,240500,2,0,L|191:137,1,37.5000014305115,10|0,0:2|0:2,0:0:0:0:
309,149,240846,2,0,L|346:151,2,37.5000014305115,2|0|2,1:2|0:0|0:2,0:0:0:0:
427,158,241367,1,0,0:0:0:0:
404,67,241540,2,0,L|365:70,1,37.5000014305115,10|0,0:2|0:2,0:0:0:0:
234,2,241887,6,0,P|266:34|274:78,1,75.0000028610231,2|2,1:2|0:2,0:0:0:0:
230,140,242407,1,0,1:2:0:0:
230,140,242580,2,0,L|180:145,1,37.5000014305115,2|0,0:2|0:2,0:0:0:0:
116,218,242927,2,0,L|166:223,1,37.5000014305115,10|0,0:2|1:2,0:0:0:0:
37,210,243274,2,0,L|0:206,2,37.5000014305115,10|8|2,0:2|0:2|1:2,0:0:0:0:
79,297,243794,1,0,1:2:0:0:
207,282,243968,6,0,P|167:314|154:342,1,75.0000028610231,2|0,1:2|0:0,0:0:0:0:
282,348,244488,1,0,1:2:0:0:
282,348,244661,2,0,L|286:299,1,37.5000014305115,10|0,0:2|0:2,0:0:0:0:
296,193,245008,2,0,L|292:230,2,37.5000014305115,2|0|2,1:2|0:2|0:2,0:0:0:0:
306,113,245528,1,0,0:0:0:0:
306,113,245702,2,0,L|310:64,1,37.5000014305115,10|0,0:2|0:2,0:0:0:0:
418,137,246049,6,0,P|387:173|377:207,1,75.0000028610231,2|2,1:2|0:2,0:0:0:0:
431,273,246569,1,0,1:2:0:0:
431,273,246742,2,0,L|471:276,1,37.5000014305115,2|0,0:2|0:2,0:0:0:0:
362,339,247089,2,0,L|322:342,1,37.5000014305115,10|0,0:2|1:2,0:0:0:0:
210,349,247436,2,0,L|247:346,2,37.5000014305115,10|8|2,0:2|0:2|1:2,0:0:0:0:
126,357,247956,1,0,1:2:0:0:
199,270,248130,6,0,P|211:225|206:189,1,75.0000028610231,2|0,1:2|0:0,0:0:0:0:
154,132,248650,1,0,1:2:0:0:
154,132,248823,2,0,L|110:136,1,37.5000014305115,10|0,0:2|0:2,0:0:0:0:
237,123,249170,2,0,L|274:119,2,37.5000014305115,2|0|2,1:2|0:0|0:2,0:0:0:0:
358,114,249690,1,0,0:0:0:0:
394,206,249864,2,0,L|350:202,1,37.5000014305115,10|0,0:2|0:2,0:0:0:0:
502,193,250210,6,0,P|471:236|467:261,1,75.0000028610231,2|2,1:2|0:2,0:0:0:0:
496,347,250731,1,0,1:2:0:0:
496,347,250904,2,0,L|455:351,1,37.5000014305115,2|0,0:2|0:2,0:0:0:0:
342,290,251251,2,0,L|383:294,1,37.5000014305115,10|0,0:2|1:2,0:0:0:0:
261,275,251598,2,0,L|223:271,2,37.5000014305115,10|8|2,0:2|0:2|1:2,0:0:0:0:
143,264,252118,1,0,1:2:0:0:
245,172,252291,6,0,P|290:184|313:211,1,75.0000028610231,2|0,1:2|0:0,0:0:0:0:
379,293,252812,1,0,1:2:0:0:
379,293,252985,2,0,L|383:242,1,37.5000014305115,10|0,0:2|0:2,0:0:0:0:
393,136,253332,2,0,L|390:173,2,37.5000014305115,2|0|2,1:2|0:2|0:2,0:0:0:0:
398,49,253852,1,0,0:0:0:0:
301,78,254026,2,0,L|305:129,1,37.5000014305115,10|0,0:2|0:2,0:0:0:0:
214,183,254372,6,0,P|262:196|284:220,1,75.0000028610231,2|2,1:2|0:2,0:0:0:0:
281,308,254893,1,0,1:2:0:0:
281,308,255066,2,0,L|237:310,1,37.5000014305115,2|0,0:2|0:2,0:0:0:0:
140,254,255413,2,0,L|184:256,1,37.5000014305115,10|0,0:2|1:2,0:0:0:0:
57,248,255760,2,0,L|19:246,2,37.5000014305115,10|8|2,0:2|0:2|1:2,0:0:0:0:
92,334,256280,1,0,1:2:0:0:
92,334,256453,1,2,1:2:0:0:
144,129,257147,6,0,L|141:169,1,37.5000014305115,10|0,0:2|0:2,0:0:0:0:
262,205,257494,2,0,L|254:119,1,75.0000028610231,2|2,1:2|0:2,0:0:0:0:
240,14,258014,1,0,0:0:0:0:
240,14,258187,2,0,L|243:51,1,37.5000014305115,10|0,0:2|0:2,0:0:0:0:
331,77,258534,1,2,1:2:0:0:
100,118,259228,5,0,0:2:0:0:
100,118,259401,1,0,0:2:0:0:
100,118,259575,2,0,L|142:122,1,37.5000014305115,10|0,0:2|0:2,0:0:0:0:
254,133,259921,2,0,L|216:129,2,37.5000014305115,10|8|2,0:2|0:2|1:2,0:0:0:0:
338,141,260442,1,0,1:2:0:0:
