osu file format v14

[General]
AudioFilename: audio.mp3
AudioLeadIn: 0
PreviewTime: 16819
Countdown: 0
SampleSet: Normal
StackLeniency: 0.7
Mode: 1
LetterboxInBreaks: 0
WidescreenStoryboard: 0

[Editor]
Bookmarks: 39502,101941,172185,230721,310241
DistanceSpacing: 0.8
BeatDivisor: 4
GridSize: 4
TimelineZoom: 5.699998

[Metadata]
Title:enn
TitleUnicode:enn ~淵~
Artist:Chata
ArtistUnicode:茶太
Creator:radar
Version:dream
Source:東方神霊廟 ~ Ten Desires.
Tags:idealism radarism a starry sky of small desires td th13 shinreibyou divine spirit mausoleum 東方project video game rock japanese Touhou doujin comiket 81 c81 abyss サリー Sally NSY shuriken サドマゾヒズム Sadomasochism 小さな欲望の星空 東方神霊廟 ZUN Chiisana Yokubou no Hoshizora 上海アリス幻樂団 Team Shanghai Alice
BeatmapID:2486385
BeatmapSetID:1193295

[Difficulty]
HPDrainRate:5
CircleSize:5
OverallDifficulty:6
ApproachRate:5
SliderMultiplier:1.4
SliderTickRate:1

[Events]
//Background and Video events
0,0,"49105799_p0.jpg",0,70
//Break Periods
//Storyboard Layer 0 (Background)
//Storyboard Layer 1 (Fail)
//Storyboard Layer 2 (Pass)
//Storyboard Layer 3 (Foreground)
//Storyboard Layer 4 (Overlay)
//Storyboard Sound Samples

[TimingPoints]
478,243.90243902439,4,1,0,40,1,0
478,-166.666666666667,4,1,0,40,0,0
38892,-125,4,1,0,40,0,0
38973,-128.205128205128,4,1,0,40,0,0
39055,-131.578947368421,4,1,0,40,0,0
39136,-135.135135135135,4,1,0,40,0,0
39502,-100,4,1,0,80,0,1
55112,-100,4,1,0,80,0,0
55295,-111.111111111111,4,1,0,80,0,0
101453,-109.89010989011,4,1,0,80,0,0
101534,-108.695652173913,4,1,0,80,0,0
101616,-107.52688172043,4,1,0,80,0,0
101697,-106.382978723404,4,1,0,80,0,0
101778,-105.263157894737,4,1,0,80,0,0
101860,-104.166666666667,4,1,0,80,0,0
101941,-100,4,1,0,80,0,1
131209,-100,4,1,0,80,0,0
131453,-111.111111111111,4,1,0,80,0,0
132673,-109.89010989011,4,1,0,80,0,0
132754,-108.695652173913,4,1,0,80,0,0
132835,-107.52688172043,4,1,0,80,0,0
132917,-106.382978723404,4,1,0,80,0,0
133160,-100,4,1,0,80,0,1
140965,-100,4,1,0,80,0,0
141128,-111.111111111111,4,1,0,80,0,0
171697,-109.89010989011,4,1,0,80,0,0
171778,-108.695652173913,4,1,0,80,0,0
171860,-107.52688172043,4,1,0,80,0,0
171941,-106.382978723404,4,1,0,80,0,0
172022,-105.263157894737,4,1,0,80,0,0
172104,-104.166666666667,4,1,0,80,0,0
172185,-100,4,1,0,80,0,1
199502,-100,4,1,0,80,0,0
214624,-99.009900990099,4,1,0,80,0,0
214746,-98.0392156862745,4,1,0,80,0,0
214868,-97.0873786407767,4,1,0,80,0,0
214990,-96.1538461538461,4,1,0,80,0,0
215112,-90.9090909090909,4,1,0,80,0,0
227246,-95.2380952380952,4,1,0,80,0,0
227734,-100,4,1,0,80,0,0
228160,-105.263157894737,4,1,0,80,0,0
228282,-108.108108108108,4,1,0,80,0,0
228465,-111.111111111111,4,1,0,80,0,0
229990,-109.89010989011,4,1,0,80,0,0
230071,-108.695652173913,4,1,0,80,0,0
230152,-107.52688172043,4,1,0,80,0,0
230234,-106.382978723404,4,1,0,80,0,0
230356,-104.166666666667,4,1,0,80,0,0
230477,-103.092783505155,4,1,0,80,0,0
230559,-102.040816326531,4,1,0,80,0,0
230640,-101.010101010101,4,1,0,80,0,0
230721,-100,4,1,0,80,0,0
230843,-166.666666666667,4,1,0,40,0,0
231697,243.90243902439,4,1,0,40,1,8
231697,-166.666666666667,4,1,0,40,0,0
231749,243.90243902439,4,1,0,40,1,0
231749,-166.666666666667,4,1,0,40,0,0
242925,243.90243902439,4,1,0,80,1,8
242925,-109.89010989011,4,1,0,80,0,8
243006,-108.695652173913,4,1,0,80,0,8
243087,-107.52688172043,4,1,0,80,0,8
243168,-106.382978723404,4,1,0,80,0,8
243250,-105.263157894737,4,1,0,80,0,8
243331,-104.166666666667,4,1,0,80,0,8
243412,243.90243902439,4,1,0,80,1,0
243412,-100,4,1,0,80,0,1
268777,-100,4,1,0,80,0,0
269021,-111.111111111111,4,1,0,80,0,0
270729,-100,4,1,0,80,0,1
286338,-100,4,1,0,80,0,0
286704,-105.263157894737,4,1,0,75,0,0
287070,-111.111111111111,4,1,0,70,0,0
287314,-114.285714285714,4,1,0,65,0,0
287436,-117.647058823529,4,1,0,60,0,0
287680,-125,4,1,0,55,0,0
287802,-129.87012987013,4,1,0,50,0,0
287924,-136.986301369863,4,1,0,45,0,0
288168,-147.058823529412,4,1,0,40,0,0
288290,-157.48031496063,4,1,0,40,0,0
288655,-166.666666666667,4,1,0,40,0,0
302070,-166.666666666667,4,1,0,25,0,0
303046,-166.666666666667,4,1,0,20,0,0
304021,-166.666666666667,4,1,0,15,0,0
304997,-166.666666666667,4,1,0,10,0,0
305972,-166.666666666667,4,1,0,5,0,0

[HitObjects]
101,312,478,5,0,0:0:0:0:
106,303,721,1,8,0:0:0:0:
101,312,965,1,8,0:0:0:0:
110,296,1453,1,8,0:0:0:0:
104,286,2429,1,0,0:0:0:0:
104,286,2673,1,8,0:0:0:0:
104,286,2917,1,8,0:0:0:0:
111,277,3404,1,8,0:0:0:0:
111,278,4380,1,0,0:0:0:0:
111,278,4624,1,0,0:0:0:0:
111,278,4868,1,8,0:0:0:0:
111,278,5356,1,8,0:0:0:0:
111,278,6331,1,0,0:0:0:0:
111,278,6575,1,0,0:0:0:0:
111,278,6819,1,8,0:0:0:0:
111,273,7307,1,8,0:0:0:0:
122,260,8282,1,0,0:0:0:0:
120,254,8526,1,8,0:0:0:0:
120,254,8770,1,8,0:0:0:0:
120,254,9258,1,8,0:0:0:0:
121,254,10234,1,0,0:0:0:0:
121,254,10477,1,8,0:0:0:0:
125,245,10721,1,8,0:0:0:0:
125,245,11209,1,8,0:0:0:0:
125,245,12185,1,0,0:0:0:0:
125,245,12429,1,0,0:0:0:0:
125,245,12673,1,8,0:0:0:0:
125,245,13160,1,8,0:0:0:0:
125,245,14136,1,0,0:0:0:0:
125,245,14380,1,0,0:0:0:0:
125,245,14624,1,8,0:0:0:0:
125,245,15112,1,8,0:0:0:0:
122,257,16087,1,0,0:0:0:0:
122,257,16331,1,8,0:0:0:0:
122,257,16575,1,8,0:0:0:0:
111,256,17063,1,8,0:0:0:0:
111,256,18038,1,0,0:0:0:0:
111,256,18282,1,8,0:0:0:0:
111,256,18526,1,8,0:0:0:0:
119,261,19014,1,0,0:0:0:0:
119,261,19990,1,0,0:0:0:0:
119,261,20234,1,0,0:0:0:0:
119,261,20477,1,8,0:0:0:0:
119,261,20965,1,8,0:0:0:0:
119,261,21453,1,0,0:0:0:0:
119,261,21941,1,0,0:0:0:0:
119,261,22185,1,0,0:0:0:0:
119,261,22429,1,8,0:0:0:0:
119,261,22673,1,0,0:0:0:0:
123,256,23404,1,0,0:0:0:0:
123,256,23892,1,0,0:0:0:0:
123,256,24136,1,8,0:0:0:0:
123,256,24380,1,8,0:0:0:0:
123,256,24868,1,8,0:0:0:0:
123,256,25843,1,0,0:0:0:0:
123,256,26087,1,8,0:0:0:0:
121,250,26331,1,8,0:0:0:0:
121,250,26575,1,0,0:0:0:0:
121,250,26819,1,0,0:0:0:0:
137,254,27795,1,0,0:0:0:0:
137,254,28038,1,8,0:0:0:0:
137,254,28282,1,8,0:0:0:0:
137,254,28770,1,8,0:0:0:0:
137,254,29258,1,0,0:0:0:0:
137,254,29746,1,0,0:0:0:0:
137,254,29990,1,0,0:0:0:0:
137,254,30234,1,8,0:0:0:0:
137,254,30721,1,0,0:0:0:0:
137,254,31209,1,0,0:0:0:0:
137,254,31697,1,0,0:0:0:0:
256,192,32673,12,0,38770,0:0:0:0:
131,260,38892,5,8,0:0:0:0:
93,271,38973,5,8,0:0:0:0:
93,271,39055,1,0,0:0:0:0:
93,271,39136,1,0,0:0:0:0:
253,191,39502,1,12,0:0:0:0:
253,191,39746,1,0,0:0:0:0:
253,191,39868,1,8,0:0:0:0:
253,191,39990,1,0,0:0:0:0:
253,191,40112,1,0,0:0:0:0:
253,191,40234,1,8,0:0:0:0:
253,191,40356,1,0,0:0:0:0:
253,191,40477,1,8,0:0:0:0:
250,195,40721,1,8,0:0:0:0:
250,195,40843,1,0,0:0:0:0:
253,191,40965,1,8,0:0:0:0:
253,191,41087,1,8,0:0:0:0:
253,191,41209,1,0,0:0:0:0:
253,191,41331,1,0,0:0:0:0:
253,191,41453,1,8,0:0:0:0:
246,189,41697,1,0,0:0:0:0:
249,187,41819,1,0,0:0:0:0:
251,185,41941,1,8,0:0:0:0:
251,185,42063,1,0,0:0:0:0:
251,185,42185,1,8,0:0:0:0:
251,185,42307,1,8,0:0:0:0:
251,185,42429,1,0,0:0:0:0:
244,180,42673,1,8,0:0:0:0:
244,179,42795,1,8,0:0:0:0:
245,178,42917,1,0,0:0:0:0:
247,175,43038,1,8,0:0:0:0:
246,178,43160,1,0,0:0:0:0:
247,175,43282,1,0,0:0:0:0:
246,177,43404,1,8,0:0:0:0:
244,180,43648,1,0,0:0:0:0:
254,183,43770,1,0,0:0:0:0:
255,184,43892,1,8,0:0:0:0:
247,175,44014,1,0,0:0:0:0:
246,178,44136,1,8,0:0:0:0:
251,182,44258,1,0,0:0:0:0:
251,182,44380,1,0,0:0:0:0:
244,180,44624,1,8,0:0:0:0:
242,178,44746,1,0,0:0:0:0:
242,177,44868,1,8,0:0:0:0:
242,177,44990,1,8,0:0:0:0:
246,178,45112,1,0,0:0:0:0:
245,177,45234,1,0,0:0:0:0:
242,178,45356,1,8,0:0:0:0:
244,180,45599,1,0,0:0:0:0:
242,178,45721,1,0,0:0:0:0:
242,177,45843,1,8,0:0:0:0:
242,177,45965,1,0,0:0:0:0:
242,177,46087,1,8,0:0:0:0:
245,177,46209,1,8,0:0:0:0:
242,178,46331,1,0,0:0:0:0:
244,180,46453,1,8,0:0:0:0:
244,180,46575,1,0,0:0:0:0:
242,178,46697,1,0,0:0:0:0:
242,178,46758,1,0,0:0:0:0:
242,177,46819,1,8,0:0:0:0:
242,177,46941,1,8,0:0:0:0:
242,177,47063,1,0,0:0:0:0:
245,177,47185,1,0,0:0:0:0:
242,178,47307,1,12,0:0:0:0:
244,180,47551,1,0,0:0:0:0:
242,178,47673,1,0,0:0:0:0:
242,177,47795,1,8,0:0:0:0:
242,177,47917,1,0,0:0:0:0:
242,177,48038,1,8,0:0:0:0:
245,177,48160,1,8,0:0:0:0:
242,178,48282,1,0,0:0:0:0:
239,175,48404,1,8,0:0:0:0:
239,175,48526,1,0,0:0:0:0:
236,175,48648,1,0,0:0:0:0:
242,177,48770,1,8,0:0:0:0:
242,177,48892,1,8,0:0:0:0:
242,177,49014,1,0,0:0:0:0:
240,174,49136,1,0,0:0:0:0:
242,178,49258,1,8,0:0:0:0:
246,184,49502,1,8,0:0:0:0:
246,184,49624,1,0,0:0:0:0:
246,184,49746,1,8,0:0:0:0:
246,184,49868,1,8,0:0:0:0:
247,185,49990,1,0,0:0:0:0:
247,185,50112,1,8,0:0:0:0:
247,185,50234,1,0,0:0:0:0:
246,184,50356,1,8,0:0:0:0:
246,184,50477,1,8,0:0:0:0:
246,184,50599,1,0,0:0:0:0:
250,187,50721,1,8,0:0:0:0:
251,187,50843,1,0,0:0:0:0:
251,187,50965,1,8,0:0:0:0:
247,185,51087,1,8,0:0:0:0:
247,185,51209,1,0,0:0:0:0:
257,183,51453,1,0,0:0:0:0:
257,183,51575,1,0,0:0:0:0:
257,182,51697,1,8,0:0:0:0:
257,182,51819,1,0,0:0:0:0:
259,182,51941,1,8,0:0:0:0:
262,181,52063,1,8,0:0:0:0:
262,181,52185,1,0,0:0:0:0:
257,183,52307,1,8,0:0:0:0:
257,183,52429,1,0,0:0:0:0:
257,183,52551,1,0,0:0:0:0:
257,182,52673,1,8,0:0:0:0:
257,182,52795,1,0,0:0:0:0:
259,182,52917,1,8,0:0:0:0:
257,183,53038,1,8,0:0:0:0:
256,184,53160,1,8,0:0:0:0:
257,183,53404,1,8,0:0:0:0:
257,183,53526,1,0,0:0:0:0:
257,182,53648,1,8,0:0:0:0:
257,182,53770,1,8,0:0:0:0:
254,181,53892,1,0,0:0:0:0:
257,183,54014,1,8,0:0:0:0:
256,184,54136,1,0,0:0:0:0:
257,183,54258,1,8,0:0:0:0:
257,183,54319,1,8,0:0:0:0:
257,183,54380,1,0,0:0:0:0:
257,183,54502,1,0,0:0:0:0:
257,182,54624,1,8,0:0:0:0:
257,182,54746,1,8,0:0:0:0:
254,181,54868,1,8,0:0:0:0:
257,183,54990,1,8,0:0:0:0:
256,184,55112,1,4,0:0:0:0:
261,180,55356,1,8,0:0:0:0:
242,171,55599,1,0,0:0:0:0:
257,182,55721,1,0,0:0:0:0:
257,182,55843,1,8,0:0:0:0:
262,181,56087,1,8,0:0:0:0:
261,180,56331,1,8,0:0:0:0:
262,182,56453,1,8,0:0:0:0:
262,182,56575,1,0,0:0:0:0:
262,182,56697,1,8,0:0:0:0:
262,182,56819,1,0,0:0:0:0:
260,192,57063,1,8,0:0:0:0:
258,192,57307,1,8,0:0:0:0:
258,192,57429,1,0,0:0:0:0:
249,184,57673,1,0,0:0:0:0:
255,182,57795,1,8,0:0:0:0:
253,178,57917,1,8,0:0:0:0:
255,182,58038,1,0,0:0:0:0:
256,187,58282,1,8,0:0:0:0:
256,187,58526,1,0,0:0:0:0:
256,187,58648,1,0,0:0:0:0:
256,187,58770,1,8,0:0:0:0:
256,187,58892,1,8,0:0:0:0:
256,187,59014,1,0,0:0:0:0:
255,175,59258,1,8,0:0:0:0:
255,175,59502,1,0,0:0:0:0:
255,175,59624,1,0,0:0:0:0:
256,175,59746,1,8,0:0:0:0:
256,175,59990,1,0,0:0:0:0:
255,175,60234,1,8,0:0:0:0:
255,175,60477,1,8,0:0:0:0:
255,175,60599,1,8,0:0:0:0:
256,175,60721,1,0,0:0:0:0:
256,175,60843,1,0,0:0:0:0:
256,175,60965,1,8,0:0:0:0:
255,175,61209,1,8,0:0:0:0:
255,175,61453,1,0,0:0:0:0:
255,175,61575,1,0,0:0:0:0:
256,175,61697,1,8,0:0:0:0:
256,175,61941,1,0,0:0:0:0:
255,175,62185,1,8,0:0:0:0:
255,175,62429,1,0,0:0:0:0:
256,175,62673,1,8,0:0:0:0:
256,175,62795,1,0,0:0:0:0:
256,175,62856,1,0,0:0:0:0:
256,175,62917,1,8,0:0:0:0:
255,175,63160,1,8,0:0:0:0:
255,175,63404,1,8,0:0:0:0:
256,175,63526,1,0,0:0:0:0:
256,175,63648,1,8,0:0:0:0:
256,175,63892,1,8,0:0:0:0:
242,181,64136,1,8,0:0:0:0:
242,181,64258,1,0,0:0:0:0:
247,177,64502,1,0,0:0:0:0:
246,177,64624,1,8,0:0:0:0:
246,177,64868,1,8,0:0:0:0:
246,177,65112,1,8,0:0:0:0:
242,181,65234,1,0,0:0:0:0:
232,182,65477,1,0,0:0:0:0:
232,182,65599,1,8,0:0:0:0:
236,180,65843,1,0,0:0:0:0:
236,180,66087,1,0,0:0:0:0:
236,180,66209,1,0,0:0:0:0:
232,182,66453,1,8,0:0:0:0:
232,182,66575,1,8,0:0:0:0:
224,181,66819,1,0,0:0:0:0:
224,181,67063,1,8,0:0:0:0:
224,181,67307,1,0,0:0:0:0:
224,181,67429,1,0,0:0:0:0:
224,181,67551,1,8,0:0:0:0:
224,181,67795,1,0,0:0:0:0:
224,181,68038,1,8,0:0:0:0:
224,181,68160,1,0,0:0:0:0:
224,181,68282,1,8,0:0:0:0:
224,181,68404,1,8,0:0:0:0:
224,181,68526,1,0,0:0:0:0:
224,181,68770,1,8,0:0:0:0:
228,175,69014,1,0,0:0:0:0:
228,175,69258,1,8,0:0:0:0:
228,175,69380,1,8,0:0:0:0:
228,175,69502,1,8,0:0:0:0:
228,175,69746,1,0,0:0:0:0:
240,180,69868,1,8,0:0:0:0:
240,180,69990,1,0,0:0:0:0:
228,175,70112,1,0,0:0:0:0:
238,171,70234,1,8,0:0:0:0:
238,171,70356,1,8,0:0:0:0:
238,171,70477,1,0,0:0:0:0:
238,171,70599,1,0,0:0:0:0:
232,184,70660,1,0,0:0:0:0:
238,171,70721,1,8,0:0:0:0:
242,170,70965,1,8,0:0:0:0:
242,170,71209,1,8,0:0:0:0:
238,171,71331,1,0,0:0:0:0:
238,171,71453,1,8,0:0:0:0:
241,172,71697,1,8,0:0:0:0:
242,170,71941,1,8,0:0:0:0:
242,170,72063,1,8,0:0:0:0:
242,170,72185,1,0,0:0:0:0:
238,171,72307,1,8,0:0:0:0:
238,171,72429,1,0,0:0:0:0:
238,162,72673,1,8,0:0:0:0:
238,162,72917,1,0,0:0:0:0:
238,162,73038,1,8,0:0:0:0:
238,163,73282,1,8,0:0:0:0:
238,165,73404,1,8,0:0:0:0:
237,176,73648,1,0,0:0:0:0:
238,172,73892,1,8,0:0:0:0:
237,172,74136,1,0,0:0:0:0:
237,172,74258,1,0,0:0:0:0:
237,176,74380,1,8,0:0:0:0:
238,172,74502,1,8,0:0:0:0:
237,176,74624,1,0,0:0:0:0:
233,167,74868,1,8,0:0:0:0:
233,167,75112,1,0,0:0:0:0:
233,167,75234,1,0,0:0:0:0:
233,167,75356,1,8,0:0:0:0:
233,167,75599,1,0,0:0:0:0:
233,167,75843,1,8,0:0:0:0:
233,167,76087,1,8,0:0:0:0:
230,171,76209,1,8,0:0:0:0:
233,167,76331,1,0,0:0:0:0:
233,167,76575,1,8,0:0:0:0:
233,174,76819,1,8,0:0:0:0:
233,174,77063,1,0,0:0:0:0:
233,174,77185,1,0,0:0:0:0:
233,174,77307,1,8,0:0:0:0:
233,167,77551,1,0,0:0:0:0:
233,174,77795,1,8,0:0:0:0:
233,174,78038,1,0,0:0:0:0:
233,174,78282,1,8,0:0:0:0:
228,176,78404,1,0,0:0:0:0:
230,176,78465,1,0,0:0:0:0:
230,176,78526,1,8,0:0:0:0:
233,174,78770,1,8,0:0:0:0:
233,174,79014,1,8,0:0:0:0:
233,174,79136,1,0,0:0:0:0:
233,174,79258,1,8,0:0:0:0:
230,176,79502,1,8,0:0:0:0:
233,174,79746,1,8,0:0:0:0:
233,174,79868,1,0,0:0:0:0:
233,174,80112,1,0,0:0:0:0:
233,174,80234,1,8,0:0:0:0:
230,176,80477,1,8,0:0:0:0:
233,174,80721,1,8,0:0:0:0:
233,174,80843,1,0,0:0:0:0:
233,179,81087,1,0,0:0:0:0:
233,179,81209,1,8,0:0:0:0:
234,180,81453,1,8,0:0:0:0:
233,180,81697,1,0,0:0:0:0:
234,180,81819,1,0,0:0:0:0:
233,179,82063,1,8,0:0:0:0:
233,179,82185,1,8,0:0:0:0:
234,180,82429,1,0,0:0:0:0:
241,180,82673,1,8,0:0:0:0:
241,180,82917,1,0,0:0:0:0:
241,180,83038,1,0,0:0:0:0:
241,180,83160,1,8,0:0:0:0:
241,180,83404,1,0,0:0:0:0:
241,180,83648,1,8,0:0:0:0:
241,180,83892,1,8,0:0:0:0:
241,180,84014,1,8,0:0:0:0:
241,180,84136,1,0,0:0:0:0:
241,180,84258,1,0,0:0:0:0:
241,180,84380,1,8,0:0:0:0:
241,180,84624,1,0,0:0:0:0:
241,180,84868,1,8,0:0:0:0:
241,180,84990,1,8,0:0:0:0:
241,180,85112,1,0,0:0:0:0:
241,180,85356,1,0,0:0:0:0:
241,180,85477,1,8,0:0:0:0:
241,180,85599,1,0,0:0:0:0:
241,180,85721,1,0,0:0:0:0:
241,180,85843,1,8,0:0:0:0:
241,180,85965,1,0,0:0:0:0:
241,180,86087,1,8,0:0:0:0:
241,180,86209,1,0,0:0:0:0:
241,180,86270,1,0,0:0:0:0:
241,180,86331,1,12,0:0:0:0:
241,180,86453,1,0,0:0:0:0:
232,188,86575,1,0,0:0:0:0:
232,188,86697,1,8,0:0:0:0:
236,183,86819,1,8,0:0:0:0:
234,190,86941,1,0,0:0:0:0:
234,190,87063,1,8,0:0:0:0:
232,188,87551,1,0,0:0:0:0:
231,186,87795,1,8,0:0:0:0:
234,190,87917,1,8,0:0:0:0:
232,188,88282,1,8,0:0:0:0:
224,185,88526,1,8,0:0:0:0:
224,185,88648,1,0,0:0:0:0:
224,185,89014,1,8,0:0:0:0:
218,190,89502,1,8,0:0:0:0:
218,190,89746,1,0,0:0:0:0:
218,191,89990,1,8,0:0:0:0:
218,190,90234,1,4,0:0:0:0:
218,190,90356,1,0,0:0:0:0:
218,190,90477,1,8,0:0:0:0:
218,190,90599,1,8,0:0:0:0:
218,197,90721,1,0,0:0:0:0:
217,197,90843,1,0,0:0:0:0:
217,197,90965,1,12,0:0:0:0:
239,192,91453,1,0,0:0:0:0:
239,192,91697,1,8,0:0:0:0:
239,192,91819,1,0,0:0:0:0:
239,192,92063,1,0,0:0:0:0:
236,186,92307,1,8,0:0:0:0:
232,187,92429,1,0,0:0:0:0:
231,190,92673,1,8,0:0:0:0:
231,190,92917,1,0,0:0:0:0:
236,186,93160,1,8,0:0:0:0:
237,188,93404,1,0,0:0:0:0:
237,188,93526,1,0,0:0:0:0:
238,188,93648,1,8,0:0:0:0:
239,191,93770,1,0,0:0:0:0:
231,192,94136,1,12,0:0:0:0:
231,192,94258,1,0,0:0:0:0:
231,192,94319,1,0,0:0:0:0:
231,192,94380,1,0,0:0:0:0:
231,192,94502,1,8,0:0:0:0:
231,192,94563,1,8,0:0:0:0:
231,192,94624,1,0,0:0:0:0:
231,192,94746,1,0,0:0:0:0:
231,192,94868,1,12,0:0:0:0:
231,192,95356,1,8,0:0:0:0:
231,192,95599,1,0,0:0:0:0:
231,192,95843,1,0,0:0:0:0:
231,192,96087,1,8,0:0:0:0:
226,183,96331,1,8,0:0:0:0:
226,183,96453,1,0,0:0:0:0:
225,183,96697,1,0,0:0:0:0:
221,199,96819,1,8,0:0:0:0:
231,192,97063,1,0,0:0:0:0:
229,191,97307,1,8,0:0:0:0:
229,191,97429,1,0,0:0:0:0:
231,194,97551,1,8,0:0:0:0:
231,194,97673,1,8,0:0:0:0:
231,194,97795,1,0,0:0:0:0:
231,192,97917,1,0,0:0:0:0:
231,192,98038,1,12,0:0:0:0:
226,192,98526,1,0,0:0:0:0:
226,192,99014,1,8,0:0:0:0:
226,192,99136,1,0,0:0:0:0:
226,192,99380,1,0,0:0:0:0:
226,192,99502,1,0,0:0:0:0:
226,192,99746,1,0,0:0:0:0:
226,192,99990,1,12,0:0:0:0:
219,188,100356,1,8,0:0:0:0:
219,188,100477,1,0,0:0:0:0:
223,184,100721,1,12,0:0:0:0:
233,186,100965,1,0,0:0:0:0:
233,185,101087,1,0,0:0:0:0:
232,185,101209,1,8,0:0:0:0:
231,187,101331,1,0,0:0:0:0:
231,187,101453,1,8,0:0:0:0:
230,188,101534,1,8,0:0:0:0:
230,188,101616,1,8,0:0:0:0:
223,184,101697,1,0,0:0:0:0:
233,186,101778,1,0,0:0:0:0:
233,186,101860,1,0,0:0:0:0:
233,186,101941,1,12,0:0:0:0:
112,277,102185,1,8,0:0:0:0:
112,284,102429,1,0,0:0:0:0:
112,284,102551,1,0,0:0:0:0:
112,284,102673,1,8,0:0:0:0:
112,284,102795,1,0,0:0:0:0:
112,284,102917,1,8,0:0:0:0:
119,279,103160,1,8,0:0:0:0:
119,279,103282,1,0,0:0:0:0:
123,279,103404,1,8,0:0:0:0:
123,279,103526,1,8,0:0:0:0:
123,279,103648,1,0,0:0:0:0:
126,281,103892,1,8,0:0:0:0:
123,279,104136,1,0,0:0:0:0:
123,279,104380,1,0,0:0:0:0:
126,281,104502,1,8,0:0:0:0:
126,281,104624,1,8,0:0:0:0:
123,279,104746,1,0,0:0:0:0:
123,279,104868,1,8,0:0:0:0:
119,269,105112,1,8,0:0:0:0:
119,269,105234,1,8,0:0:0:0:
137,271,105356,1,0,0:0:0:0:
137,271,105477,1,0,0:0:0:0:
137,271,105599,1,8,0:0:0:0:
137,271,105721,1,0,0:0:0:0:
137,270,105843,1,8,0:0:0:0:
137,271,106087,1,8,0:0:0:0:
137,271,106331,1,0,0:0:0:0:
137,271,106453,1,0,0:0:0:0:
137,270,106575,1,8,0:0:0:0:
137,271,106697,1,0,0:0:0:0:
137,271,106819,1,0,0:0:0:0:
137,271,106941,1,8,0:0:0:0:
137,271,107063,1,0,0:0:0:0:
123,273,107307,1,8,0:0:0:0:
137,271,107551,1,0,0:0:0:0:
137,271,107673,1,0,0:0:0:0:
137,271,107795,1,8,0:0:0:0:
134,271,108038,1,8,0:0:0:0:
137,271,108282,1,0,0:0:0:0:
137,271,108404,1,0,0:0:0:0:
137,271,108526,1,8,0:0:0:0:
134,271,108648,1,0,0:0:0:0:
134,271,108770,1,8,0:0:0:0:
137,271,108892,1,8,0:0:0:0:
149,275,109014,1,0,0:0:0:0:
148,268,109136,1,8,0:0:0:0:
148,268,109258,1,8,0:0:0:0:
148,268,109380,1,0,0:0:0:0:
148,268,109502,1,8,0:0:0:0:
152,269,109624,1,8,0:0:0:0:
152,269,109746,1,0,0:0:0:0:
153,249,109990,1,8,0:0:0:0:
152,277,110234,1,0,0:0:0:0:
155,280,110356,1,8,0:0:0:0:
159,281,110477,1,8,0:0:0:0:
159,281,110599,1,0,0:0:0:0:
159,277,110721,1,8,0:0:0:0:
159,277,110965,1,8,0:0:0:0:
135,286,111209,1,0,0:0:0:0:
135,286,111331,1,0,0:0:0:0:
146,278,111453,1,8,0:0:0:0:
146,278,111575,1,8,0:0:0:0:
149,262,111697,1,0,0:0:0:0:
142,271,111941,1,8,0:0:0:0:
142,271,112185,1,8,0:0:0:0:
142,271,112307,1,0,0:0:0:0:
142,271,112429,1,8,0:0:0:0:
149,269,112551,1,8,0:0:0:0:
149,269,112673,1,0,0:0:0:0:
149,269,112795,1,8,0:0:0:0:
149,269,112917,1,8,0:0:0:0:
156,273,113038,1,0,0:0:0:0:
152,262,113160,1,8,0:0:0:0:
152,262,113404,1,8,0:0:0:0:
152,262,113526,1,0,0:0:0:0:
152,262,113648,1,8,0:0:0:0:
152,262,113892,1,8,0:0:0:0:
152,262,114136,1,0,0:0:0:0:
152,262,114258,1,0,0:0:0:0:
152,262,114380,1,8,0:0:0:0:
152,262,114502,1,0,0:0:0:0:
152,262,114624,1,0,0:0:0:0:
152,262,114746,1,8,0:0:0:0:
152,262,114868,1,0,0:0:0:0:
144,264,115112,1,0,0:0:0:0:
144,264,115234,1,8,0:0:0:0:
144,264,115356,1,8,0:0:0:0:
144,264,115477,1,0,0:0:0:0:
144,264,115599,1,8,0:0:0:0:
143,271,115843,1,8,0:0:0:0:
143,271,116087,1,0,0:0:0:0:
143,271,116209,1,0,0:0:0:0:
145,272,116331,1,8,0:0:0:0:
143,271,116453,1,0,0:0:0:0:
143,271,116575,1,8,0:0:0:0:
143,271,116697,1,8,0:0:0:0:
143,271,116819,1,0,0:0:0:0:
143,271,116941,1,0,0:0:0:0:
145,272,117063,1,8,0:0:0:0:
143,271,117185,1,8,0:0:0:0:
147,262,117307,1,0,0:0:0:0:
147,262,117429,1,0,0:0:0:0:
121,6,117551,1,12,0:0:0:0:
145,272,117795,1,8,0:0:0:0:
142,271,118038,1,0,0:0:0:0:
142,271,118160,1,8,0:0:0:0:
145,272,118282,1,8,0:0:0:0:
145,272,118404,1,8,0:0:0:0:
145,272,118526,1,0,0:0:0:0:
142,271,118770,1,8,0:0:0:0:
139,274,119014,1,0,0:0:0:0:
139,274,119136,1,8,0:0:0:0:
125,273,119258,1,8,0:0:0:0:
125,273,119380,1,0,0:0:0:0:
125,273,119502,1,8,0:0:0:0:
128,273,119746,1,8,0:0:0:0:
125,273,119990,1,8,0:0:0:0:
125,273,120112,1,8,0:0:0:0:
125,273,120234,1,0,0:0:0:0:
128,273,120356,1,8,0:0:0:0:
128,273,120477,1,0,0:0:0:0:
129,264,120721,1,8,0:0:0:0:
125,273,120965,1,0,0:0:0:0:
128,273,121087,1,0,0:0:0:0:
128,273,121209,1,8,0:0:0:0:
121,266,121331,1,8,0:0:0:0:
121,266,121453,1,8,0:0:0:0:
121,266,121697,1,0,0:0:0:0:
121,266,121941,1,8,0:0:0:0:
121,266,122063,1,0,0:0:0:0:
121,266,122185,1,8,0:0:0:0:
121,266,122429,1,0,0:0:0:0:
121,266,122673,1,8,0:0:0:0:
121,266,122795,1,8,0:0:0:0:
121,266,122917,1,0,0:0:0:0:
121,266,123038,1,0,0:0:0:0:
121,266,123160,1,8,0:0:0:0:
121,266,123282,1,0,0:0:0:0:
121,266,123404,1,8,0:0:0:0:
115,271,123648,1,8,0:0:0:0:
115,271,123892,1,0,0:0:0:0:
115,271,124014,1,0,0:0:0:0:
115,271,124136,1,8,0:0:0:0:
115,271,124258,1,8,0:0:0:0:
110,273,124380,1,0,0:0:0:0:
110,273,124502,1,8,0:0:0:0:
110,273,124624,1,8,0:0:0:0:
110,273,124746,1,0,0:0:0:0:
110,273,124868,1,8,0:0:0:0:
110,273,124990,1,0,0:0:0:0:
110,273,125112,1,8,0:0:0:0:
105,260,125234,1,8,0:0:0:0:
105,260,125356,1,0,0:0:0:0:
105,260,125599,1,8,0:0:0:0:
105,260,125843,1,0,0:0:0:0:
105,260,125965,1,0,0:0:0:0:
105,260,126087,1,8,0:0:0:0:
105,260,126209,1,0,0:0:0:0:
105,260,126331,1,8,0:0:0:0:
109,250,126575,1,8,0:0:0:0:
109,250,126819,1,0,0:0:0:0:
109,250,126941,1,0,0:0:0:0:
117,253,127063,1,8,0:0:0:0:
117,253,127185,1,8,0:0:0:0:
117,253,127307,1,0,0:0:0:0:
115,241,127551,1,8,0:0:0:0:
115,241,127795,1,0,0:0:0:0:
115,241,127917,1,8,0:0:0:0:
119,234,128038,1,0,0:0:0:0:
119,234,128160,1,0,0:0:0:0:
119,234,128282,1,8,0:0:0:0:
119,234,128404,1,8,0:0:0:0:
119,234,128526,1,0,0:0:0:0:
119,234,128770,1,8,0:0:0:0:
121,240,128892,1,0,0:0:0:0:
121,240,129014,1,8,0:0:0:0:
121,240,129258,1,0,0:0:0:0:
121,240,129380,1,0,0:0:0:0:
121,240,129502,1,8,0:0:0:0:
121,240,129624,1,0,0:0:0:0:
121,240,129746,1,8,0:0:0:0:
121,240,129868,1,8,0:0:0:0:
121,240,129990,1,0,0:0:0:0:
125,243,130234,1,8,0:0:0:0:
125,243,130356,1,8,0:0:0:0:
125,243,130477,1,8,0:0:0:0:
126,242,130599,1,0,0:0:0:0:
125,232,130721,1,8,0:0:0:0:
125,232,130843,1,0,0:0:0:0:
125,232,130965,1,8,0:0:0:0:
125,232,131087,1,8,0:0:0:0:
108,72,131209,1,4,0:0:0:0:
125,266,131575,1,8,0:0:0:0:
125,266,131819,1,0,0:0:0:0:
125,266,131941,1,8,0:0:0:0:
125,266,132185,1,0,0:0:0:0:
125,266,132429,1,8,0:0:0:0:
120,281,132673,1,8,0:0:0:0:
120,281,132754,1,8,0:0:0:0:
120,281,132835,1,8,0:0:0:0:
120,281,132917,1,8,0:0:0:0:
71,29,133160,1,4,0:0:0:0:
120,281,133404,1,8,0:0:0:0:
120,281,133526,1,0,0:0:0:0:
120,281,133648,1,8,0:0:0:0:
120,281,133770,1,8,0:0:0:0:
120,281,133892,1,0,0:0:0:0:
120,281,134014,1,8,0:0:0:0:
104,281,134136,1,0,0:0:0:0:
114,277,134380,1,8,0:0:0:0:
114,277,134502,1,8,0:0:0:0:
114,277,134624,1,0,0:0:0:0:
114,277,134746,1,0,0:0:0:0:
114,277,134868,1,8,0:0:0:0:
114,277,134990,1,0,0:0:0:0:
110,283,135112,1,8,0:0:0:0:
110,283,135356,1,8,0:0:0:0:
104,270,135477,1,0,0:0:0:0:
104,270,135599,1,0,0:0:0:0:
104,270,135721,1,8,0:0:0:0:
104,270,135843,1,0,0:0:0:0:
104,270,135965,1,0,0:0:0:0:
104,270,136087,1,8,0:0:0:0:
104,270,136331,1,8,0:0:0:0:
104,270,136453,1,8,0:0:0:0:
104,270,136575,1,0,0:0:0:0:
104,270,136697,1,8,0:0:0:0:
104,270,136819,1,0,0:0:0:0:
110,267,136941,1,0,0:0:0:0:
110,266,137063,1,8,0:0:0:0:
110,266,137307,1,0,0:0:0:0:
110,266,137551,1,8,0:0:0:0:
110,267,137673,1,8,0:0:0:0:
110,266,137795,1,0,0:0:0:0:
110,266,137917,1,8,0:0:0:0:
103,261,138160,1,0,0:0:0:0:
106,256,138282,1,8,0:0:0:0:
106,256,138404,1,8,0:0:0:0:
106,256,138526,1,0,0:0:0:0:
106,256,138648,1,0,0:0:0:0:
106,256,138770,1,8,0:0:0:0:
106,256,138892,1,0,0:0:0:0:
106,256,139014,1,8,0:0:0:0:
106,264,139258,1,8,0:0:0:0:
107,261,139502,1,0,0:0:0:0:
107,261,139624,1,0,0:0:0:0:
107,261,139746,1,8,0:0:0:0:
106,264,139868,1,0,0:0:0:0:
100,261,139990,1,0,0:0:0:0:
107,261,140234,1,8,0:0:0:0:
107,261,140356,1,0,0:0:0:0:
107,261,140477,1,8,0:0:0:0:
106,257,140559,1,8,0:0:0:0:
107,261,140640,1,0,0:0:0:0:
106,266,140721,1,8,0:0:0:0:
107,261,140843,1,0,0:0:0:0:
95,34,140965,1,12,0:0:0:0:
101,267,141209,1,8,0:0:0:0:
106,266,141453,1,0,0:0:0:0:
101,267,141575,1,0,0:0:0:0:
101,267,141697,1,8,0:0:0:0:
101,267,141941,1,0,0:0:0:0:
106,266,142185,1,8,0:0:0:0:
101,267,142429,1,0,0:0:0:0:
101,267,142551,1,8,0:0:0:0:
105,259,142673,1,8,0:0:0:0:
105,259,142917,1,0,0:0:0:0:
105,258,143160,1,8,0:0:0:0:
105,259,143404,1,0,0:0:0:0:
105,259,143526,1,0,0:0:0:0:
105,259,143648,1,8,0:0:0:0:
105,258,143770,1,0,0:0:0:0:
105,258,143892,1,8,0:0:0:0:
105,259,144136,1,8,0:0:0:0:
105,259,144380,1,0,0:0:0:0:
105,258,144502,1,0,0:0:0:0:
105,258,144624,1,8,0:0:0:0:
105,259,144868,1,0,0:0:0:0:
105,259,145112,1,8,0:0:0:0:
105,258,145356,1,0,0:0:0:0:
105,259,145477,1,0,0:0:0:0:
105,259,145599,1,8,0:0:0:0:
105,259,145843,1,0,0:0:0:0:
105,258,146087,1,8,0:0:0:0:
105,259,146331,1,0,0:0:0:0:
105,259,146453,1,0,0:0:0:0:
105,259,146575,1,8,0:0:0:0:
105,258,146697,1,0,0:0:0:0:
105,258,146819,1,8,0:0:0:0:
105,259,147063,1,8,0:0:0:0:
105,259,147185,1,0,0:0:0:0:
105,259,147307,1,8,0:0:0:0:
105,258,147429,1,0,0:0:0:0:
105,258,147551,1,8,0:0:0:0:
105,259,147795,1,8,0:0:0:0:
105,259,148038,1,8,0:0:0:0:
105,258,148160,1,0,0:0:0:0:
105,258,148282,1,8,0:0:0:0:
105,259,148404,1,0,0:0:0:0:
105,259,148526,1,8,0:0:0:0:
105,259,148648,1,8,0:0:0:0:
105,259,148709,1,8,0:0:0:0:
105,259,148770,1,0,0:0:0:0:
120,249,149014,1,8,0:0:0:0:
112,252,149258,1,0,0:0:0:0:
112,252,149380,1,0,0:0:0:0:
112,252,149502,1,8,0:0:0:0:
112,252,149746,1,0,0:0:0:0:
112,252,149990,1,8,0:0:0:0:
112,252,150112,1,0,0:0:0:0:
106,255,150356,1,0,0:0:0:0:
106,255,150477,1,8,0:0:0:0:
112,252,150721,1,0,0:0:0:0:
110,252,150965,1,8,0:0:0:0:
113,254,151087,1,0,0:0:0:0:
108,255,151331,1,0,0:0:0:0:
108,255,151453,1,8,0:0:0:0:
110,252,151575,1,0,0:0:0:0:
110,252,151697,1,8,0:0:0:0:
102,251,151941,1,8,0:0:0:0:
102,251,152063,1,0,0:0:0:0:
102,251,152307,1,0,0:0:0:0:
102,251,152429,1,8,0:0:0:0:
102,251,152551,1,8,0:0:0:0:
107,246,152673,1,0,0:0:0:0:
100,239,152917,1,8,0:0:0:0:
110,254,153160,1,0,0:0:0:0:
110,254,153282,1,0,0:0:0:0:
110,254,153404,1,8,0:0:0:0:
110,254,153648,1,0,0:0:0:0:
110,254,153892,1,8,0:0:0:0:
110,254,154136,1,8,0:0:0:0:
110,254,154258,1,0,0:0:0:0:
110,254,154380,1,8,0:0:0:0:
117,250,154624,1,0,0:0:0:0:
117,258,154868,1,8,0:0:0:0:
117,258,155112,1,0,0:0:0:0:
117,258,155234,1,0,0:0:0:0:
117,258,155356,1,8,0:0:0:0:
117,258,155599,1,0,0:0:0:0:
117,258,155721,1,8,0:0:0:0:
117,258,155843,1,8,0:0:0:0:
117,258,155965,1,0,0:0:0:0:
117,258,156087,1,8,0:0:0:0:
124,264,156169,1,8,0:0:0:0:
128,253,156250,1,0,0:0:0:0:
126,262,156331,1,0,0:0:0:0:
136,253,156453,1,0,0:0:0:0:
100,35,156575,1,12,0:0:0:0:
134,261,156697,1,0,0:0:0:0:
134,261,156819,1,0,0:0:0:0:
134,261,156941,1,8,0:0:0:0:
134,261,157063,1,8,0:0:0:0:
134,261,157185,1,0,0:0:0:0:
105,11,157307,1,12,0:0:0:0:
123,271,157795,1,0,0:0:0:0:
123,271,158038,1,0,0:0:0:0:
123,271,158160,1,0,0:0:0:0:
123,271,158282,1,8,0:0:0:0:
115,275,158404,1,0,0:0:0:0:
123,271,158526,1,8,0:0:0:0:
123,271,158892,1,0,0:0:0:0:
123,271,159014,1,8,0:0:0:0:
123,271,159258,1,0,0:0:0:0:
123,271,159746,1,0,0:0:0:0:
123,271,159868,1,0,0:0:0:0:
123,271,159990,1,8,0:0:0:0:
123,271,160112,1,0,0:0:0:0:
123,271,160234,1,0,0:0:0:0:
109,18,160477,1,12,0:0:0:0:
127,278,160599,1,0,0:0:0:0:
127,278,160721,1,0,0:0:0:0:
127,278,160843,1,8,0:0:0:0:
127,278,160965,1,8,0:0:0:0:
127,278,161087,1,0,0:0:0:0:
93,18,161209,1,12,0:0:0:0:
127,278,161697,1,0,0:0:0:0:
127,278,161941,1,8,0:0:0:0:
127,278,162063,1,0,0:0:0:0:
127,278,162307,1,0,0:0:0:0:
87,264,162429,2,0,B|427:251|427:251|63:264,1,692.999978851319
103,269,163892,1,8,0:0:0:0:
106,283,164014,1,0,0:0:0:0:
86,10,164380,1,12,0:0:0:0:
100,285,164502,1,0,0:0:0:0:
115,288,164563,1,0,0:0:0:0:
100,285,164624,1,8,0:0:0:0:
106,283,164746,1,8,0:0:0:0:
101,286,164807,1,8,0:0:0:0:
100,285,164868,1,0,0:0:0:0:
100,285,164990,1,0,0:0:0:0:
92,46,165112,1,12,0:0:0:0:
109,275,165599,1,0,0:0:0:0:
110,259,165843,1,8,0:0:0:0:
109,275,165965,1,0,0:0:0:0:
109,275,166209,1,0,0:0:0:0:
109,275,166331,1,8,0:0:0:0:
109,275,166697,1,0,0:0:0:0:
109,275,166819,1,8,0:0:0:0:
109,275,167124,1,0,0:0:0:0:
108,263,167551,1,0,0:0:0:0:
108,263,167673,1,0,0:0:0:0:
108,263,167795,1,8,0:0:0:0:
108,263,167917,1,8,0:0:0:0:
108,263,168038,1,0,0:0:0:0:
100,40,168282,1,12,0:0:0:0:
108,263,168770,1,0,0:0:0:0:
110,258,169014,1,0,0:0:0:0:
110,258,169258,1,8,0:0:0:0:
110,258,169502,1,0,0:0:0:0:
110,258,169746,1,8,0:0:0:0:
110,258,169868,1,8,0:0:0:0:
110,258,169990,1,0,0:0:0:0:
103,50,170234,1,12,0:0:0:0:
115,255,170477,1,0,0:0:0:0:
129,273,170599,1,0,0:0:0:0:
129,273,170660,1,0,0:0:0:0:
129,273,170721,1,8,0:0:0:0:
117,260,170965,1,8,0:0:0:0:
116,278,171209,1,0,0:0:0:0:
116,272,171453,1,8,0:0:0:0:
137,295,171575,1,0,0:0:0:0:
126,294,171697,1,8,0:0:0:0:
126,294,171778,1,8,0:0:0:0:
126,294,171860,1,8,0:0:0:0:
126,294,171941,1,0,0:0:0:0:
126,294,172022,1,8,0:0:0:0:
126,294,172104,1,8,0:0:0:0:
104,27,172185,1,4,0:0:0:0:
251,192,172429,1,8,0:0:0:0:
251,192,172551,1,8,0:0:0:0:
251,192,172673,1,0,0:0:0:0:
251,192,172795,1,0,0:0:0:0:
251,192,172917,1,8,0:0:0:0:
251,192,173038,1,0,0:0:0:0:
247,185,173160,1,8,0:0:0:0:
251,187,173404,1,0,0:0:0:0:
251,187,173526,1,8,0:0:0:0:
251,187,173648,1,0,0:0:0:0:
253,186,173770,1,0,0:0:0:0:
253,186,173892,1,8,0:0:0:0:
248,187,174014,1,8,0:0:0:0:
247,185,174136,1,0,0:0:0:0:
251,187,174380,1,8,0:0:0:0:
269,204,174502,1,0,0:0:0:0:
269,204,174624,1,8,0:0:0:0:
269,204,174746,1,8,0:0:0:0:
269,204,174868,1,0,0:0:0:0:
247,185,175112,1,8,0:0:0:0:
251,187,175356,1,8,0:0:0:0:
251,187,175477,1,0,0:0:0:0:
251,187,175599,1,8,0:0:0:0:
253,186,175721,1,8,0:0:0:0:
253,186,175843,1,0,0:0:0:0:
248,187,175965,1,8,0:0:0:0:
252,190,176087,1,0,0:0:0:0:
256,189,176331,1,0,0:0:0:0:
256,189,176453,1,8,0:0:0:0:
256,189,176575,1,0,0:0:0:0:
256,189,176697,1,0,0:0:0:0:
256,189,176819,1,8,0:0:0:0:
256,189,176941,1,0,0:0:0:0:
252,190,177063,1,8,0:0:0:0:
248,186,177307,1,8,0:0:0:0:
248,186,177429,1,0,0:0:0:0:
256,189,177551,1,8,0:0:0:0:
256,189,177673,1,8,0:0:0:0:
256,189,177795,1,0,0:0:0:0:
256,189,177917,1,8,0:0:0:0:
252,190,178038,1,0,0:0:0:0:
248,186,178282,1,8,0:0:0:0:
247,187,178526,1,8,0:0:0:0:
247,187,178648,1,0,0:0:0:0:
256,189,178770,1,8,0:0:0:0:
247,187,178892,1,0,0:0:0:0:
252,190,179014,1,0,0:0:0:0:
254,188,179258,1,8,0:0:0:0:
254,188,179380,1,8,0:0:0:0:
254,188,179502,1,0,0:0:0:0:
254,189,179624,1,8,0:0:0:0:
254,189,179746,1,0,0:0:0:0:
256,189,179868,1,0,0:0:0:0:
252,190,179990,1,8,0:0:0:0:
254,188,180234,1,0,0:0:0:0:
254,188,180356,1,8,0:0:0:0:
254,188,180477,1,0,0:0:0:0:
254,189,180599,1,0,0:0:0:0:
254,189,180721,1,8,0:0:0:0:
256,189,180843,1,8,0:0:0:0:
252,190,180965,1,0,0:0:0:0:
258,180,181209,1,8,0:0:0:0:
258,180,181331,1,0,0:0:0:0:
258,180,181453,1,8,0:0:0:0:
258,180,181575,1,8,0:0:0:0:
258,180,181697,1,0,0:0:0:0:
258,181,181819,1,8,0:0:0:0:
258,181,181941,1,0,0:0:0:0:
253,181,182185,1,8,0:0:0:0:
253,181,182429,1,0,0:0:0:0:
253,181,182551,1,0,0:0:0:0:
253,181,182673,1,8,0:0:0:0:
253,182,182795,1,0,0:0:0:0:
254,184,182917,1,8,0:0:0:0:
253,181,183160,1,8,0:0:0:0:
253,181,183282,1,8,0:0:0:0:
253,181,183404,1,0,0:0:0:0:
253,181,183526,1,8,0:0:0:0:
253,181,183648,1,0,0:0:0:0:
254,184,183770,1,0,0:0:0:0:
253,181,183892,1,0,0:0:0:0:
253,181,184136,1,8,0:0:0:0:
253,181,184380,1,0,0:0:0:0:
253,181,184502,1,0,0:0:0:0:
253,181,184624,1,8,0:0:0:0:
251,187,184868,1,0,0:0:0:0:
251,187,185112,1,8,0:0:0:0:
251,187,185356,1,8,0:0:0:0:
251,187,185477,1,0,0:0:0:0:
251,187,185599,1,8,0:0:0:0:
251,187,185843,1,0,0:0:0:0:
251,187,186087,1,8,0:0:0:0:
251,187,186331,1,0,0:0:0:0:
251,187,186453,1,0,0:0:0:0:
251,187,186575,1,8,0:0:0:0:
249,194,186819,1,0,0:0:0:0:
251,187,187063,1,8,0:0:0:0:
251,187,187185,1,8,0:0:0:0:
251,187,187307,1,0,0:0:0:0:
251,187,187429,1,8,0:0:0:0:
251,187,187551,1,0,0:0:0:0:
248,186,187673,1,0,0:0:0:0:
251,182,187795,1,12,0:0:0:0:
242,188,188038,1,0,0:0:0:0:
242,188,188160,1,8,0:0:0:0:
242,188,188282,1,0,0:0:0:0:
242,189,188404,1,0,0:0:0:0:
241,188,188526,1,8,0:0:0:0:
241,188,188648,1,0,0:0:0:0:
242,188,188770,1,8,0:0:0:0:
237,180,189014,1,8,0:0:0:0:
237,180,189136,1,0,0:0:0:0:
237,180,189258,1,8,0:0:0:0:
237,180,189380,1,8,0:0:0:0:
237,180,189502,1,0,0:0:0:0:
240,182,189624,1,8,0:0:0:0:
242,188,189746,1,0,0:0:0:0:
243,172,189990,1,8,0:0:0:0:
243,172,190234,1,0,0:0:0:0:
243,172,190356,1,8,0:0:0:0:
241,173,190477,1,8,0:0:0:0:
241,175,190599,1,0,0:0:0:0:
240,177,190721,1,8,0:0:0:0:
243,172,190965,1,8,0:0:0:0:
243,172,191087,1,0,0:0:0:0:
242,180,191209,1,8,0:0:0:0:
241,182,191331,1,8,0:0:0:0:
243,182,191453,1,0,0:0:0:0:
242,182,191575,1,8,0:0:0:0:
242,185,191697,1,0,0:0:0:0:
231,174,191941,1,0,0:0:0:0:
231,174,192063,1,0,0:0:0:0:
231,176,192185,1,8,0:0:0:0:
230,181,192307,1,0,0:0:0:0:
231,185,192429,1,8,0:0:0:0:
233,183,192551,1,8,0:0:0:0:
233,184,192673,1,0,0:0:0:0:
235,184,192917,1,8,0:0:0:0:
235,183,193038,1,0,0:0:0:0:
233,183,193160,1,0,0:0:0:0:
230,181,193282,1,8,0:0:0:0:
236,184,193404,1,0,0:0:0:0:
239,186,193526,1,8,0:0:0:0:
233,184,193648,1,8,0:0:0:0:
235,184,193892,1,0,0:0:0:0:
233,183,194136,1,8,0:0:0:0:
230,181,194258,1,8,0:0:0:0:
227,186,194380,1,0,0:0:0:0:
227,186,194624,1,8,0:0:0:0:
235,184,194868,1,0,0:0:0:0:
233,183,194990,1,0,0:0:0:0:
233,183,195112,1,8,0:0:0:0:
234,187,195234,1,0,0:0:0:0:
234,187,195356,1,8,0:0:0:0:
236,191,195599,1,8,0:0:0:0:
236,190,195843,1,8,0:0:0:0:
236,190,195965,1,8,0:0:0:0:
235,197,196087,1,0,0:0:0:0:
234,194,196209,1,8,0:0:0:0:
238,195,196331,1,0,0:0:0:0:
236,191,196453,1,0,0:0:0:0:
238,197,196575,1,8,0:0:0:0:
237,194,196819,1,0,0:0:0:0:
237,194,196941,1,0,0:0:0:0:
235,197,197063,1,8,0:0:0:0:
243,192,197185,1,0,0:0:0:0:
238,195,197307,1,8,0:0:0:0:
241,196,197429,1,8,0:0:0:0:
238,197,197551,1,0,0:0:0:0:
237,194,197795,1,8,0:0:0:0:
235,197,198038,1,8,0:0:0:0:
235,195,198160,1,8,0:0:0:0:
238,195,198282,1,0,0:0:0:0:
241,196,198404,1,8,0:0:0:0:
238,197,198526,1,0,0:0:0:0:
237,194,198770,1,8,0:0:0:0:
235,197,199014,1,0,0:0:0:0:
238,201,199136,1,0,0:0:0:0:
239,203,199258,1,8,0:0:0:0:
226,197,199380,1,0,0:0:0:0:
226,197,199502,1,12,0:0:0:0:
232,200,199746,1,8,0:0:0:0:
235,197,199868,1,8,0:0:0:0:
235,197,199990,1,0,0:0:0:0:
238,201,200112,1,8,0:0:0:0:
239,203,200234,1,0,0:0:0:0:
236,199,200315,1,0,0:0:0:0:
232,200,200396,1,0,0:0:0:0:
231,197,200477,1,8,0:0:0:0:
237,188,200721,1,8,0:0:0:0:
237,188,200843,1,0,0:0:0:0:
239,191,200965,1,8,0:0:0:0:
241,194,201087,1,8,0:0:0:0:
241,193,201209,1,0,0:0:0:0:
241,194,201331,1,8,0:0:0:0:
241,194,201453,1,0,0:0:0:0:
238,192,201697,1,8,0:0:0:0:
239,191,201941,1,0,0:0:0:0:
241,194,202063,1,0,0:0:0:0:
241,193,202185,1,8,0:0:0:0:
247,189,202429,1,0,0:0:0:0:
247,189,202673,1,8,0:0:0:0:
248,191,202795,1,8,0:0:0:0:
250,192,202917,1,0,0:0:0:0:
249,192,203038,1,0,0:0:0:0:
249,194,203160,1,0,0:0:0:0:
247,189,203282,1,8,0:0:0:0:
247,193,203404,1,0,0:0:0:0:
237,184,203648,1,8,0:0:0:0:
237,184,203892,1,0,0:0:0:0:
237,184,204014,1,0,0:0:0:0:
237,189,204136,1,8,0:0:0:0:
235,187,204380,1,0,0:0:0:0:
237,184,204624,1,8,0:0:0:0:
237,184,204868,1,8,0:0:0:0:
237,184,204990,1,0,0:0:0:0:
237,189,205112,1,8,0:0:0:0:
235,192,205356,1,8,0:0:0:0:
223,182,205599,1,0,0:0:0:0:
223,182,205843,1,8,0:0:0:0:
223,182,205965,1,8,0:0:0:0:
223,183,206087,1,0,0:0:0:0:
223,185,206209,1,8,0:0:0:0:
225,184,206331,1,0,0:0:0:0:
232,184,206575,1,8,0:0:0:0:
232,185,206819,1,0,0:0:0:0:
232,185,207063,1,0,0:0:0:0:
234,186,207185,1,0,0:0:0:0:
234,186,207307,1,12,0:0:0:0:
237,185,207551,1,8,0:0:0:0:
237,185,207795,1,0,0:0:0:0:
242,190,208038,1,8,0:0:0:0:
234,186,208160,1,8,0:0:0:0:
234,186,208282,1,0,0:0:0:0:
242,190,208526,1,8,0:0:0:0:
242,190,208770,1,0,0:0:0:0:
242,190,208892,1,0,0:0:0:0:
239,193,209014,1,8,0:0:0:0:
239,192,209136,1,8,0:0:0:0:
240,193,209258,1,0,0:0:0:0:
236,192,209502,1,8,0:0:0:0:
236,192,209746,1,0,0:0:0:0:
236,193,209868,1,0,0:0:0:0:
239,193,209990,1,8,0:0:0:0:
235,195,210234,1,0,0:0:0:0:
236,192,210477,1,8,0:0:0:0:
236,192,210721,1,8,0:0:0:0:
239,193,210965,1,8,0:0:0:0:
236,193,211209,1,0,0:0:0:0:
236,192,211453,1,8,0:0:0:0:
236,192,211697,1,0,0:0:0:0:
232,192,211819,1,0,0:0:0:0:
232,192,211941,1,8,0:0:0:0:
236,193,212063,1,0,0:0:0:0:
236,193,212185,1,8,0:0:0:0:
236,192,212429,1,8,0:0:0:0:
236,192,212673,1,8,0:0:0:0:
232,192,212795,1,8,0:0:0:0:
233,196,212917,1,0,0:0:0:0:
234,205,213038,1,8,0:0:0:0:
234,207,213160,1,0,0:0:0:0:
236,192,213404,1,8,0:0:0:0:
236,192,213648,1,0,0:0:0:0:
232,192,213770,1,8,0:0:0:0:
237,193,213892,1,0,0:0:0:0:
239,197,214014,1,0,0:0:0:0:
235,195,214136,1,8,0:0:0:0:
240,194,214380,1,12,0:0:0:0:
240,193,214624,1,8,0:0:0:0:
240,193,214746,1,8,0:0:0:0:
243,194,214868,1,8,0:0:0:0:
246,196,214990,1,0,0:0:0:0:
243,196,215112,1,12,0:0:0:0:
240,201,215234,1,0,0:0:0:0:
233,195,215295,1,0,0:0:0:0:
240,201,215356,1,8,0:0:0:0:
247,205,215477,1,0,0:0:0:0:
241,201,215599,1,8,0:0:0:0:
241,201,215721,1,8,0:0:0:0:
244,203,215843,1,0,0:0:0:0:
243,202,215965,1,8,0:0:0:0:
243,202,216026,1,8,0:0:0:0:
243,202,216087,1,0,0:0:0:0:
240,201,216209,1,8,0:0:0:0:
239,200,216331,1,0,0:0:0:0:
240,201,216392,1,0,0:0:0:0:
239,200,216453,1,0,0:0:0:0:
241,201,216575,1,0,0:0:0:0:
241,201,216697,1,0,0:0:0:0:
238,201,216819,1,8,0:0:0:0:
243,202,216941,1,0,0:0:0:0:
243,202,217063,1,8,0:0:0:0:
239,200,217307,1,8,0:0:0:0:
237,196,217429,1,8,0:0:0:0:
239,200,217490,1,0,0:0:0:0:
241,201,217551,1,0,0:0:0:0:
241,201,217673,1,0,0:0:0:0:
242,197,217795,1,0,0:0:0:0:
243,202,217917,1,8,0:0:0:0:
243,202,218038,1,0,0:0:0:0:
218,191,218282,1,0,0:0:0:0:
227,194,218526,1,0,0:0:0:0:
227,194,218648,1,0,0:0:0:0:
227,196,218770,1,8,0:0:0:0:
228,196,218892,1,0,0:0:0:0:
226,195,218953,1,0,0:0:0:0:
229,194,219014,1,8,0:0:0:0:
227,194,219258,1,0,0:0:0:0:
237,199,219502,1,8,0:0:0:0:
237,199,219624,1,0,0:0:0:0:
237,199,219746,1,8,0:0:0:0:
239,201,219868,1,8,0:0:0:0:
241,201,219990,1,0,0:0:0:0:
242,205,220234,1,8,0:0:0:0:
242,205,220477,1,0,0:0:0:0:
242,205,220599,1,0,0:0:0:0:
241,209,220721,1,8,0:0:0:0:
239,201,220843,1,8,0:0:0:0:
239,201,220904,1,8,0:0:0:0:
241,201,220965,1,8,0:0:0:0:
232,198,221087,1,0,0:0:0:0:
232,198,221209,1,8,0:0:0:0:
231,195,221331,1,8,0:0:0:0:
231,195,221453,1,0,0:0:0:0:
231,195,221575,1,0,0:0:0:0:
233,197,221636,1,0,0:0:0:0:
231,195,221697,1,8,0:0:0:0:
232,197,221758,1,8,0:0:0:0:
233,197,221819,1,8,0:0:0:0:
234,196,221941,1,0,0:0:0:0:
221,189,222063,1,8,0:0:0:0:
221,189,222124,1,8,0:0:0:0:
221,189,222185,1,0,0:0:0:0:
221,189,222307,1,0,0:0:0:0:
221,189,222429,1,8,0:0:0:0:
216,193,222551,1,0,0:0:0:0:
216,193,222673,1,8,0:0:0:0:
216,195,222917,1,0,0:0:0:0:
218,199,223160,1,8,0:0:0:0:
218,199,223221,1,0,0:0:0:0:
218,199,223282,1,8,0:0:0:0:
218,199,223343,1,8,0:0:0:0:
218,199,223404,1,8,0:0:0:0:
216,201,223526,1,0,0:0:0:0:
216,201,223648,1,8,0:0:0:0:
205,195,223892,1,0,0:0:0:0:
205,195,224136,1,8,0:0:0:0:
205,195,224380,1,8,0:0:0:0:
205,195,224502,1,0,0:0:0:0:
205,195,224624,1,8,0:0:0:0:
188,198,224868,1,0,0:0:0:0:
187,197,225112,1,0,0:0:0:0:
205,195,225234,1,0,0:0:0:0:
205,195,225295,1,0,0:0:0:0:
205,195,225356,1,8,0:0:0:0:
205,195,225477,1,0,0:0:0:0:
201,199,225599,1,8,0:0:0:0:
197,194,225843,1,8,0:0:0:0:
197,194,226087,1,0,0:0:0:0:
197,194,226209,1,8,0:0:0:0:
195,198,226453,1,0,0:0:0:0:
195,198,226575,1,8,0:0:0:0:
197,194,226697,1,8,0:0:0:0:
197,194,226758,1,8,0:0:0:0:
194,199,226819,1,0,0:0:0:0:
195,187,227307,1,0,0:0:0:0:
195,187,227795,1,8,0:0:0:0:
195,187,228221,1,0,0:0:0:0:
195,187,228282,1,8,0:0:0:0:
195,187,228526,1,0,0:0:0:0:
191,193,228770,1,12,0:0:0:0:
198,194,229014,1,0,0:0:0:0:
196,194,229258,1,8,0:0:0:0:
196,194,229502,1,12,0:0:0:0:
191,193,229746,1,0,0:0:0:0:
198,194,229990,1,8,0:0:0:0:
196,194,230071,1,8,0:0:0:0:
196,194,230152,1,8,0:0:0:0:
196,194,230234,1,0,0:0:0:0:
192,199,230356,1,8,0:0:0:0:
196,187,230477,1,0,0:0:0:0:
191,193,230559,1,8,0:0:0:0:
191,193,230640,1,8,0:0:0:0:
191,193,230721,1,0,0:0:0:0:
120,276,232419,1,0,0:0:0:0:
120,276,232724,1,8,0:0:0:0:
120,276,233700,1,8,0:0:0:0:
120,276,234675,1,0,0:0:0:0:
120,276,236383,1,0,0:0:0:0:
120,276,236627,1,8,0:0:0:0:
120,276,238090,1,0,0:0:0:0:
120,276,238334,1,0,0:0:0:0:
120,276,238578,1,8,0:0:0:0:
120,276,240285,1,8,0:0:0:0:
120,276,240529,1,0,0:0:0:0:
121,277,241505,1,0,0:0:0:0:
102,287,242925,1,8,0:0:0:0:
102,287,243006,1,8,0:0:0:0:
102,287,243087,1,0,0:0:0:0:
100,295,243168,1,8,0:0:0:0:
100,295,243250,1,8,0:0:0:0:
100,295,243331,1,0,0:0:0:0:
118,41,243412,1,12,0:0:0:0:
117,284,243655,1,8,0:0:0:0:
117,284,243899,1,0,0:0:0:0:
117,284,244021,1,0,0:0:0:0:
117,284,244143,1,8,0:0:0:0:
117,284,244265,1,0,0:0:0:0:
117,284,244387,1,8,0:0:0:0:
117,284,244509,1,8,0:0:0:0:
117,284,244631,1,0,0:0:0:0:
136,252,244875,1,0,0:0:0:0:
128,264,244997,1,8,0:0:0:0:
120,259,245119,1,8,0:0:0:0:
120,259,245241,1,0,0:0:0:0:
120,259,245363,1,8,0:0:0:0:
120,259,245485,1,0,0:0:0:0:
120,259,245607,1,0,0:0:0:0:
120,252,245851,1,0,0:0:0:0:
120,252,245972,1,0,0:0:0:0:
120,252,246094,1,8,0:0:0:0:
120,252,246216,1,0,0:0:0:0:
120,252,246338,1,8,0:0:0:0:
122,241,246582,1,8,0:0:0:0:
122,241,246704,1,8,0:0:0:0:
122,241,246826,1,0,0:0:0:0:
122,241,246948,1,8,0:0:0:0:
122,241,247070,1,8,0:0:0:0:
122,241,247314,1,0,0:0:0:0:
111,245,247558,1,8,0:0:0:0:
111,245,247680,1,0,0:0:0:0:
111,245,247802,1,8,0:0:0:0:
111,245,247924,1,8,0:0:0:0:
111,245,248046,1,0,0:0:0:0:
111,245,248168,1,0,0:0:0:0:
111,245,248290,1,8,0:0:0:0:
111,245,248533,1,8,0:0:0:0:
111,245,248777,1,0,0:0:0:0:
111,245,248899,1,0,0:0:0:0:
111,245,249021,1,8,0:0:0:0:
111,245,249143,1,8,0:0:0:0:
111,245,249265,1,0,0:0:0:0:
111,245,249509,1,8,0:0:0:0:
105,245,249753,1,8,0:0:0:0:
105,245,249875,1,0,0:0:0:0:
105,245,249997,1,8,0:0:0:0:
105,245,250119,1,8,0:0:0:0:
105,245,250241,1,0,0:0:0:0:
105,245,250363,1,8,0:0:0:0:
105,245,250485,1,0,0:0:0:0:
105,245,250607,1,0,0:0:0:0:
105,245,250729,1,8,0:0:0:0:
105,245,250851,1,0,0:0:0:0:
105,245,250972,1,8,0:0:0:0:
105,245,251094,1,8,0:0:0:0:
105,245,251216,1,0,0:0:0:0:
88,263,251460,1,8,0:0:0:0:
89,262,251704,1,0,0:0:0:0:
89,262,251826,1,0,0:0:0:0:
89,262,251948,1,8,0:0:0:0:
88,263,252070,1,0,0:0:0:0:
88,263,252192,1,8,0:0:0:0:
89,262,252436,1,8,0:0:0:0:
90,269,252680,1,0,0:0:0:0:
90,269,252802,1,8,0:0:0:0:
90,269,252924,1,0,0:0:0:0:
94,269,253046,1,0,0:0:0:0:
95,268,253168,1,8,0:0:0:0:
95,252,253412,1,8,0:0:0:0:
96,257,253655,1,0,0:0:0:0:
96,257,253777,1,0,0:0:0:0:
96,257,253899,1,8,0:0:0:0:
96,257,254021,1,8,0:0:0:0:
96,257,254143,1,0,0:0:0:0:
106,255,254387,1,8,0:0:0:0:
106,255,254509,1,0,0:0:0:0:
106,255,254753,1,0,0:0:0:0:
117,252,254875,1,8,0:0:0:0:
117,252,254997,1,8,0:0:0:0:
117,252,255119,1,0,0:0:0:0:
120,251,255363,1,8,0:0:0:0:
117,252,255607,1,0,0:0:0:0:
117,252,255729,1,0,0:0:0:0:
117,252,255851,1,8,0:0:0:0:
120,251,256094,1,0,0:0:0:0:
117,252,256338,1,8,0:0:0:0:
117,252,256460,1,8,0:0:0:0:
117,252,256582,1,8,0:0:0:0:
116,255,256704,1,0,0:0:0:0:
116,255,256826,1,0,0:0:0:0:
120,244,257070,1,8,0:0:0:0:
120,244,257314,1,8,0:0:0:0:
120,244,257436,1,0,0:0:0:0:
120,244,257558,1,0,0:0:0:0:
120,244,257680,1,8,0:0:0:0:
120,244,257802,1,8,0:0:0:0:
120,244,258046,1,0,0:0:0:0:
110,235,258168,1,8,0:0:0:0:
110,235,258290,1,8,0:0:0:0:
110,235,258411,1,0,0:0:0:0:
110,235,258533,1,8,0:0:0:0:
110,235,258655,1,8,0:0:0:0:
120,244,258777,1,8,0:0:0:0:
120,244,258899,1,0,0:0:0:0:
112,18,259021,1,12,0:0:0:0:
112,250,259265,1,8,0:0:0:0:
112,250,259509,1,0,0:0:0:0:
112,250,259631,1,0,0:0:0:0:
112,250,259753,1,8,0:0:0:0:
95,254,259875,1,0,0:0:0:0:
96,254,259997,1,8,0:0:0:0:
105,244,260241,1,8,0:0:0:0:
105,244,260363,1,0,0:0:0:0:
105,244,260485,1,0,0:0:0:0:
105,244,260607,1,8,0:0:0:0:
104,242,260729,1,8,0:0:0:0:
105,244,260851,1,0,0:0:0:0:
105,244,260972,1,8,0:0:0:0:
105,244,261216,1,8,0:0:0:0:
104,242,261460,1,0,0:0:0:0:
105,244,261582,1,0,0:0:0:0:
105,244,261704,1,8,0:0:0:0:
105,244,261826,1,8,0:0:0:0:
105,244,261948,1,0,0:0:0:0:
103,250,262192,1,8,0:0:0:0:
110,254,262436,1,0,0:0:0:0:
110,254,262558,1,8,0:0:0:0:
110,254,262680,1,0,0:0:0:0:
110,254,262802,1,0,0:0:0:0:
112,33,262924,1,12,0:0:0:0:
110,254,263168,1,0,0:0:0:0:
110,254,263290,1,8,0:0:0:0:
102,243,263412,1,0,0:0:0:0:
112,249,263594,1,0,0:0:0:0:
108,246,263777,1,0,0:0:0:0:
111,34,263899,1,12,0:0:0:0:
103,250,264265,1,0,0:0:0:0:
104,260,264631,1,0,0:0:0:0:
107,27,264875,1,12,0:0:0:0:
113,279,265241,1,0,0:0:0:0:
114,276,265363,1,8,0:0:0:0:
113,279,265607,1,8,0:0:0:0:
97,292,265688,1,8,0:0:0:0:
97,292,265769,1,8,0:0:0:0:
84,0,265851,1,4,0:0:0:0:
120,295,266094,1,0,0:0:0:0:
122,302,266216,1,0,0:0:0:0:
122,302,266338,1,8,0:0:0:0:
122,302,266460,1,8,0:0:0:0:
120,307,266582,1,0,0:0:0:0:
122,306,266704,1,0,0:0:0:0:
122,306,266765,1,0,0:0:0:0:
90,20,266826,1,12,0:0:0:0:
128,279,267070,1,8,0:0:0:0:
128,279,267314,1,0,0:0:0:0:
128,279,267436,1,0,0:0:0:0:
128,279,267558,1,8,0:0:0:0:
128,279,267680,1,0,0:0:0:0:
128,279,267802,1,0,0:0:0:0:
128,279,268046,1,8,0:0:0:0:
128,279,268168,1,0,0:0:0:0:
128,279,268290,1,8,0:0:0:0:
126,272,268371,1,8,0:0:0:0:
126,272,268452,1,8,0:0:0:0:
126,272,268533,1,0,0:0:0:0:
126,272,268615,1,0,0:0:0:0:
126,272,268696,1,0,0:0:0:0:
126,28,268777,1,12,0:0:0:0:
145,71,269753,1,4,0:0:0:0:
71,29,270729,1,12,0:0:0:0:
120,281,270972,1,8,0:0:0:0:
120,281,271094,1,0,0:0:0:0:
120,281,271216,1,8,0:0:0:0:
120,281,271338,1,8,0:0:0:0:
120,281,271460,1,0,0:0:0:0:
120,281,271582,1,8,0:0:0:0:
104,281,271826,1,0,0:0:0:0:
114,277,271948,1,8,0:0:0:0:
114,277,272070,1,8,0:0:0:0:
114,277,272192,1,0,0:0:0:0:
114,277,272314,1,0,0:0:0:0:
114,277,272436,1,8,0:0:0:0:
110,283,272680,1,8,0:0:0:0:
110,283,272924,1,8,0:0:0:0:
104,270,273046,1,0,0:0:0:0:
104,270,273168,1,8,0:0:0:0:
104,270,273290,1,8,0:0:0:0:
104,270,273411,1,0,0:0:0:0:
104,270,273533,1,8,0:0:0:0:
98,258,273777,1,0,0:0:0:0:
104,270,273899,1,8,0:0:0:0:
104,270,274021,1,0,0:0:0:0:
104,270,274143,1,0,0:0:0:0:
104,270,274265,1,8,0:0:0:0:
104,270,274387,1,0,0:0:0:0:
110,266,274631,1,8,0:0:0:0:
110,266,274875,1,0,0:0:0:0:
110,266,275119,1,8,0:0:0:0:
110,267,275241,1,8,0:0:0:0:
110,266,275363,1,0,0:0:0:0:
110,266,275485,1,8,0:0:0:0:
103,261,275729,1,0,0:0:0:0:
106,256,275851,1,8,0:0:0:0:
106,256,275972,1,8,0:0:0:0:
106,256,276094,1,0,0:0:0:0:
106,256,276216,1,8,0:0:0:0:
106,256,276338,1,0,0:0:0:0:
106,256,276460,1,0,0:0:0:0:
106,256,276582,1,8,0:0:0:0:
106,264,276826,1,8,0:0:0:0:
107,261,277070,1,0,0:0:0:0:
107,261,277192,1,8,0:0:0:0:
107,261,277314,1,8,0:0:0:0:
106,264,277436,1,0,0:0:0:0:
100,261,277558,1,8,0:0:0:0:
107,261,277802,1,8,0:0:0:0:
107,261,277924,1,0,0:0:0:0:
107,261,278046,1,8,0:0:0:0:
106,257,278107,1,8,0:0:0:0:
107,261,278168,1,0,0:0:0:0:
106,266,278290,1,8,0:0:0:0:
107,261,278411,1,0,0:0:0:0:
95,34,278533,1,12,0:0:0:0:
94,264,278777,1,8,0:0:0:0:
106,266,279021,1,0,0:0:0:0:
107,261,279143,1,8,0:0:0:0:
106,265,279265,1,0,0:0:0:0:
106,265,279387,1,8,0:0:0:0:
106,266,279631,1,8,0:0:0:0:
106,266,279753,1,0,0:0:0:0:
106,265,279997,1,8,0:0:0:0:
106,265,280119,1,8,0:0:0:0:
106,266,280241,1,0,0:0:0:0:
106,266,280363,1,0,0:0:0:0:
106,266,280485,1,8,0:0:0:0:
112,241,280729,1,8,0:0:0:0:
111,269,280972,1,0,0:0:0:0:
114,263,281094,1,8,0:0:0:0:
114,263,281216,1,8,0:0:0:0:
114,263,281338,1,0,0:0:0:0:
114,263,281460,1,8,0:0:0:0:
114,260,281704,1,8,0:0:0:0:
114,263,281948,1,0,0:0:0:0:
114,263,282070,1,0,0:0:0:0:
114,263,282192,1,8,0:0:0:0:
114,263,282314,1,8,0:0:0:0:
114,260,282436,1,0,0:0:0:0:
108,252,282680,1,8,0:0:0:0:
108,252,282924,1,8,0:0:0:0:
108,252,283046,1,0,0:0:0:0:
108,252,283168,1,8,0:0:0:0:
108,252,283290,1,8,0:0:0:0:
108,252,283411,1,0,0:0:0:0:
108,252,283533,1,8,0:0:0:0:
108,252,283655,1,8,0:0:0:0:
108,252,283899,1,0,0:0:0:0:
108,252,284021,1,8,0:0:0:0:
108,252,284143,1,8,0:0:0:0:
108,252,284265,1,0,0:0:0:0:
108,252,284387,1,8,0:0:0:0:
108,252,284631,1,0,0:0:0:0:
108,252,284875,1,8,0:0:0:0:
108,252,284997,1,8,0:0:0:0:
108,252,285119,1,0,0:0:0:0:
108,252,285241,1,8,0:0:0:0:
108,252,285363,1,0,0:0:0:0:
112,243,285444,1,8,0:0:0:0:
113,243,285525,1,0,0:0:0:0:
114,248,285607,1,8,0:0:0:0:
114,248,285688,1,8,0:0:0:0:
114,248,285769,1,0,0:0:0:0:
114,248,285851,1,8,0:0:0:0:
114,248,286013,1,0,0:0:0:0:
119,244,286094,1,8,0:0:0:0:
120,244,286176,1,8,0:0:0:0:
120,244,286257,1,8,0:0:0:0:
120,244,286338,1,0,0:0:0:0:
122,252,286704,1,0,0:0:0:0:
122,252,287070,1,0,0:0:0:0:
122,252,287436,1,0,0:0:0:0:
137,246,287802,1,0,0:0:0:0:
137,246,287924,1,0,0:0:0:0:
139,243,288168,1,0,0:0:0:0:
139,243,288290,1,0,0:0:0:0:
138,238,288655,1,0,0:0:0:0:
138,238,289021,1,0,0:0:0:0:
138,238,289387,1,0,0:0:0:0:
138,238,289753,1,0,0:0:0:0:
138,238,289875,1,0,0:0:0:0:
138,238,290119,1,0,0:0:0:0:
138,238,290241,1,0,0:0:0:0:
132,234,290607,1,0,0:0:0:0:
132,234,290972,1,0,0:0:0:0:
132,234,291338,1,0,0:0:0:0:
132,234,291704,1,0,0:0:0:0:
132,234,291826,1,0,0:0:0:0:
132,234,292070,1,0,0:0:0:0:
132,234,292192,1,0,0:0:0:0:
132,234,292558,1,0,0:0:0:0:
132,234,292924,1,0,0:0:0:0:
132,234,293290,1,0,0:0:0:0:
132,234,293655,1,0,0:0:0:0:
132,234,293777,1,0,0:0:0:0:
132,234,294021,1,0,0:0:0:0:
132,234,294143,1,0,0:0:0:0:
132,234,294509,1,0,0:0:0:0:
132,234,294875,1,0,0:0:0:0:
139,243,295241,1,0,0:0:0:0:
139,243,295607,1,0,0:0:0:0:
139,243,295729,1,0,0:0:0:0:
139,243,295972,1,0,0:0:0:0:
139,243,296094,1,0,0:0:0:0:
139,243,296460,1,0,0:0:0:0:
139,243,296826,1,0,0:0:0:0:
139,243,297192,1,0,0:0:0:0:
139,243,297558,1,0,0:0:0:0:
139,243,297680,1,0,0:0:0:0:
139,243,297924,1,0,0:0:0:0:
139,243,298046,1,0,0:0:0:0:
139,243,298411,1,0,0:0:0:0:
139,243,298777,1,0,0:0:0:0:
139,243,299143,1,0,0:0:0:0:
139,243,299509,1,0,0:0:0:0:
139,243,299631,1,0,0:0:0:0:
139,243,299875,1,0,0:0:0:0:
139,243,299997,1,0,0:0:0:0:
139,243,300363,1,0,0:0:0:0:
139,243,300729,1,0,0:0:0:0:
139,243,301094,1,0,0:0:0:0:
139,243,301460,1,0,0:0:0:0:
139,243,301582,1,0,0:0:0:0:
139,243,301826,1,0,0:0:0:0:
139,243,301948,1,0,0:0:0:0:
256,192,302070,12,0,310241,0:0:0:0:
