osu file format v14

[General]
AudioFilename: ehh.mp3
AudioLeadIn: 0
PreviewTime: 16941
Countdown: 0
SampleSet: Soft
StackLeniency: 0.5
Mode: 0
LetterboxInBreaks: 0
EpilepsyWarning: 1
WidescreenStoryboard: 1

[Editor]
Bookmarks: -9,199502,226819,233700,270729
DistanceSpacing: 0.7
BeatDivisor: 4
GridSize: 4
TimelineZoom: 2.1

[Metadata]
Title:enn
TitleUnicode:enn~淵~
Artist:Chata
ArtistUnicode:茶太
Creator:EvilElvis
Version:Collab Lunatic
Source:東方神霊廟 ~ Ten Desires.
Tags:東方project Touhou yf_bmp doujin comiket 81 c81 abyss Seikatu サリー Sally NSY shuriken サドマゾヒズム Sadomasochism 小さな欲望の星空 東方神霊廟 ZUN Chiisana Yokubou no Hoshizora 上海アリス幻樂団 Team Shanghai Alice
BeatmapID:904566
BeatmapSetID:406217

[Difficulty]
HPDrainRate:6
CircleSize:4
OverallDifficulty:7.5
ApproachRate:9
SliderMultiplier:1.5
SliderTickRate:1

[Events]
//Background and Video events
0,0,"chata.jpg",0,0
//Break Periods
//Storyboard Layer 0 (Background)
//Storyboard Layer 1 (Fail)
//Storyboard Layer 2 (Pass)
//Storyboard Layer 3 (Foreground)
//Storyboard Sound Samples

[TimingPoints]
478,243.90243902439,4,2,1,20,1,0
478,-500,4,2,1,20,0,0
538,-500,4,2,1,5,0,0
16941,-500,4,2,1,8,0,0
38770,-100,4,2,1,5,0,0
38892,-100,4,2,1,30,0,0
39502,-90.9090909090909,4,2,1,50,0,1
55112,-117.647058823529,4,2,1,50,0,0
60477,-117.647058823529,4,2,1,30,0,0
60721,-117.647058823529,4,2,1,35,0,0
60965,-117.647058823529,4,2,1,40,0,0
61209,-117.647058823529,4,2,1,45,0,0
61697,-117.647058823529,4,2,1,40,0,0
61941,-117.647058823529,4,2,1,35,0,0
62185,-117.647058823529,4,2,1,30,0,0
62429,-117.647058823529,4,2,1,40,0,0
62917,-117.647058823529,4,2,1,70,0,0
62977,-117.647058823529,4,2,1,50,0,0
63648,-117.647058823529,4,2,1,40,0,0
63892,-117.647058823529,4,2,1,30,0,0
69014,-117.647058823529,4,2,1,35,0,0
69258,-117.647058823529,4,2,1,40,0,0
69502,-117.647058823529,4,2,1,45,0,0
69990,-117.647058823529,4,2,1,40,0,0
70477,-117.647058823529,4,2,1,30,0,0
70721,-117.647058823529,4,2,1,70,0,0
70782,-117.647058823529,4,2,1,50,0,0
76087,-117.647058823529,4,2,1,30,0,0
76331,-117.647058823529,4,2,1,35,0,0
76575,-117.647058823529,4,2,1,40,0,0
76819,-117.647058823529,4,2,1,45,0,0
77307,-117.647058823529,4,2,1,40,0,0
77551,-117.647058823529,4,2,1,35,0,0
78038,-117.647058823529,4,2,1,40,0,0
78526,-117.647058823529,4,2,1,70,0,0
78587,-117.647058823529,4,2,1,50,0,0
79258,-117.647058823529,4,2,1,40,0,0
79502,-117.647058823529,4,2,1,30,0,0
84624,-117.647058823529,4,2,1,35,0,0
84868,-117.647058823529,4,2,1,40,0,0
85112,-117.647058823529,4,2,1,45,0,0
85356,-117.647058823529,4,2,1,50,0,0
85843,-125,4,2,1,40,0,0
86087,-125,4,2,1,50,0,0
86331,-90.9090909090909,4,2,1,50,0,1
87063,-200,4,2,1,50,0,0
87551,-200,4,2,1,30,0,0
90234,-90.9090909090909,4,2,1,50,0,1
90965,-200,4,2,1,50,0,0
91697,-200,4,2,1,30,0,0
94136,-90.9090909090909,4,2,1,50,0,1
94868,-200,4,2,1,50,0,0
96087,-200,4,2,1,30,0,0
97307,-90.9090909090909,4,2,1,50,0,1
98038,-200,4,2,1,50,0,0
99014,-200,4,2,1,40,0,0
99990,-200,4,2,1,50,0,0
100356,-200,4,2,1,40,0,0
100721,-200,4,2,1,30,0,0
100965,-200,4,2,1,40,0,0
101209,-200,4,2,1,50,0,0
101453,-90.9090909090909,4,2,1,40,0,0
101941,-90.9090909090909,4,2,1,50,0,1
113648,-90.9090909090909,4,2,1,50,0,0
117551,-90.9090909090909,4,2,1,50,0,1
131209,-125,4,2,1,50,0,0
132916,-100,4,2,1,50,0,0
133160,-100,4,2,1,50,0,1
140965,-117.647058823529,4,2,1,50,0,0
146331,-117.647058823529,4,2,1,30,0,0
146575,-117.647058823529,4,2,1,35,0,0
146819,-117.647058823529,4,2,1,40,0,0
147063,-117.647058823529,4,2,1,45,0,0
147551,-117.647058823529,4,2,1,40,0,0
147795,-117.647058823529,4,2,1,35,0,0
148039,-117.647058823529,4,2,1,30,0,0
148283,-117.647058823529,4,2,1,40,0,0
148771,-117.647058823529,4,2,1,70,0,0
148831,-117.647058823529,4,2,1,50,0,0
149502,-117.647058823529,4,2,1,40,0,0
149746,-117.647058823529,4,2,1,30,0,0
154868,-117.647058823529,4,2,1,35,0,0
155112,-117.647058823529,4,2,1,40,0,0
155356,-117.647058823529,4,2,1,45,0,0
155844,-117.647058823529,4,2,1,40,0,0
156331,-117.647058823529,4,2,1,30,0,0
156575,-90.9090909090909,4,2,1,50,0,1
157307,-200,4,2,1,50,0,0
157795,-200,4,2,1,30,0,0
160477,-90.9090909090909,4,2,1,50,0,1
161209,-200,4,2,1,50,0,0
161941,-200,4,2,1,30,0,0
164380,-90.9090909090909,4,2,1,50,0,1
165112,-200,4,2,1,50,0,0
166331,-200,4,2,1,30,0,0
167551,-90.9090909090909,4,2,1,50,0,1
168282,-200,4,2,1,50,0,0
169258,-200,4,2,1,40,0,0
170234,-200,4,2,1,50,0,0
170600,-200,4,2,1,40,0,0
170965,-200,4,2,1,30,0,0
171209,-200,4,2,1,40,0,0
171453,-200,4,2,1,50,0,0
171697,-90.9090909090909,4,2,1,40,0,0
172185,-90.9090909090909,4,2,1,50,0,1
183892,-100,4,2,1,50,0,0
187795,-90.9090909090909,4,2,1,50,0,1
199502,-100,4,2,1,50,0,0
226819,-200,4,2,1,50,0,0
228160,-125,4,2,1,50,0,1
230721,-125,4,2,1,80,0,0
231749,243.90243902439,4,2,1,20,1,0
231751,-500,4,2,1,20,0,0
241566,-500,4,2,1,10,0,0
242480,-500,4,2,1,5,0,0
242925,243.90243902439,4,2,1,30,1,0
243412,243.90243902439,4,2,1,50,1,1
243412,-90.9090909090909,4,2,1,50,0,1
255119,-90.9090909090909,4,2,1,50,0,0
259021,-90.9090909090909,4,2,1,50,0,1
262924,-200,4,2,1,50,0,1
266216,-200,4,2,1,50,0,0
266338,-100,4,2,1,50,0,0
266826,-100,4,2,1,50,0,1
268777,-200,4,2,1,50,0,0
270729,-100,4,2,1,50,0,1
286338,-500,4,2,1,50,0,0
286399,-500,4,2,1,15,0,0
290241,-500,4,2,1,20,0,0
290302,-500,4,2,1,15,0,0
294143,-500,4,2,1,20,0,0
294265,-500,4,2,1,15,0,0
298046,-500,4,2,1,20,0,0
298107,-500,4,2,1,15,0,0
299997,-500,4,2,3,20,0,0
300058,-500,4,2,1,15,0,0
301948,-500,4,2,1,30,0,0

[Colours]
Combo1 : 60,191,255
Combo2 : 238,238,238
Combo3 : 98,98,98
Combo4 : 255,40,56
Combo5 : 255,9,132
Combo6 : 40,255,148
Combo7 : 163,255,70
Combo8 : 0,126,253

[HitObjects]
80,197,478,5,4,0:3:0:0:
153,181,721,1,0,0:0:0:0:
217,218,965,2,0,L|214:249,1,30,0|0,0:0|0:0,0:0:0:0:
273,293,1453,2,0,L|276:324,1,30,0|0,0:0|0:0,0:0:0:0:
275,322,2185,1,0,0:0:0:0:
275,322,2673,5,0,0:0:0:0:
335,276,2917,2,0,P|352:273|367:273,1,30,0|0,0:0|0:0,0:0:0:0:
422,224,3404,2,0,P|438:228|452:234,1,30,0|0,0:0|0:0,0:0:0:0:
450,233,4136,1,0,0:0:0:0:
450,233,4624,101,0,0:0:0:0:
481,165,4868,2,0,P|482:142|481:134,1,30,0|0,0:0|0:0,0:0:0:0:
431,78,5356,2,0,P|400:75|369:77,1,60,0|0,0:0|0:0,0:0:0:0:
303,109,6087,1,0,0:0:0:0:
303,109,6575,5,0,0:0:0:0:
233,136,6819,2,0,P|216:132|199:132,1,30,0|0,0:0|0:0,0:0:0:0:
131,110,7307,2,0,P|114:114|98:120,1,30,0|0,0:0|0:0,0:0:0:0:
57,178,7795,1,0,0:0:0:0:
1,128,8038,1,0,0:0:0:0:
1,128,8526,101,0,0:0:0:0:
23,199,8770,2,0,L|19:235,1,30,0|0,0:0|0:0,0:0:0:0:
80,272,9258,2,0,L|84:308,1,30,0|0,0:0|0:0,0:0:0:0:
83,301,9990,1,0,0:0:0:0:
83,301,10477,5,0,0:0:0:0:
153,276,10721,2,0,P|167:274|185:272,1,30,0|0,0:0|0:0,0:0:0:0:
257,284,11209,2,0,P|258:258|256:224,1,60,0|0,0:0|0:0,0:0:0:0:
230,153,11941,1,0,0:0:0:0:
230,153,12429,101,0,0:0:0:0:
286,103,12673,2,0,P|303:99|320:99,1,30,0|0,0:0|0:0,0:0:0:0:
353,34,13160,2,0,P|370:37|385:44,1,30,0|0,0:0|0:0,0:0:0:0:
436,93,13648,1,0,0:0:0:0:
509,78,13892,1,0,0:0:0:0:
509,78,14380,5,0,0:0:0:0:
498,152,14624,2,0,L|494:186,1,30,0|0,0:0|0:0,0:0:0:0:
434,227,15112,2,0,L|437:256,1,30,0|0,0:0|0:0,0:0:0:0:
377,301,15599,1,0,0:0:0:0:
307,272,15843,1,0,0:0:0:0:
307,272,16331,101,0,0:0:0:0:
233,289,16575,1,0,0:0:0:0:
162,263,16819,1,0,0:0:0:0:
88,277,17063,2,0,P|80:244|77:216,1,60,0|0,0:0|0:0,0:0:0:0:
76,142,17795,1,0,0:0:0:0:
76,142,18282,5,0,0:0:0:0:
139,101,18526,1,0,0:0:0:0:
213,103,18770,1,0,0:0:0:0:
283,127,19014,1,0,0:0:0:0:
357,119,19258,2,0,L|354:154,1,30,0|0,0:0|0:0,0:0:0:0:
390,214,19746,1,0,0:0:0:0:
390,214,20234,101,0,0:0:0:0:
446,165,20477,1,0,0:0:0:0:
454,90,20721,1,0,0:0:0:0:
407,31,20965,2,0,P|373:33|345:29,1,60,0|0,0:0|0:0,0:0:0:0:
274,48,21697,1,0,0:0:0:0:
274,48,22185,5,0,0:0:0:0:
203,21,22429,2,0,L|173:22,1,30,0|0,0:0|0:0,0:0:0:0:
98,10,22917,1,0,0:0:0:0:
121,80,23160,1,0,0:0:0:0:
97,151,23404,1,0,0:0:0:0:
103,225,23648,1,0,0:0:0:0:
103,225,24136,101,0,0:0:0:0:
175,204,24380,1,0,0:0:0:0:
231,253,24624,1,0,0:0:0:0:
306,251,24868,2,0,P|333:250|366:255,1,60,0|0,0:0|0:0,0:0:0:0:
433,285,25599,1,0,0:0:0:0:
433,285,26087,5,0,0:0:0:0:
391,347,26331,1,0,0:0:0:0:
450,301,26575,1,0,0:0:0:0:
482,233,26819,2,0,L|477:201,1,30,0|0,0:0|0:0,0:0:0:0:
477,203,27551,1,0,0:0:0:0:
477,203,28038,101,0,0:0:0:0:
427,146,28282,2,0,P|410:143|392:143,1,30,0|0,0:0|0:0,0:0:0:0:
334,100,28770,1,0,0:0:0:0:
264,128,29014,1,0,0:0:0:0:
193,102,29258,1,0,0:0:0:0:
175,29,29502,1,0,0:0:0:0:
175,29,29990,5,0,0:0:0:0:
120,80,30234,2,0,L|118:113,1,30,0|0,0:0|0:0,0:0:0:0:
155,192,30721,2,0,P|213:193|277:208,1,120,0|0,0:0|0:0,0:0:0:0:
256,192,32551,12,0,38770,2:0:0:0:
392,182,38892,69,0,1:0:0:0:
392,182,38973,1,0,1:0:0:0:
392,182,39055,1,0,1:0:0:0:
392,182,39136,1,0,1:0:0:0:
496,100,39502,54,0,B|414:118|407:84|329:93,1,165.000005035401,6|10,1:0|1:0,0:0:0:0:
260,33,39868,1,0,0:3:0:0:
168,44,39990,2,0,P|164:103|171:133,1,82.5000025177003,2|0,1:0|0:0,0:0:0:0:
306,242,40234,5,10,1:0:0:0:
380,180,40356,2,0,P|303:156|226:181,1,165.000005035401,2|2,1:0|1:0,0:0:0:0:
376,356,40721,2,0,B|386:313|386:313|377:270,1,82.5000025177003,10|0,1:0|0:0,0:0:0:0:
235,275,40965,2,0,B|227:312|227:312|237:355,1,82.5000025177003,2|0,1:0|0:0,0:0:0:0:
75,286,41209,2,0,L|163:280,1,82.5000025177003,10|0,1:0|0:0,0:0:0:0:
100,64,41453,102,0,P|103:112|105:201,1,123.75000377655,2|0,1:0|0:0,0:0:0:0:
104,187,41697,2,0,L|189:191,1,82.5000025177003,10|0,1:0|0:0,0:0:0:0:
263,110,41941,2,0,P|265:158|265:246,1,123.75000377655,2|0,1:0|0:0,0:0:0:0:
265,233,42185,2,0,L|352:240,1,82.5000025177003,10|2,1:0|1:0,0:0:0:0:
428,189,42429,1,0,0:0:0:0:
498,262,42551,1,2,1:0:0:0:
414,326,42673,2,0,P|366:331|330:329,1,82.5000025177003,10|0,1:0|0:0,0:0:0:0:
214,357,42917,2,0,L|81:348,1,123.75000377655,2|0,1:0|0:0,0:0:0:0:
90,348,43160,2,0,P|88:302|94:255,1,82.5000025177003,10|0,1:0|0:0,0:0:0:0:
16,122,43404,6,0,L|101:114,1,82.5000025177003,6|0,1:0|0:0,0:0:0:0:
229,223,43648,2,0,L|194:142,1,82.5000025177003,8|0,1:0|0:0,0:0:0:0:
177,40,43892,2,0,L|112:217,1,165.000005035401,2|8,1:0|1:0,0:0:0:0:
22,235,44258,102,0,P|107:231|162:319,1,165.000005035401,2|0,1:0|0:0,0:0:0:0:
237,196,44624,2,0,P|235:239|244:292,1,82.5000025177003,10|0,1:0|0:0,0:0:0:0:
313,333,44868,2,0,L|457:311,1,123.75000377655,2|0,1:0|0:0,0:0:0:0:
435,314,45112,2,0,P|435:268|422:219,1,82.5000025177003,8|0,1:0|0:0,0:0:0:0:
487,114,45356,6,0,P|438:153|362:165,1,123.75000377655,4|0,1:2|0:0,0:0:0:0:
379,166,45599,2,0,L|287:154,1,82.5000025177003,8|0,1:3|0:0,0:0:0:0:
237,52,45843,2,0,B|221:144|268:133|248:233,1,165.000005035401,4|8,1:2|1:3,0:0:0:0:
226,332,46209,1,8,1:3:0:0:
101,364,46331,102,0,B|92:320|92:320|106:267,1,82.5000025177003,4|8,1:2|1:0,0:0:0:0:
172,171,46575,1,8,1:3:0:0:
11,171,46697,1,0,0:2:0:0:
91,120,46819,2,0,L|88:203,1,82.5000025177003,8|8,1:0|1:0,0:0:0:0:
192,288,47063,1,4,1:2:0:0:
0,280,47185,1,8,1:3:0:0:
172,171,47307,6,0,P|223:172|284:285,1,165.000005035401,6|10,1:0|1:0,0:0:0:0:
456,295,47673,1,0,0:0:0:0:
380,336,47795,2,0,P|372:294|381:251,1,82.5000025177003,2|0,1:0|0:0,0:0:0:0:
395,141,48038,101,10,1:0:0:0:
448,65,48160,2,0,P|490:92|483:206,1,165.000005035401,2|2,1:0|1:0,0:0:0:0:
343,205,48526,2,0,L|256:196,1,82.5000025177003,10|0,1:0|0:0,0:0:0:0:
263,86,48770,2,0,L|346:78,1,82.5000025177003,2|0,1:0|0:0,0:0:0:0:
201,144,49014,2,0,B|159:149|159:149|105:140,1,82.5000025177003,10|0,1:0|0:0,0:0:0:0:
164,226,49258,6,0,P|96:222|22:264,1,123.75000377655,2|0,1:0|0:0,0:0:0:0:
45,243,49502,2,0,L|55:334,1,82.5000025177003,10|2,1:0|1:0,0:0:0:0:
176,358,49746,2,0,P|244:362|318:320,1,123.75000377655,8|0,1:3|0:0,0:0:0:0:
295,341,49990,2,0,L|284:249,1,82.5000025177003,10|8,1:0|1:3,0:0:0:0:
258,96,50234,1,0,1:0:0:0:
278,186,50356,1,2,1:0:0:0:
285,83,50477,2,0,P|323:77|382:80,1,82.5000025177003,10|0,1:0|0:0,0:0:0:0:
494,98,50721,2,0,P|490:155|489:235,1,123.75000377655,2|0,1:0|0:0,0:0:0:0:
488,221,50965,2,0,L|406:215,1,82.5000025177003,8|0,1:0|0:0,0:0:0:0:
299,353,51209,102,0,P|310:315|335:252,1,82.5000025177003,6|0,1:0|0:0,0:0:0:0:
248,133,51453,2,0,P|273:158|328:204,1,82.5000025177003,10|0,1:0|0:0,0:0:0:0:
212,253,51697,2,0,B|125:240|139:281|38:257,1,165.000005035401,2|8,1:0|1:0,0:0:0:0:
0,191,52063,6,0,P|25:242|11:354,1,165.000005035401,2|2,1:0|1:0,0:0:0:0:
183,344,52429,2,0,P|137:336|99:337,1,82.5000025177003,10|0,1:0|0:0,0:0:0:0:
277,360,52673,2,0,P|341:338|399:330,1,123.75000377655,2|0,1:0|0:0,0:0:0:0:
396,330,52917,2,0,L|388:244,1,82.5000025177003,8|0,1:0|0:0,0:0:0:0:
209,107,53160,102,0,L|228:246,1,123.75000377655,4|0,1:2|0:0,0:0:0:0:
226,229,53404,2,0,L|317:215,1,82.5000025177003,8|0,1:3|0:0,0:0:0:0:
287,47,53648,2,0,P|228:71|119:48,1,165.000005035401,4|8,1:2|1:3,0:0:0:0:
25,66,54014,1,8,1:3:0:0:
117,135,54136,6,0,P|123:176|118:237,1,82.5000025177003,4|8,1:2|1:0,0:0:0:0:
195,315,54380,1,8,1:3:0:0:
102,364,54502,1,0,0:0:0:0:
20,286,54624,2,0,P|16:239|20:197,1,82.5000025177003,8|8,1:0|1:0,0:0:0:0:
275,247,54868,1,4,1:2:0:0:
112,284,54990,1,8,1:3:0:0:
191,187,55112,6,0,P|195:251|194:315,1,127.50000243187,4|2,1:0|1:3,0:0:0:0:
361,313,55477,1,0,0:3:0:0:
361,313,55599,2,0,L|434:289,1,63.7500012159348,0|0,0:3|1:0,0:0:0:0:
448,190,55843,2,0,L|403:132,1,63.7500012159348,2|0,1:3|0:0,0:0:0:0:
300,163,56087,2,0,L|281:248,1,63.7500012159348,0|0,1:0|0:0,0:0:0:0:
367,222,56331,2,0,L|339:82,1,127.50000243187,2|0,1:3|0:0,0:0:0:0:
214,51,56697,1,0,1:2:0:0:
214,51,56819,2,0,P|181:58|141:64,1,63.7500012159348,2|0,1:3|0:0,0:0:0:0:
81,137,57063,6,0,P|85:169|92:206,1,63.7500012159348,0|0,1:0|0:0,0:0:0:0:
185,260,57307,2,0,P|233:254|314:242,1,127.50000243187,2|2,1:3|0:0,0:0:0:0:
391,291,57673,1,2,1:2:0:0:
436,208,57795,2,0,L|426:144,1,63.7500012159348,2|0,1:3|0:0,0:0:0:0:
325,102,58038,2,0,P|281:107|248:107,1,63.7500012159348,0|0,1:0|0:0,0:0:0:0:
178,40,58282,2,0,P|183:117|185:189,1,127.50000243187,2|0,1:3|0:0,0:0:0:0:
173,264,58648,1,0,1:0:0:0:
76,236,58770,102,0,L|74:200|76:169,1,63.7500012159348,2|0,1:3|0:0,0:0:0:0:
270,176,59014,2,0,P|277:231|272:313,1,127.50000243187,0|2,1:0|1:3,0:0:0:0:
344,363,59380,1,0,0:0:0:0:
386,278,59502,2,0,L|456:268,1,63.7500012159348,2|2,0:0|1:2,0:0:0:0:
501,196,59746,2,0,L|492:123,1,63.7500012159348,2|0,1:3|0:0,0:0:0:0:
435,63,59990,2,0,P|368:71|293:72,1,127.50000243187,0|2,1:0|1:3,0:0:0:0:
218,37,60356,1,0,0:0:0:0:
167,116,60477,2,0,L|172:186,1,63.7500012159348,8|0,0:3|0:0,0:0:0:0:
103,237,60721,2,0,P|65:239|23:237,1,63.7500012159348,10|0,1:3|0:0,0:0:0:0:
178,284,60965,6,0,L|292:276,1,95.6250018239022,8|0,1:3|0:0,0:0:0:0:
273,277,61209,2,0,P|274:314|279:346,1,63.7500012159348,10|8,1:3|1:3,0:0:0:0:
361,206,61453,2,0,L|429:213,1,63.7500012159348,8|0,1:3|0:0,0:0:0:0:
509,175,61697,101,10,1:3:0:0:
490,288,61819,1,0,0:0:0:0:
361,206,61941,2,0,L|291:198,1,63.7500012159348,8|0,1:3|0:0,0:0:0:0:
224,86,62185,2,0,P|228:124|217:197,1,95.6250018239022,10|0,1:3|0:0,0:0:0:0:
221,180,62429,2,0,L|144:171,1,63.7500012159348,8|0,1:3|0:0,0:0:0:0:
77,108,62673,1,10,1:3:0:0:
13,208,62795,5,8,1:3:0:0:
13,208,62856,1,8,1:3:0:0:
13,208,62917,2,0,P|14:251|27:310,1,95.6250018239022,4|0,1:2|0:0,0:0:0:0:
24,302,63160,2,0,L|103:291,1,63.7500012159348,8|0,1:2|0:0,0:0:0:0:
309,361,63404,2,0,P|308:318|295:259,1,95.6250018239022,0|0,1:0|0:0,0:0:0:0:
297,266,63648,102,0,L|223:279,1,63.7500012159348,8|0,1:2|0:0,0:0:0:0:
260,188,63892,2,0,P|257:146|265:59,1,127.50000243187,0|8,1:0|1:0,0:0:0:0:
373,28,64258,1,8,1:0:0:0:
440,70,64380,2,0,L|503:69,1,63.7500012159348,0|0,0:0|1:0,0:0:0:0:
488,155,64624,6,0,P|488:184|484:219,1,63.7500012159348,8|0,1:0|0:0,0:0:0:0:
358,153,64868,2,0,P|359:204|376:296,1,127.50000243187,0|8,1:0|1:0,0:0:0:0:
220,319,65234,1,8,1:0:0:0:
294,359,65356,2,0,P|296:324|294:283,1,63.7500012159348,0|0,0:0|1:0,0:0:0:0:
142,282,65599,102,0,P|140:317|142:358,1,63.7500012159348,8|0,1:0|0:0,0:0:0:0:
209,234,65843,2,0,P|154:244|62:232,1,127.50000243187,0|8,1:0|1:0,0:0:0:0:
151,156,66209,1,8,1:0:0:0:
237,95,66331,2,0,P|240:129|237:163,1,63.7500012159348,0|8,0:0|1:0,0:0:0:0:
69,154,66575,2,0,P|66:122|69:90,1,63.7500012159348,8|0,1:0|0:0,0:0:0:0:
193,31,66819,6,0,P|241:74|326:69,1,127.50000243187,4|8,1:0|1:0,0:0:0:0:
388,39,67185,1,0,0:0:0:0:
465,22,67307,2,0,P|468:53|463:110,1,63.7500012159348,0|8,0:0|1:0,0:0:0:0:
412,166,67551,2,0,L|336:153,1,63.7500012159348,8|0,1:0|0:0,0:0:0:0:
268,217,67795,2,0,P|223:223|170:295,1,127.50000243187,0|8,1:0|1:0,0:0:0:0:
247,355,68160,1,8,1:0:0:0:
341,325,68282,102,0,P|341:280|344:251,1,63.7500012159348,0|0,0:0|1:0,0:0:0:0:
315,90,68526,2,0,P|317:121|316:153,1,63.7500012159348,8|0,1:0|1:0,0:0:0:0:
445,248,68770,2,0,P|447:182|456:124,1,95.6250018239022,8|0,1:3|0:0,0:0:0:0:
450,152,69014,2,0,L|382:142,1,63.7500012159348,8|0,1:3|0:0,0:0:0:0:
229,35,69258,2,0,P|230:91|236:144,1,95.6250018239022,12|0,1:3|0:0,0:0:0:0:
233,130,69502,2,0,L|156:140,1,63.7500012159348,8|0,1:3|0:0,0:0:0:0:
66,106,69746,5,8,1:3:0:0:
26,204,69868,1,8,1:3:0:0:
120,230,69990,1,8,1:0:0:0:
143,210,70234,2,0,P|142:256|146:288,1,63.7500012159348,8|8,1:3|1:3,0:0:0:0:
235,338,70477,1,8,1:0:0:0:
331,261,70599,101,8,1:3:0:0:
331,261,70660,1,8,1:3:0:0:
331,261,70721,2,0,L|225:249,1,95.6250018239022,4|0,1:2|0:0,0:0:0:0:
235,250,70965,2,0,P|237:215|241:179,1,63.7500012159348,2|0,1:3|0:0,0:0:0:0:
337,149,71209,2,0,P|330:98|325:13,1,127.50000243187,2|2,0:0|1:3,0:0:0:0:
238,25,71575,5,0,0:0:0:0:
158,55,71697,2,0,L|80:65,1,63.7500012159348,0|0,1:0|0:0,0:0:0:0:
21,120,71941,2,0,P|25:156|27:195,1,63.7500012159348,2|2,1:3|1:2,0:0:0:0:
112,283,72185,2,0,P|104:209|108:146,1,127.50000243187,2|2,0:0|1:3,0:0:0:0:
225,141,72551,101,0,0:0:0:0:
266,217,72673,2,0,P|210:222|189:225,1,63.7500012159348,0|0,1:0|0:0,0:0:0:0:
173,70,72917,2,0,P|229:65|250:62,1,63.7500012159348,2|0,1:3|0:0,0:0:0:0:
351,122,73160,2,0,P|246:137|215:143,1,127.50000243187,2|2,0:0|1:3,0:0:0:0:
94,141,73526,5,0,0:0:0:0:
116,236,73648,2,0,P|123:280|125:317,1,63.7500012159348,0|0,1:0|0:0,0:0:0:0:
218,343,73892,2,0,L|290:330,1,63.7500012159348,2|2,1:3|1:2,0:0:0:0:
274,257,74136,2,0,P|301:290|394:308,1,127.50000243187,2|2,0:2|1:3,0:0:0:0:
458,232,74502,1,0,0:0:0:0:
345,120,74624,102,0,P|339:149|340:183,1,63.7500012159348,0|0,1:0|0:0,0:0:0:0:
499,104,74868,2,0,P|504:131|503:167,1,63.7500012159348,2|0,1:3|0:0,0:0:0:0:
415,26,75112,2,0,B|404:100|432:93|421:163,1,127.50000243187,2|2,0:0|1:3,0:0:0:0:
385,280,75477,1,0,0:0:0:0:
470,294,75599,2,0,L|457:228,1,63.7500012159348,0|0,1:0|0:0,0:0:0:0:
320,343,75843,2,0,L|388:367,1,63.7500012159348,2|0,1:3|0:0,0:0:0:0:
340,193,76087,6,0,L|296:244,1,63.7500012159348,8|0,0:3|1:0,0:0:0:0:
207,128,76331,2,0,L|198:198,1,63.7500012159348,10|0,1:3|0:0,0:0:0:0:
61,143,76575,2,0,L|88:253,1,95.6250018239022,8|0,1:3|0:0,0:0:0:0:
83,235,76819,2,0,P|50:243|17:259,1,63.7500012159348,10|8,1:3|1:3,0:0:0:0:
81,365,77063,2,0,P|48:356|15:340,1,63.7500012159348,8|0,1:3|0:0,0:0:0:0:
182,256,77307,102,0,L|176:330,1,63.7500012159348,14|0,1:3|0:0,0:0:0:0:
327,244,77551,2,0,L|333:318,1,63.7500012159348,8|0,1:3|0:0,0:0:0:0:
167,198,77795,2,0,L|161:272,1,63.7500012159348,10|8,1:3|1:3,0:0:0:0:
342,181,78038,2,0,L|348:255,1,63.7500012159348,8|0,1:3|0:0,0:0:0:0:
135,111,78282,1,10,1:3:0:0:
210,51,78404,5,8,1:3:0:0:
210,51,78465,1,8,1:3:0:0:
210,51,78526,2,0,P|213:100|210:164,1,95.6250018239022,4|0,1:2|0:0,0:0:0:0:
211,146,78770,2,0,L|281:154,1,63.7500012159348,8|0,1:2|0:0,0:0:0:0:
422,161,79014,2,0,P|419:210|422:274,1,95.6250018239022,0|0,1:0|0:0,0:0:0:0:
420,256,79258,102,0,L|349:264,1,63.7500012159348,8|0,1:2|0:0,0:0:0:0:
273,356,79502,2,0,P|271:318|262:221,1,127.50000243187,0|8,1:0|1:0,0:0:0:0:
249,146,79868,1,8,1:0:0:0:
253,63,79990,2,0,P|285:59|325:53,1,63.7500012159348,2|0,0:0|0:0,0:0:0:0:
396,15,80234,6,0,P|398:49|400:92,1,63.7500012159348,8|0,1:0|0:0,0:0:0:0:
476,168,80477,2,0,P|401:160|331:157,1,127.50000243187,0|8,1:0|1:0,0:0:0:0:
269,199,80843,1,8,1:0:0:0:
177,207,80965,2,0,P|176:242|179:278,1,63.7500012159348,2|0,0:0|0:0,0:0:0:0:
112,355,81209,102,0,P|71:352|44:353,1,63.7500012159348,8|0,1:0|1:0,0:0:0:0:
10,267,81453,2,0,P|10:227|6:127,1,127.50000243187,0|8,0:0|1:0,0:0:0:0:
75,88,81819,1,0,0:0:0:0:
158,117,81941,2,0,L|197:119|237:117,1,63.7500012159348,2|0,0:0|0:0,0:0:0:0:
298,48,82185,2,0,P|299:91|300:125,1,63.7500012159348,8|8,1:0|1:0,0:0:0:0:
375,136,82429,2,0,P|326:141|269:199,1,127.50000243187,4|8,1:0|1:0,0:0:0:0:
209,266,82795,1,8,1:0:0:0:
278,329,82917,2,0,P|326:370|387:381,1,127.50000243187,2|8,0:0|1:0,0:0:0:0:
484,345,83282,1,0,0:0:0:0:
500,251,83404,2,0,P|501:223|496:176,1,63.7500012159348,0|0,1:0|0:0,0:0:0:0:
345,234,83648,6,0,L|428:228,1,63.7500012159348,8|8,1:0|1:0,0:0:0:0:
264,175,83892,2,0,L|181:169,1,63.7500012159348,2|8,0:0|1:0,0:0:0:0:
57,230,84136,2,0,L|140:224,1,63.7500012159348,8|0,1:0|0:0,0:0:0:0:
241,369,84380,102,0,P|240:324|232:257,1,95.6250018239022,12|0,1:3|0:0,0:0:0:0:
234,273,84624,2,0,L|155:284,1,63.7500012159348,8|0,1:3|0:0,0:0:0:0:
252,195,84868,2,0,P|253:150|261:83,1,95.6250018239022,8|0,1:3|0:0,0:0:0:0:
258,99,85112,2,0,L|337:109,1,63.7500012159348,8|0,1:3|0:0,0:0:0:0:
392,193,85356,1,8,1:3:0:0:
496,149,85477,1,8,1:3:0:0:
418,70,85599,1,8,1:0:0:0:
405,46,85843,6,0,L|391:128,1,60,8|8,1:3|1:3,0:0:0:0:
301,213,86087,1,8,1:0:0:0:
458,251,86209,1,8,1:0:0:0:
242,144,86331,70,0,B|255:206|255:206|286:229|286:229|298:300,1,165.000005035401,14|0,1:0|0:0,0:0:0:0:
180,367,86697,1,6,1:0:0:0:
91,275,86819,2,0,B|132:269|132:269|186:279,1,82.5000025177003,8|0,1:0|0:0,0:0:0:0:
158,122,87063,86,0,P|116:181|44:179,1,150,4|0,1:0|1:0,0:0:0:0:
218,199,87795,1,8,1:0:0:0:
358,186,88038,2,0,L|361:223,1,37.5,0|0,1:0|1:0,0:0:0:0:
424,266,88282,2,0,L|490:214,1,75,2|0,0:0|1:0,0:0:0:0:
478,145,88648,2,0,L|398:119,1,75,4|0,1:2|0:0,0:0:0:0:
381,53,89014,1,0,1:0:0:0:
381,53,89502,2,0,L|335:62,1,37.5,0|0,1:0|0:0,0:0:0:0:
269,50,89746,2,0,P|264:78|285:185,1,131.25,8|0,1:0|0:0,0:0:0:0:
281,177,90234,38,0,L|112:161,1,165.000005035401,6|0,1:0|1:0,0:0:0:0:
19,236,90599,1,14,1:0:0:0:
106,314,90721,2,0,B|119:275|119:275|108:228,1,82.5000025177003,8|0,1:0|0:0,0:0:0:0:
219,287,90965,86,0,B|332:317|309:240|452:269,1,225,4|0,1:0|1:0,0:0:0:0:
437,266,91941,2,0,P|439:240|445:214,1,37.5,0|0,1:0|1:0,0:0:0:0:
504,184,92185,2,2,P|476:184|403:124,1,112.5,0|0,0:0|1:0,1:1:0:0:
387,70,92673,1,8,1:0:0:0:
191,149,92917,2,2,P|219:149|292:89,1,112.5,0|0,0:0|0:0,1:1:0:0:
285,102,93404,2,0,L|283:53,1,37.5,0|2,1:0|0:0,0:0:0:0:
221,28,93648,1,10,1:0:0:0:
221,28,93770,1,0,0:0:0:0:
37,96,94014,1,2,0:0:0:0:
18,183,94136,6,0,B|29:248|29:248|63:270|63:270|78:341,1,165.000005035401,6|8,1:0|1:0,0:0:0:0:
133,238,94502,1,10,1:0:0:0:
133,238,94563,1,0,1:0:0:0:
133,238,94624,2,0,B|126:193|126:193|134:147,1,82.5000025177003,0|0,1:0|0:0,0:0:0:0:
234,91,94868,86,0,L|386:109,1,150,4|0,1:0|0:0,0:0:0:0:
234,207,95599,1,0,0:0:0:0:
366,322,95843,2,0,L|365:281,1,37.5,0|0,0:0|0:0,0:0:0:0:
291,288,96087,2,0,L|216:294,1,75,0|0,1:0|1:0,0:0:0:0:
159,341,96453,2,0,L|84:334,1,75,0|0,1:0|0:0,0:0:0:0:
21,291,96819,2,0,P|12:249|28:169,1,112.5,0|0,0:0|0:0,0:0:0:0:
106,169,97307,38,0,B|146:174|146:174|195:166,1,82.5000025177003,6|0,1:0|0:0,0:0:0:0:
353,228,97551,2,0,B|311:221|311:221|264:231,1,82.5000025177003,8|8,1:0|1:0,0:0:0:0:
265,84,97795,1,4,0:0:0:0:
274,48,98038,86,0,P|294:93|459:99,1,225,4|2,1:0|0:0,0:0:0:0:
449,108,99014,2,0,L|456:189,1,75,0|0,1:0|0:0,0:0:0:0:
425,248,99380,1,8,0:1:0:0:
425,248,99502,2,0,L|379:253,1,37.5,4|0,0:0|0:0,0:0:0:0:
333,298,99746,2,0,L|281:288,1,37.5,8|0,1:0|0:0,0:0:0:0:
193,353,99990,102,0,P|179:315|192:238,1,112.5,4|8,1:0|0:1,0:0:0:0:
128,201,100477,2,0,L|76:195,1,37.5,0|0,1:0|0:0,0:0:0:0:
38,140,100721,1,4,1:2:0:0:
34,119,100965,1,4,1:2:0:0:
28,96,101209,1,4,1:2:0:0:
273,36,101453,22,0,L|346:46,2,55.0000016784668,0|0|0,1:2|1:0|1:0,0:0:0:0:
230,49,101697,1,0,1:2:0:0:
206,86,101778,1,0,1:0:0:0:
208,130,101860,1,0,1:0:0:0:
228,168,101941,6,0,B|315:157|297:198|407:181,1,165.000005035401,4|8,1:0|1:0,0:0:0:0:
487,222,102307,1,0,0:0:0:0:
406,262,102429,2,0,P|397:301|403:342,1,82.5000025177003,2|0,0:0|1:0,0:0:0:0:
309,345,102673,2,0,P|271:346|227:357,1,82.5000025177003,8|0,1:0|0:0,0:0:0:0:
140,306,102917,2,0,L|125:213,1,82.5000025177003,0|0,1:0|0:0,0:0:0:0:
31,195,103160,2,0,L|214:175,1,165.000005035401,8|2,1:0|0:0,0:0:0:0:
280,165,103526,1,0,1:0:0:0:
337,96,103648,102,0,P|296:81|244:88,1,82.5000025177003,8|0,1:0|0:0,0:0:0:0:
243,242,103892,2,0,P|290:249|367:166,1,165.000005035401,6|8,1:0|1:0,0:0:0:0:
500,93,104258,1,0,0:0:0:0:
425,51,104380,2,0,B|419:93|419:93|429:142,1,82.5000025177003,2|0,0:0|1:0,0:0:0:0:
503,221,104624,2,0,L|418:235,1,82.5000025177003,8|0,1:0|0:0,0:0:0:0:
282,327,104868,2,0,L|446:346,1,165.000005035401,6|8,1:0|1:0,0:0:0:0:
232,254,105234,1,0,1:0:0:0:
161,220,105356,2,0,P|158:266|165:309,1,82.5000025177003,2|0,0:0|1:0,0:0:0:0:
286,195,105599,2,0,L|374:168,1,82.5000025177003,8|0,1:0|1:0,0:0:0:0:
450,213,105843,6,0,P|446:124|384:52,1,165.000005035401,6|8,1:0|1:0,0:0:0:0:
311,30,106209,1,0,0:0:0:0:
226,66,106331,2,0,P|212:106|212:162,1,82.5000025177003,2|0,0:0|1:0,0:0:0:0:
73,220,106575,2,0,L|170:204,1,82.5000025177003,8|0,1:0|0:0,0:0:0:0:
305,284,106819,2,0,L|208:268,1,82.5000025177003,2|0,1:0|0:0,0:0:0:0:
323,362,107063,2,0,L|343:184,1,165.000005035401,10|0,1:0|0:0,0:0:0:0:
418,124,107429,1,2,1:0:0:0:
344,48,107551,102,0,B|301:51|301:51|250:36,1,82.5000025177003,8|0,1:0|0:0,0:0:0:0:
267,122,107795,2,0,B|184:112|191:156|92:140,1,165.000005035401,6|8,1:0|1:0,0:0:0:0:
24,91,108160,1,0,1:0:0:0:
14,185,108282,2,0,P|11:245|32:348,1,165.000005035401,4|8,1:2|1:0,0:0:0:0:
206,205,108648,1,0,1:3:0:0:
206,205,108770,2,0,P|209:265|188:368,1,165.000005035401,4|8,1:2|1:0,0:0:0:0:
111,219,109136,1,0,1:3:0:0:
111,219,109258,6,0,P|108:260|116:312,1,82.5000025177003,2|0,1:0|1:3,0:0:0:0:
300,302,109502,2,0,P|305:261|302:220,1,82.5000025177003,10|0,1:0|1:3,0:0:0:0:
411,182,109746,2,0,P|342:191|248:120,1,165.000005035401,6|8,1:0|1:0,0:0:0:0:
333,49,110112,1,0,0:0:0:0:
403,17,110234,2,0,B|410:58|410:58|401:119,1,82.5000025177003,2|0,0:0|1:0,0:0:0:0:
488,148,110477,2,0,L|492:235,1,82.5000025177003,8|0,1:0|0:0,0:0:0:0:
351,336,110721,2,0,P|390:323|432:321,1,82.5000025177003,0|0,1:0|0:0,0:0:0:0:
271,240,110965,2,0,P|243:304|130:330,1,165.000005035401,8|2,1:0|0:0,0:0:0:0:
74,310,111331,1,0,1:0:0:0:
23,211,111453,102,0,L|19:117,1,82.5000025177003,10|0,1:0|0:0,0:0:0:0:
119,233,111697,2,0,L|128:51,1,165.000005035401,6|8,1:0|1:0,0:0:0:0:
277,101,112063,1,0,0:0:0:0:
288,176,112185,2,0,P|234:172|198:182,1,82.5000025177003,2|0,0:0|1:0,0:0:0:0:
361,148,112429,2,0,P|415:144|451:154,1,82.5000025177003,8|0,1:0|0:0,0:0:0:0:
476,345,112673,6,0,P|434:328|423:198,1,165.000005035401,0|8,1:0|1:0,0:0:0:0:
245,275,113038,1,0,1:0:0:0:
316,244,113160,2,0,B|322:286|322:286|317:342,1,82.5000025177003,2|0,0:0|1:0,0:0:0:0:
168,324,113404,2,0,B|164:284|164:284|170:242,1,82.5000025177003,8|0,1:0|0:0,0:0:0:0:
23,188,113648,102,0,P|68:190|123:182,1,82.5000025177003,4|0,1:0|0:0,0:0:0:0:
35,24,113892,2,0,P|74:24|117:28,1,82.5000025177003,10|0,1:0|0:0,0:0:0:0:
50,106,114136,2,0,B|138:98|118:138|238:126,1,165.000005035401,2|8,1:0|1:0,0:0:0:0:
272,78,114502,1,2,1:0:0:0:
275,178,114624,6,0,B|270:219|270:219|281:272,1,82.5000025177003,0|2,0:0|1:0,0:0:0:0:
436,219,114868,2,0,L|347:213,1,82.5000025177003,8|0,1:0|0:0,0:0:0:0:
499,266,115112,2,0,B|504:307|504:307|495:347,1,82.5000025177003,2|0,1:0|0:0,0:0:0:0:
329,353,115356,2,0,L|421:342,1,82.5000025177003,10|0,1:0|1:0,0:0:0:0:
228,308,115599,102,0,P|183:299|131:304,1,82.5000025177003,2|0,1:0|0:0,0:0:0:0:
35,229,115843,2,0,P|80:220|132:225,1,82.5000025177003,10|0,1:0|0:0,0:0:0:0:
302,245,116087,2,0,P|260:226|208:219,1,82.5000025177003,2|0,1:0|1:0,0:0:0:0:
88,133,116331,2,0,P|133:134|183:150,1,82.5000025177003,8|2,1:0|1:0,0:0:0:0:
309,41,116575,5,10,1:0:0:0:
253,133,116697,1,8,1:0:0:0:
270,129,116941,1,0,0:0:0:0:
369,185,117063,2,0,P|376:134|365:90,1,82.5000025177003,8|8,1:0|1:0,0:0:0:0:
434,29,117307,1,8,1:0:0:0:
503,111,117429,1,8,1:0:0:0:
491,248,117551,102,0,B|402:238|418:280|313:259,1,165.000005035401,4|8,1:0|1:0,0:0:0:0:
206,211,117917,1,0,0:0:0:0:
175,297,118038,2,0,P|224:284|269:285,1,82.5000025177003,2|0,0:0|1:0,0:0:0:0:
139,143,118282,2,0,P|131:204|119:236,1,82.5000025177003,8|0,1:0|0:0,0:0:0:0:
288,188,118526,2,0,P|255:154|229:105,1,82.5000025177003,0|0,1:0|0:0,0:0:0:0:
178,48,118770,2,0,L|205:211,1,165.000005035401,8|2,1:0|0:0,0:0:0:0:
107,318,119136,1,0,1:0:0:0:
177,352,119258,6,0,P|220:346|270:356,1,82.5000025177003,10|0,1:0|0:0,0:0:0:0:
380,168,119502,2,0,P|315:190|288:280,1,165.000005035401,6|8,1:0|1:0,0:0:0:0:
408,336,119868,1,0,0:0:0:0:
450,260,119990,2,0,B|408:253|408:253|352:262,1,82.5000025177003,2|0,0:0|1:0,0:0:0:0:
511,125,120234,2,0,B|501:168|501:168|512:225,1,82.5000025177003,8|0,1:0|0:0,0:0:0:0:
435,53,120477,102,0,B|344:49|356:86|259:72,1,165.000005035401,2|8,1:0|1:0,0:0:0:0:
177,34,120843,1,0,0:0:0:0:
110,105,120965,2,0,P|109:154|113:197,1,82.5000025177003,2|0,0:0|1:0,0:0:0:0:
26,282,121209,2,0,P|71:278|112:280,1,82.5000025177003,8|0,1:0|0:0,0:0:0:0:
205,322,121453,6,0,P|200:268|201:231,1,82.5000025177003,4|0,1:0|0:0,0:0:0:0:
367,202,121697,2,0,L|275:212,1,82.5000025177003,8|0,1:0|0:0,0:0:0:0:
303,78,121941,2,0,L|238:140,1,82.5000025177003,2|0,0:0|1:0,0:0:0:0:
185,17,122185,2,0,L|170:99,1,82.5000025177003,8|0,1:0|0:0,0:0:0:0:
218,273,122429,102,0,P|175:204|98:180,1,165.000005035401,0|8,1:0|1:0,0:0:0:0:
13,264,122795,1,0,0:0:0:0:
112,355,122917,2,0,P|112:306|103:248,1,82.5000025177003,2|8,1:0|1:0,0:0:0:0:
256,148,123160,2,0,P|252:105|256:52,1,82.5000025177003,10|0,1:0|0:0,0:0:0:0:
14,108,123404,6,0,B|92:91|97:133|180:114,1,165.000005035401,6|8,1:0|1:0,0:0:0:0:
329,39,123770,1,0,0:0:0:0:
405,47,123892,2,0,P|425:98|422:216,1,165.000005035401,2|8,1:0|1:0,0:0:0:0:
320,334,124258,1,0,0:0:0:0:
245,312,124380,2,0,P|225:261|246:132,1,165.000005035401,6|8,1:0|1:0,0:0:0:0:
57,55,124746,1,0,0:0:0:0:
132,33,124868,2,0,P|143:76|136:139,1,82.5000025177003,2|0,0:0|1:0,0:0:0:0:
7,214,125112,2,0,L|90:207,1,82.5000025177003,0|0,1:0|0:0,0:0:0:0:
9,310,125356,102,0,L|198:335,1,165.000005035401,4|8,1:0|1:0,0:0:0:0:
295,240,125721,1,0,0:0:0:0:
218,195,125843,2,0,B|209:235|209:235|222:282,1,82.5000025177003,2|0,0:0|1:0,0:0:0:0:
384,145,126087,2,0,L|300:155,1,82.5000025177003,8|0,1:0|0:0,0:0:0:0:
455,38,126331,6,0,P|453:84|459:126,1,82.5000025177003,0|0,1:0|0:0,0:0:0:0:
403,222,126575,2,0,P|454:229|512:340,1,165.000005035401,8|2,1:0|0:0,0:0:0:0:
458,373,126941,1,0,1:0:0:0:
310,357,127063,2,0,B|304:318|304:318|308:268,1,82.5000025177003,8|0,1:0|0:0,0:0:0:0:
188,197,127307,2,0,P|244:195|294:102,1,165.000005035401,4|8,1:0|1:0,0:0:0:0:
197,25,127673,1,0,0:0:0:0:
128,109,127795,2,0,P|175:118|230:111,1,82.5000025177003,2|0,0:0|1:0,0:0:0:0:
93,187,128038,2,0,P|46:196|-9:189,1,82.5000025177003,8|0,1:0|0:0,0:0:0:0:
145,287,128282,102,0,B|234:271|214:313|320:293,1,165.000005035401,2|8,1:0|1:0,0:0:0:0:
404,362,128648,1,0,1:0:0:0:
512,266,128770,2,0,P|472:255|419:258,1,82.5000025177003,2|0,1:0|1:0,0:0:0:0:
373,113,129014,2,0,P|378:153|370:209,1,82.5000025177003,10|0,1:0|0:0,0:0:0:0:
445,39,129258,6,0,P|393:83|276:74,1,165.000005035401,4|8,1:0|1:0,0:0:0:0:
174,167,129624,1,0,0:0:0:0:
252,225,129746,2,0,P|257:180|250:137,1,82.5000025177003,4|0,1:2|1:0,0:0:0:0:
93,141,129990,2,0,P|87:181|92:222,1,82.5000025177003,8|8,1:0|1:0,0:0:0:0:
213,69,130234,102,0,B|173:80|173:80|125:70,1,82.5000025177003,4|0,1:0|0:0,0:0:0:0:
174,167,130477,2,0,P|181:240|181:338,1,165.000005035401,8|4,1:0|1:2,0:0:0:0:
334,350,130843,1,0,0:0:0:0:
376,290,130965,2,0,P|375:207|383:144,1,123.75000377655,8|0,1:0|0:0,0:0:0:0:
388,133,131209,101,4,1:0:0:0:
388,133,131575,1,8,1:0:0:0:
388,133,131941,1,8,1:0:0:0:
217,35,132185,101,2,0:0:0:0:
217,35,132429,1,8,1:0:0:0:
217,35,132673,2,0,L|267:29,2,40,0|0|0,1:0|1:0|1:0,0:0:0:0:
170,95,132917,38,0,L|84:86,1,75,2|0,1:0|0:0,0:0:0:0:
18,155,133160,2,0,P|8:226|42:319,1,150,6|10,1:0|1:0,0:0:0:0:
139,357,133526,1,0,0:0:0:0:
196,301,133648,2,0,L|189:199,1,75,2|0,1:0|0:0,0:0:0:0:
161,100,133892,101,10,1:0:0:0:
228,146,134014,2,0,P|183:207|91:200,1,150,2|2,1:0|1:0,0:0:0:0:
273,292,134380,2,0,P|310:289|357:295,1,75,10|0,1:0|0:0,0:0:0:0:
384,128,134624,2,0,P|345:133|300:125,1,75,2|0,1:0|0:0,0:0:0:0:
490,237,134868,2,0,P|487:270|494:319,1,75,10|0,1:0|0:0,0:0:0:0:
486,129,135112,6,0,P|447:171|409:236,1,112.5,6|0,1:0|0:0,0:0:0:0:
417,217,135356,2,0,L|325:209,1,75,10|0,1:0|0:0,0:0:0:0:
144,127,135599,2,0,L|161:256,1,112.5,2|0,1:0|0:0,0:0:0:0:
158,238,135843,2,0,P|200:230|238:227,1,75,10|2,1:0|1:0,0:0:0:0:
323,360,136087,1,0,1:0:0:0:
310,210,136209,1,2,1:0:0:0:
238,360,136331,2,0,P|200:356|163:349,1,75,10|0,1:0|0:0,0:0:0:0:
290,288,136575,2,0,L|402:282,1,112.5,2|0,1:0|0:0,0:0:0:0:
402,282,136819,2,0,P|399:246|401:198,1,75,8|0,1:0|0:0,0:0:0:0:
266,42,137063,102,0,P|323:66|348:153,1,150,6|10,1:0|1:0,0:0:0:0:
204,215,137429,1,0,0:0:0:0:
130,193,137551,2,0,P|126:160|130:117,1,75,2|0,1:0|0:0,0:0:0:0:
261,156,137795,1,8,1:0:0:0:
222,295,137917,6,0,B|142:283|158:321|48:301,1,150,2|2,1:0|1:0,0:0:0:0:
16,246,138282,2,0,P|12:207|-4:149,1,75,10|0,1:0|0:0,0:0:0:0:
201,206,138526,2,0,P|205:167|221:109,1,75,2|0,1:0|0:0,0:0:0:0:
381,224,138770,2,0,P|377:185|361:127,1,75,8|0,1:0|0:0,0:0:0:0:
413,28,139014,102,0,P|331:55|284:43,1,112.5,6|0,1:0|0:0,0:0:0:0:
307,51,139258,2,0,P|294:91|290:141,1,75,8|0,1:3|0:0,0:0:0:0:
472,170,139502,2,0,P|466:132|454:97,1,75,2|8,1:0|1:3,0:0:0:0:
288,222,139746,5,8,1:3:0:0:
360,303,139868,2,0,P|417:307|479:379,1,150,2|2,1:0|1:0,0:0:0:0:
362,222,140234,2,0,B|357:186|357:186|364:138,1,75,8|8,1:3|1:3,0:0:0:0:
241,81,140477,2,0,L|312:75,2,50,10|0|0,1:0|1:0|1:0,0:0:0:0:
184,131,140721,2,0,L|98:121,1,75,0|0,1:0|0:0,0:0:0:0:
9,151,140965,6,0,P|31:213|28:284,1,127.50000243187,4|2,1:0|1:3,0:0:0:0:
106,342,141331,1,0,0:3:0:0:
207,341,141453,2,0,L|279:335,1,63.7500012159348,0|0,0:3|0:0,0:0:0:0:
350,227,141697,2,0,P|349:261|355:297,1,63.7500012159348,2|0,1:3|0:0,0:0:0:0:
493,235,141941,2,0,L|417:224,1,63.7500012159348,0|0,1:0|0:0,0:0:0:0:
348,57,142185,6,0,P|418:84|430:154,1,127.50000243187,2|0,1:3|0:0,0:0:0:0:
329,137,142551,1,0,0:0:0:0:
265,197,142673,2,0,P|260:232|272:277,1,63.7500012159348,2|0,1:3|0:0,0:0:0:0:
117,235,142917,2,0,L|204:228,1,63.7500012159348,0|0,1:0|0:0,0:0:0:0:
22,125,143160,102,0,P|60:142|146:139,1,127.50000243187,2|2,1:3|0:0,0:0:0:0:
271,23,143526,1,0,0:0:0:0:
218,73,143648,2,0,P|217:106|221:147,1,63.7500012159348,2|0,1:3|0:0,0:0:0:0:
351,180,143892,2,0,L|275:164,1,63.7500012159348,0|0,1:0|0:0,0:0:0:0:
136,249,144136,6,0,P|199:224|265:235,1,127.50000243187,2|0,1:3|0:0,0:0:0:0:
356,303,144502,1,0,0:0:0:0:
274,370,144624,2,0,P|270:337|276:291,1,63.7500012159348,2|0,1:3|0:0,0:0:0:0:
441,364,144868,2,0,P|446:315|425:215,1,127.50000243187,0|2,1:0|1:3,0:0:0:0:
492,146,145234,1,0,0:0:0:0:
428,67,145356,2,0,L|362:78,1,63.7500012159348,2|0,0:0|0:0,0:0:0:0:
286,144,145599,2,0,P|292:184|292:226,1,63.7500012159348,2|0,1:3|0:0,0:0:0:0:
259,318,145843,2,0,L|115:311,1,127.50000243187,0|2,1:0|1:3,0:0:0:0:
78,364,146209,1,0,0:0:0:0:
28,280,146331,102,0,P|23:245|28:200,1,63.7500012159348,8|0,0:3|0:0,0:0:0:0:
112,140,146575,2,0,P|117:175|114:208,1,63.7500012159348,10|0,1:3|0:0,0:0:0:0:
47,59,146819,6,0,P|108:60|169:50,1,95.6250018239022,8|0,1:3|0:0,0:0:0:0:
175,33,147063,2,0,P|171:74|173:108,1,63.7500012159348,10|8,1:3|1:3,0:0:0:0:
268,135,147307,2,0,P|273:173|274:204,1,63.7500012159348,8|0,1:3|0:0,0:0:0:0:
351,253,147551,1,10,1:3:0:0:
356,351,147673,1,0,0:0:0:0:
443,306,147795,2,0,P|484:297|510:295,1,63.7500012159348,8|0,1:3|0:0,0:0:0:0:
431,233,148038,2,0,P|425:191|424:131,1,95.6250018239022,10|0,1:3|0:0,0:0:0:0:
423,137,148282,2,0,L|488:132,1,63.7500012159348,8|0,1:3|0:0,0:0:0:0:
417,46,148526,1,10,1:3:0:0:
325,23,148648,101,8,1:3:0:0:
325,23,148709,1,8,1:3:0:0:
325,23,148770,2,0,P|328:59|325:134,1,95.6250018239022,4|0,1:2|0:0,0:0:0:0:
326,118,149014,2,0,L|257:127,1,63.7500012159348,8|0,1:2|0:0,0:0:0:0:
145,167,149258,2,0,P|142:203|145:278,1,95.6250018239022,0|0,1:0|0:0,0:0:0:0:
143,262,149502,6,0,L|212:270,1,63.7500012159348,8|0,1:2|0:0,0:0:0:0:
49,210,149746,2,0,P|56:287|49:349,1,127.50000243187,0|8,1:0|1:0,0:0:0:0:
282,270,150112,1,8,1:0:0:0:
286,190,150234,2,0,L|198:199,1,63.7500012159348,0|0,0:0|0:0,0:0:0:0:
200,97,150477,102,0,P|198:60|200:22,1,63.7500012159348,8|0,1:0|0:0,0:0:0:0:
306,29,150721,2,0,B|379:23|362:46|437:37,1,127.50000243187,0|8,1:0|1:0,0:0:0:0:
383,155,151087,1,8,1:0:0:0:
482,195,151209,2,0,P|486:142|478:106,1,63.7500012159348,0|0,0:0|0:0,0:0:0:0:
293,132,151453,6,0,P|291:163|295:195,1,63.7500012159348,8|0,1:0|0:0,0:0:0:0:
256,281,151697,2,0,P|295:249|397:238,1,127.50000243187,0|8,1:0|1:0,0:0:0:0:
216,207,152063,1,8,1:0:0:0:
140,213,152185,2,0,L|69:219,1,63.7500012159348,0|0,0:0|0:0,0:0:0:0:
143,75,152429,2,0,L|169:140,1,63.7500012159348,8|0,1:0|0:0,0:0:0:0:
0,152,152673,2,0,P|31:102|61:29,1,127.50000243187,4|8,1:0|1:0,0:0:0:0:
94,145,153038,1,0,0:0:0:0:
212,193,153160,2,0,B|278:222,1,63.7500012159348,0|0,0:0|0:0,0:0:0:0:
378,255,153404,2,0,L|309:317,1,63.7500012159348,8|0,1:0|0:0,0:0:0:0:
256,369,153648,2,0,L|235:290,1,63.7500012159348,0|0,1:0|0:0,0:0:0:0:
108,274,153892,102,0,P|146:269|184:272,1,63.7500012159348,8|8,1:0|1:0,0:0:0:0:
72,200,154136,2,0,P|40:195|8:196,1,63.7500012159348,0|0,0:0|1:0,0:0:0:0:
45,52,154380,2,0,P|47:86|44:126,1,63.7500012159348,8|0,1:0|1:0,0:0:0:0:
173,94,154624,6,0,P|174:156|178:215,1,95.6250018239022,8|0,1:3|0:0,0:0:0:0:
175,189,154868,2,0,P|208:186|252:185,1,63.7500012159348,8|0,1:3|0:0,0:0:0:0:
391,140,155112,1,12,1:3:0:0:
331,242,155234,1,0,0:0:0:0:
288,101,155356,2,0,P|285:65|285:34,1,63.7500012159348,8|0,1:3|0:0,0:0:0:0:
410,20,155599,101,8,1:3:0:0:
474,104,155721,1,8,1:3:0:0:
432,209,155843,2,0,P|429:246|432:280,1,63.7500012159348,8|0,1:0|0:0,0:0:0:0:
283,313,156087,5,8,1:3:0:0:
368,363,156209,1,8,1:3:0:0:
309,283,156331,1,8,1:0:0:0:
350,349,156453,1,8,1:3:0:0:
227,248,156575,70,0,P|155:250|76:332,1,165.000005035401,14|0,1:0|0:0,0:0:0:0:
10,168,156941,1,6,1:0:0:0:
91,118,157063,2,0,B|100:162|100:162|93:207,1,82.5000025177003,8|0,1:0|0:0,0:0:0:0:
237,59,157307,102,0,P|166:63|86:22,1,150,4|0,1:0|1:0,0:0:0:0:
213,153,158038,1,8,1:0:0:0:
151,273,158282,2,0,L|154:325,1,37.5,0|0,1:0|1:0,0:0:0:0:
153,310,158526,102,0,P|191:306|240:314,1,75,2|0,0:0|1:0,0:0:0:0:
242,283,158892,2,0,P|273:295|304:327,1,75,4|0,1:2|0:0,0:0:0:0:
341,333,159258,1,0,1:0:0:0:
341,333,159746,2,0,L|383:328,1,37.5,0|0,1:0|0:0,0:0:0:0:
472,317,159990,2,0,P|435:255|376:233,1,131.25,8|0,1:0|0:0,0:0:0:0:
382,233,160477,38,0,B|367:155|406:167|386:43,1,165.000005035401,6|0,1:0|1:0,0:0:0:0:
303,177,160843,1,14,1:0:0:0:
221,122,160965,2,0,B|181:116|181:116|129:122,1,82.5000025177003,8|0,1:0|0:0,0:0:0:0:
18,259,161209,86,0,B|90:251|90:251|111:214|111:214|198:207,1,187.5,4|0,1:0|0:0,0:0:0:0:
261,223,161941,2,0,P|252:281|267:337,1,112.5,0|0,1:0|1:0,0:0:0:0:
341,280,162429,102,2,B|334:267|341:255|341:255|332:245|340:234|340:234|334:222|341:214|341:214|332:204|341:195|341:195|332:185|341:176|341:176|332:165|342:158|342:158|334:147|342:139|342:139|334:128|342:122|342:122|334:113|343:105|343:105|334:95|343:88|343:88|334:79|342:72|342:72|334:64|342:57|342:57|335:49|343:42|343:42|335:33|343:25|343:25|339:7,2,300,0|0|6,0:0|0:0|1:0,1:1:0:0:
485,350,164502,21,0,0:0:0:0:
485,350,164746,1,10,1:0:0:0:
485,350,164807,1,0,1:0:0:0:
485,350,164868,2,0,B|492:306|492:306|479:251,1,82.5000025177003,0|0,1:0|0:0,0:0:0:0:
417,120,165112,102,0,P|355:115|256:238,1,225,4|0,1:0|0:0,0:0:0:0:
230,333,166087,1,0,0:0:0:0:
338,368,166331,1,0,1:0:0:0:
338,368,166575,2,0,L|336:319,1,37.5,0|0,1:0|1:0,0:0:0:0:
362,260,166819,1,8,1:0:0:0:
362,260,167063,2,0,P|292:252|240:257,1,112.5,0|0,0:0|0:0,0:0:0:0:
95,109,167551,22,0,B|88:151|88:151|98:198,1,82.5000025177003,6|0,1:0|0:0,0:0:0:0:
167,262,167795,1,8,1:0:0:0:
245,186,167917,1,8,1:0:0:0:
170,118,168038,1,4,0:0:0:0:
491,62,168282,70,0,B|412:49|422:87|335:75,1,150,4|0,1:0|0:0,0:0:0:0:
323,54,169014,1,2,0:0:0:0:
306,31,169258,2,0,P|306:93|313:118,1,75,0|0,1:0|0:0,0:0:0:0:
286,175,169624,2,0,P|290:207|286:259,1,75,8|0,0:1|0:0,0:0:0:0:
252,313,169990,2,0,L|209:313,1,37.5,8|0,1:0|0:0,0:0:0:0:
159,364,170234,1,4,1:0:0:0:
28,224,170477,1,0,0:0:0:0:
28,224,170599,2,0,L|67:228,1,37.5,8|0,0:1|1:0,0:0:0:0:
188,139,170965,5,4,1:2:0:0:
182,109,171209,1,4,1:2:0:0:
173,82,171453,1,4,1:2:0:0:
334,35,171697,6,0,L|410:28,2,55.0000016784668,0|0|0,1:2|1:0|1:0,0:0:0:0:
299,51,171941,1,0,1:2:0:0:
283,85,172022,1,0,1:0:0:0:
283,123,172104,1,0,1:0:0:0:
302,155,172185,6,0,B|378:142|386:185|475:165,1,165.000005035401,4|8,1:0|1:0,0:0:0:0:
467,274,172551,1,0,0:0:0:0:
359,263,172673,2,0,B|353:305|353:305|363:359,1,82.5000025177003,2|0,0:0|1:0,0:0:0:0:
191,240,172917,2,0,L|288:233,1,82.5000025177003,8|0,1:0|0:0,0:0:0:0:
90,315,173160,2,0,L|268:331,1,165.000005035401,0|8,1:0|1:0,0:0:0:0:
114,225,173526,1,0,1:0:0:0:
30,129,173648,2,0,P|26:183|37:226,1,82.5000025177003,2|0,0:0|1:0,0:0:0:0:
179,165,173892,102,0,P|183:124|177:83,1,82.5000025177003,8|0,1:0|0:0,0:0:0:0:
379,25,174136,2,0,P|301:58|290:149,1,165.000005035401,6|8,1:0|1:0,0:0:0:0:
385,235,174502,1,0,0:0:0:0:
460,135,174624,2,0,P|415:140|361:134,1,82.5000025177003,2|0,0:0|1:0,0:0:0:0:
292,260,174868,2,0,P|318:293|339:346,1,82.5000025177003,8|0,1:0|0:0,0:0:0:0:
463,279,175112,6,0,L|304:181,1,165.000005035401,6|8,1:0|1:0,0:0:0:0:
212,134,175477,1,0,1:0:0:0:
108,177,175599,2,0,L|34:235,1,82.5000025177003,2|0,0:0|1:0,0:0:0:0:
224,313,175843,2,0,L|216:220,1,82.5000025177003,8|0,1:0|1:0,0:0:0:0:
7,348,176087,102,0,P|69:349|134:261,1,165.000005035401,6|8,1:0|1:0,0:0:0:0:
260,120,176453,1,0,0:0:0:0:
181,81,176575,2,0,B|176:123|176:123|187:184,1,82.5000025177003,2|0,0:0|1:0,0:0:0:0:
344,169,176819,2,0,B|351:129|351:129|346:87,1,82.5000025177003,8|0,1:0|0:0,0:0:0:0:
510,142,177063,2,0,L|415:148,1,82.5000025177003,2|0,1:0|0:0,0:0:0:0:
499,251,177307,2,0,B|408:234|422:279|311:246,1,165.000005035401,10|0,1:0|0:0,0:0:0:0:
164,258,177673,1,2,1:0:0:0:
255,356,177795,6,0,P|258:313|250:261,1,82.5000025177003,8|0,1:0|0:0,0:0:0:0:
203,66,178038,2,0,P|196:126|282:183,1,165.000005035401,6|8,1:0|1:0,0:0:0:0:
292,91,178404,1,0,1:0:0:0:
431,213,178526,102,0,P|369:269|268:251,1,165.000005035401,4|8,1:2|1:0,0:0:0:0:
119,244,178892,1,0,1:3:0:0:
116,337,179014,2,0,P|166:330|205:204,1,165.000005035401,4|8,1:2|1:0,0:0:0:0:
266,82,179380,5,0,1:3:0:0:
354,121,179502,2,0,P|312:154|261:164,1,82.5000025177003,2|0,1:0|1:3,0:0:0:0:
189,16,179746,2,0,P|179:63|185:102,1,82.5000025177003,10|0,1:0|1:3,0:0:0:0:
446,148,179990,102,0,P|428:67|340:30,1,165.000005035401,6|8,1:0|1:0,0:0:0:0:
230,193,180356,1,0,0:0:0:0:
324,279,180477,2,0,P|327:231|316:180,1,82.5000025177003,2|0,0:0|1:0,0:0:0:0:
209,309,180721,2,0,L|124:315,1,82.5000025177003,8|0,1:0|0:0,0:0:0:0:
18,169,180965,2,0,P|76:235|172:220,1,165.000005035401,0|8,1:0|1:0,0:0:0:0:
251,100,181331,1,0,0:0:0:0:
150,49,181453,2,0,P|147:106|157:142,1,82.5000025177003,2|0,0:0|1:0,0:0:0:0:
426,90,181697,6,0,L|331:88,1,82.5000025177003,10|0,1:0|0:0,0:0:0:0:
493,192,181941,2,0,L|329:206,1,165.000005035401,6|8,1:0|1:0,0:0:0:0:
242,268,182307,1,0,0:0:0:0:
316,359,182429,2,0,B|324:316|324:316|314:258,1,82.5000025177003,2|0,0:0|1:0,0:0:0:0:
252,109,182673,2,0,B|244:152|244:152|254:210,1,82.5000025177003,8|0,1:0|0:0,0:0:0:0:
167,349,182917,102,0,L|169:155,1,165.000005035401,0|8,1:0|1:0,0:0:0:0:
35,99,183282,1,0,1:0:0:0:
117,38,183404,2,0,P|158:31|203:41,1,82.5000025177003,2|0,0:0|1:0,0:0:0:0:
92,199,183648,2,0,P|46:206|-13:185,1,82.5000025177003,8|0,1:0|0:0,0:0:0:0:
174,133,183892,6,0,P|229:165|238:261,1,150,4|10,1:0|1:0,0:0:0:0:
402,324,184258,1,0,0:0:0:0:
327,361,184380,2,0,L|321:186,1,150,2|8,1:0|1:0,0:0:0:0:
334,87,184746,1,2,1:0:0:0:
252,103,184868,101,0,0:0:0:0:
219,27,184990,1,2,1:0:0:0:
252,103,185112,2,0,P|253:65|251:28,1,75,8|0,1:0|0:0,0:0:0:0:
143,191,185356,2,0,P|190:172|239:169,1,75,2|0,1:0|0:0,0:0:0:0:
346,225,185599,2,0,P|297:199|266:193,1,75,10|0,1:0|1:0,0:0:0:0:
84,107,185843,6,0,P|126:94|177:92,1,75,2|0,1:0|0:0,0:0:0:0:
393,51,186087,2,0,P|351:38|300:36,1,75,10|0,1:0|0:0,0:0:0:0:
229,26,186331,101,2,1:0:0:0:
229,26,186575,1,8,1:0:0:0:
229,26,186819,2,0,P|231:76|227:119,1,75,10|8,1:0|1:0,0:0:0:0:
300,135,187063,1,10,1:0:0:0:
300,135,187307,1,8,1:0:0:0:
252,195,187429,1,8,1:0:0:0:
300,256,187551,1,8,1:0:0:0:
376,234,187673,1,8,1:0:0:0:
451,308,187795,6,0,P|447:266|454:134,1,165.000005035401,4|8,1:0|1:0,0:0:0:0:
391,80,188160,1,0,0:0:0:0:
331,33,188282,2,0,L|232:29,1,82.5000025177003,2|0,0:0|1:0,0:0:0:0:
137,110,188526,2,0,P|173:103|222:110,1,82.5000025177003,8|0,1:0|0:0,0:0:0:0:
216,266,188770,2,0,P|177:271|132:264,1,82.5000025177003,0|0,1:0|0:0,0:0:0:0:
247,179,189014,2,0,B|335:162|319:222|414:194,1,165.000005035401,8|2,1:0|0:0,0:0:0:0:
461,139,189380,1,0,1:0:0:0:
497,231,189502,2,0,B|490:270|490:270|501:338,1,82.5000025177003,10|0,1:0|0:0,0:0:0:0:
366,342,189746,102,0,L|186:378,1,165.000005035401,6|8,1:0|1:0,0:0:0:0:
251,260,190112,1,0,0:0:0:0:
156,218,190234,2,0,P|149:180|156:115,1,82.5000025177003,2|0,0:0|1:0,0:0:0:0:
315,96,190477,2,0,P|319:134|313:181,1,82.5000025177003,8|0,1:0|0:0,0:0:0:0:
78,96,190721,6,0,P|104:49|219:34,1,165.000005035401,2|8,1:0|1:0,0:0:0:0:
285,19,191087,1,0,0:0:0:0:
224,133,191209,2,0,P|233:180|238:227,1,82.5000025177003,2|0,0:0|1:0,0:0:0:0:
319,331,191453,2,0,P|323:293|332:243,1,82.5000025177003,8|0,1:0|0:0,0:0:0:0:
220,303,191697,102,0,B|179:292|179:292|121:311,1,82.5000025177003,4|0,1:0|0:0,0:0:0:0:
319,174,191941,2,0,B|358:166|358:166|407:174,1,82.5000025177003,8|0,1:0|0:0,0:0:0:0:
207,117,192185,2,0,L|199:30,1,82.5000025177003,2|0,0:0|1:0,0:0:0:0:
298,8,192429,2,0,L|292:91,1,82.5000025177003,8|0,1:0|0:0,0:0:0:0:
163,195,192673,6,0,P|124:195|75:217,1,82.5000025177003,0|0,1:0|0:0,0:0:0:0:
229,261,192917,2,0,P|265:268|352:357,1,165.000005035401,8|2,1:0|1:0,0:0:0:0:
387,252,193282,1,8,1:0:0:0:
475,261,193404,2,0,P|474:210|459:166,1,82.5000025177003,10|0,1:0|0:0,0:0:0:0:
429,42,193648,102,0,L|247:107,1,165.000005035401,6|8,1:0|1:0,0:0:0:0:
299,293,194014,1,0,0:0:0:0:
299,293,194136,2,0,L|459:350,1,165.000005035401,2|8,1:0|1:0,0:0:0:0:
288,178,194502,1,0,0:0:0:0:
288,178,194624,2,0,B|196:171|220:218|123:208,1,165.000005035401,6|8,1:0|1:0,0:0:0:0:
167,332,194990,5,0,0:0:0:0:
87,357,195112,2,0,B|78:317|78:317|88:262,1,82.5000025177003,2|0,0:0|1:0,0:0:0:0:
17,126,195356,2,0,B|8:168|8:168|15:207,1,82.5000025177003,0|0,1:0|0:0,0:0:0:0:
104,75,195599,102,0,L|281:60,1,165.000005035401,4|8,1:0|1:0,0:0:0:0:
328,143,195965,1,0,0:0:0:0:
300,231,196087,2,0,B|288:196|288:196|292:144,1,82.5000025177003,2|0,0:0|1:0,0:0:0:0:
397,21,196331,2,0,B|407:59|407:59|401:102,1,82.5000025177003,8|0,1:0|0:0,0:0:0:0:
505,193,196575,6,0,L|409:210,1,82.5000025177003,0|0,1:0|0:0,0:0:0:0:
472,343,196819,2,0,P|393:350|334:273,1,165.000005035401,8|2,1:0|0:0,0:0:0:0:
244,343,197185,1,0,1:0:0:0:
226,265,197307,102,0,L|242:177,1,82.5000025177003,8|0,1:0|0:0,0:0:0:0:
22,124,197551,2,0,P|80:189|153:184,1,165.000005035401,4|8,1:0|1:0,0:0:0:0:
180,72,197917,1,0,0:0:0:0:
105,28,198038,2,0,P|101:73|112:127,1,82.5000025177003,2|0,0:0|1:0,0:0:0:0:
256,103,198282,2,0,P|260:65|253:22,1,82.5000025177003,8|0,1:0|0:0,0:0:0:0:
357,120,198526,6,0,L|530:147,1,165.000005035401,2|8,1:0|1:0,0:0:0:0:
427,210,198892,1,0,1:0:0:0:
495,270,199014,1,2,1:0:0:0:
462,293,199136,1,0,1:0:0:0:
478,309,199258,1,10,1:0:0:0:
380,368,199380,1,0,0:0:0:0:
287,288,199502,38,0,B|281:247|281:247|287:203,1,75,6|0,1:0|0:0,0:0:0:0:
119,95,199746,2,0,P|215:105|230:166,1,150,8|8,1:3|1:3,0:0:0:0:
158,190,200112,1,0,0:0:0:0:
157,295,200234,2,0,B|161:334|161:334|155:380,1,75,2|0,1:0|1:0,0:0:0:0:
5,232,200477,6,2,B|135:208|77:295|242:269,1,225,0|0,1:0|0:0,1:1:0:0:
301,188,200965,2,0,P|338:183|389:194,1,75,2|0,0:0|0:0,0:0:0:0:
504,95,201209,2,0,P|466:111|437:140,1,75,8|0,1:3|0:0,0:0:0:0:
340,34,201453,102,0,L|253:38,1,75,2|0,1:0|0:0,0:0:0:0:
156,119,201697,2,0,L|243:123,1,75,8|0,1:3|0:0,0:0:0:0:
352,50,201941,2,0,L|265:54,1,75,8|0,1:3|0:0,0:0:0:0:
434,79,202185,2,0,P|428:129|440:242,1,150,2|0,1:0|0:0,0:0:0:0:
302,311,202551,1,2,1:0:0:0:
380,354,202673,2,0,P|382:306|375:268,1,75,2|0,0:0|0:0,0:0:0:0:
328,146,202917,2,0,P|323:183|325:220,1,75,2|0,1:0|0:0,0:0:0:0:
159,241,203160,1,2,1:0:0:0:
248,300,203282,1,2,1:0:0:0:
227,146,203404,6,2,L|86:176,1,112.5,2|0,1:0|0:0,1:1:0:0:
116,169,203648,2,0,B|106:135|106:135|111:81,1,75,8|0,1:3|0:0,0:0:0:0:
22,13,203892,2,0,B|25:51|25:51|14:86,1,75,8|0,1:3|0:0,0:0:0:0:
62,192,204136,2,0,P|119:193|158:288,1,150,2|0,1:0|0:0,0:0:0:0:
259,235,204502,1,2,1:0:0:0:
321,321,204624,2,0,L|402:306,1,75,2|0,0:0|0:0,0:0:0:0:
448,199,204868,102,0,P|441:156|442:109,1,75,2|0,1:0|0:0,0:0:0:0:
260,106,205112,2,0,P|266:69|267:31,1,75,2|0,1:0|0:0,0:0:0:0:
347,228,205356,2,0,L|354:56,1,150,2|0,1:0|0:0,1:1:0:0:
414,19,205721,1,0,0:0:0:0:
353,78,205843,2,0,L|359:227,1,150,2|0,1:0|0:0,0:0:0:0:
266,261,206209,1,0,0:0:0:0:
359,227,206331,6,0,L|367:142,1,75,4|0,1:2|0:0,0:0:0:0:
166,166,206575,2,0,L|174:81,1,75,2|0,1:0|0:0,0:0:0:0:
268,176,206819,2,0,L|276:91,1,75,4|0,1:2|0:0,0:0:0:0:
183,269,207063,1,2,1:0:0:0:
327,299,207185,1,2,1:0:0:0:
200,350,207307,102,0,B|140:340|144:372|59:353,1,112.5,6|0,1:0|0:0,0:0:0:0:
88,358,207551,2,0,P|88:324|85:272,1,75,8|0,1:3|0:0,0:0:0:0:
12,209,207795,2,0,P|11:175|14:123,1,75,8|0,1:3|0:0,0:0:0:0:
85,52,208038,2,0,L|165:56,1,75,2|0,1:0|0:0,0:0:0:0:
235,153,208282,6,2,P|233:203|234:289,1,112.5,0|0,1:0|0:0,1:1:0:0:
233,265,208526,2,0,L|312:268,1,75,8|0,1:3|0:0,0:0:0:0:
402,343,208770,2,0,P|404:308|403:255,1,75,8|0,1:3|0:0,0:0:0:0:
477,205,209014,1,2,1:0:0:0:
399,139,209136,1,0,0:0:0:0:
455,79,209258,102,0,L|322:52,1,112.5,2|0,1:0|0:0,0:0:0:0:
344,56,209502,2,0,L|321:133,1,75,8|0,1:3|0:0,0:0:0:0:
404,254,209746,2,0,B|378:228|378:228|338:218,1,75,8|0,1:3|0:0,0:0:0:0:
196,308,209990,2,0,B|222:282|222:282|262:272,1,75,2|0,1:0|0:0,0:0:0:0:
199,179,210234,2,0,P|196:133|195:42,1,112.5,2|0,1:0|0:0,0:0:0:0:
194,66,210477,5,8,1:3:0:0:
114,112,210599,1,0,0:0:0:0:
122,201,210721,2,0,P|126:260|124:310,1,75,8|0,1:3|0:0,0:0:0:0:
69,343,210965,1,2,1:0:0:0:
44,260,211087,1,2,1:0:0:0:
204,281,211209,102,0,B|283:265|269:323|363:303,1,150,2|8,1:0|1:3,0:0:0:0:
309,209,211575,1,0,0:0:0:0:
386,176,211697,2,0,B|421:168|421:168|465:180,1,75,8|0,1:3|0:0,0:0:0:0:
316,102,211941,2,0,B|281:94|281:94|237:106,1,75,2|0,1:0|0:0,0:0:0:0:
381,29,212185,6,0,L|231:19,1,150,2|8,1:0|1:3,0:0:0:0:
140,86,212551,1,0,1:0:0:0:
187,171,212673,2,0,P|193:222|189:262,1,75,2|0,1:0|0:0,0:0:0:0:
271,361,212917,2,0,P|269:323|275:286,1,75,2|0,1:0|0:0,0:0:0:0:
370,271,213160,2,0,L|449:279,1,75,4|0,1:2|0:0,0:0:0:0:
491,174,213404,2,0,P|417:187|365:171,1,112.5,2|0,1:0|0:0,0:0:0:0:
342,154,213648,1,4,0:0:0:0:
268,106,213770,1,0,1:0:0:0:
339,136,213892,1,10,1:0:0:0:
254,125,214014,1,2,1:0:0:0:
266,218,214136,102,0,B|303:225|303:225|339:259,1,75,6|0,1:0|0:0,0:0:0:0:
197,339,214380,2,0,B|189:299|189:299|199:256,1,75,8|0,1:0|0:0,0:0:0:0:
271,296,214624,1,10,1:0:0:0:
196,180,214746,1,0,1:0:0:0:
196,180,214868,2,0,L|204:85,1,75,2|0,1:0|0:0,0:0:0:0:
83,10,215112,6,0,L|76:103,1,75,6|0,1:0|0:0,0:0:0:0:
24,189,215356,2,0,P|80:195|121:290,1,150,8|2,1:0|0:2,0:0:0:0:
288,296,215721,1,0,0:0:0:0:
215,338,215843,2,0,P|208:302|223:243,1,75,8|0,1:0|0:0,0:0:0:0:
364,262,216087,2,0,P|369:298|362:335,1,75,0|0,0:0|0:0,0:0:0:0:
299,212,216331,2,0,L|290:123,1,75,8|0,1:0|0:0,0:0:0:0:
281,207,216575,2,0,L|272:118,1,75,2|8,0:0|1:0,0:0:0:0:
263,215,216819,2,0,L|254:126,1,75,8|0,1:0|0:0,0:0:0:0:
354,40,217063,102,0,B|363:76|363:76|361:130,1,75,2|0,1:0|0:0,0:0:0:0:
483,150,217307,2,0,B|474:186|474:186|476:240,1,75,10|0,1:0|0:0,0:0:0:0:
369,61,217551,2,0,B|378:97|378:97|376:151,1,75,2|0,1:0|0:0,0:0:0:0:
471,122,217795,2,0,B|457:185|457:185|468:302,1,150,10|0,1:0|0:0,0:0:0:0:
392,346,218160,1,0,0:0:0:0:
325,277,218282,6,0,L|231:289,1,75,10|0,1:0|0:0,0:0:0:0:
300,136,218526,2,0,L|370:205,1,75,2|0,1:0|0:0,0:0:0:0:
206,222,218770,2,0,L|226:126,1,75,8|0,1:0|0:0,0:0:0:0:
312,37,219014,102,0,B|232:29|249:77|147:65,1,150,6|8,1:0|1:0,0:0:0:0:
71,43,219380,1,0,0:0:0:0:
27,127,219502,2,0,P|31:169|23:222,1,75,2|0,0:0|0:0,0:0:0:0:
109,294,219746,2,0,L|8:298,1,75,8|0,1:0|0:0,0:0:0:0:
197,362,219990,2,0,P|193:317|195:270,1,75,0|0,0:0|0:0,0:0:0:0:
281,206,220234,6,0,L|374:201,1,75,8|0,1:0|0:0,0:0:0:0:
213,188,220477,2,0,L|306:183,1,75,2|8,0:0|1:0,0:0:0:0:
140,174,220721,2,0,L|233:169,1,75,8|0,1:0|0:0,0:0:0:0:
330,80,220965,2,0,P|404:91|444:246,1,225,2|2,1:0|1:0,0:0:0:0:
379,311,221453,2,0,P|339:305|287:318,1,75,2|0,1:0|0:0,0:0:0:0:
444,230,221697,2,0,P|419:125|317:92,1,225,10|0,1:0|0:0,0:0:0:0:
208,24,222185,102,0,B|201:65|201:65|213:109,1,75,10|0,1:0|0:0,0:0:0:0:
138,247,222429,2,0,B|146:214|146:214|139:173,1,75,2|0,1:0|0:0,0:0:0:0:
313,197,222673,2,0,L|218:197,1,75,10|0,1:0|0:0,0:0:0:0:
36,149,222917,6,0,P|41:219|40:334,1,150,6|10,1:0|1:0,0:0:0:0:
165,351,223282,1,2,1:0:0:0:
272,295,223404,2,0,P|312:301|363:300,1,75,2|0,1:0|0:0,0:0:0:0:
472,233,223648,2,0,P|432:239|381:238,1,75,8|0,1:0|0:0,0:0:0:0:
304,124,223892,102,0,P|298:78|303:38,1,75,2|0,1:0|0:0,0:0:0:0:
188,153,224136,2,0,P|194:107|189:67,1,75,10|0,1:0|0:0,0:0:0:0:
340,188,224380,2,0,P|315:155|302:118,1,75,2|0,1:0|0:0,0:0:0:0:
151,217,224624,2,0,P|175:184|188:147,1,75,10|0,1:0|0:0,0:0:0:0:
264,353,224868,2,0,L|253:190,1,150,6|8,1:0|1:0,0:0:0:0:
184,319,225234,5,2,1:0:0:0:
343,321,225356,2,0,B|376:314|376:314|428:324,1,75,0|0,0:0|0:0,0:0:0:0:
185,300,225599,2,0,B|152:293|152:293|100:303,1,75,10|0,1:0|0:0,0:0:0:0:
340,239,225843,2,0,P|335:185|338:35,2,187.5,6|0|0,1:0|0:0|0:0,0:0:0:0:
249,169,226575,1,4,1:2:0:0:
437,162,226697,1,0,0:0:0:0:
332,345,226819,6,0,L|97:330,1,225,4|0,1:0|0:0,0:0:0:0:
95,339,227795,2,0,P|101:302|95:264,1,75,8|0,1:0|0:0,0:0:0:0:
182,97,228160,37,8,1:0:0:0:
232,150,228282,2,0,B|223:180|223:180|230:227,1,60,4|0,1:2|0:0,0:0:0:0:
368,291,228526,2,0,B|372:262|372:262|363:232,1,60,10|0,1:0|0:0,0:0:0:0:
230,350,228770,102,0,L|300:365,1,60,4|0,1:0|0:0,0:0:0:0:
443,306,229014,2,0,L|458:241,1,60,2|0,1:0|0:0,0:0:0:0:
355,107,229258,2,0,L|285:92,1,60,4|0,1:2|0:0,0:0:0:0:
144,163,229502,2,0,L|129:228,1,60,6|0,1:0|0:0,0:0:0:0:
44,333,229746,6,0,B|47:305|47:305|32:262,1,60,4|0,1:2|0:0,0:0:0:0:
223,196,229990,1,0,1:0:0:0:
259,220,230071,1,0,1:0:0:0:
278,259,230152,1,0,1:0:0:0:
278,303,230234,1,0,1:0:0:0:
244,333,230315,1,0,1:0:0:0:
201,342,230396,1,0,1:0:0:0:
201,342,230477,2,0,L|203:289,2,40,8|0|0,1:0|1:0|1:0,0:0:0:0:
127,322,230721,85,4,0:3:0:0:
127,322,231749,1,0,0:3:0:0:
127,322,232358,1,0,0:0:0:0:
119,249,232724,2,0,P|123:217|116:145,1,105,2|0,0:0|0:0,0:0:0:0:
200,139,233700,2,0,P|195:86|203:34,1,105,2|0,0:0|0:0,0:0:0:0:
354,47,234675,1,2,0:0:0:0:
354,47,236383,1,0,0:0:0:0:
440,330,236627,101,4,0:0:0:0:
440,330,237358,1,0,0:0:0:0:
139,260,237602,5,4,0:0:0:0:
139,260,238090,2,0,L|110:259,1,30
45,215,238578,2,0,P|34:144|38:32,1,180,2|0,0:0|0:0,0:0:0:0:
115,59,240285,1,0,0:0:0:0:
191,48,240529,2,0,L|286:51,1,90,2|0,0:0|0:0,0:0:0:0:
354,26,241505,1,0,0:0:0:0:
354,26,242480,101,4,0:0:0:0:
354,26,242925,21,0,1:2:0:0:
379,49,243006,5,0,1:0:0:0:
388,82,243087,5,0,1:0:0:0:
378,115,243168,5,0,1:2:0:0:
349,136,243250,5,0,1:0:0:0:
317,150,243331,5,0,1:0:0:0:
301,181,243412,38,0,P|352:192|392:216,1,82.5000025177003,6|0,1:0|0:0,0:0:0:0:
214,223,243655,2,0,B|191:133|245:147|212:32,1,165.000005035401,8|2,1:0|0:0,0:0:0:0:
144,111,244021,1,0,1:0:0:0:
44,199,244143,2,0,P|101:201|126:195,1,82.5000025177003,8|0,1:0|0:0,0:0:0:0:
303,276,244387,2,0,P|285:328|264:360,1,82.5000025177003,2|0,1:0|0:0,0:0:0:0:
36,290,244631,2,0,P|111:289|194:327,1,165.000005035401,8|2,1:0|0:0,0:0:0:0:
222,226,244997,1,0,1:0:0:0:
301,181,245119,2,0,P|347:169|395:164,1,82.5000025177003,10|0,1:0|0:0,0:0:0:0:
419,250,245363,6,0,P|417:171|423:80,1,165.000005035401,6|8,1:0|1:0,0:0:0:0:
358,23,245729,1,0,0:0:0:0:
292,85,245851,2,0,P|246:97|198:102,1,82.5000025177003,2|0,0:0|1:0,0:0:0:0:
222,226,246094,2,0,P|180:201|143:171,1,82.5000025177003,8|0,1:0|0:0,0:0:0:0:
26,35,246338,2,0,P|42:95|51:201,1,165.000005035401,6|8,1:0|1:0,0:0:0:0:
126,97,246704,1,0,1:0:0:0:
153,180,246826,2,0,P|143:232|128:272,1,82.5000025177003,2|0,0:0|1:0,0:0:0:0:
217,382,247070,2,0,P|204:330|200:288,1,82.5000025177003,10|0,1:0|1:0,0:0:0:0:
382,259,247314,102,0,P|327:254|221:226,1,165.000005035401,4|10,1:0|1:0,0:0:0:0:
352,179,247680,1,0,0:0:0:0:
271,157,247802,2,0,P|264:116|261:75,1,82.5000025177003,2|0,1:0|1:0,0:0:0:0:
381,16,248046,2,0,P|381:61|376:105,1,82.5000025177003,10|0,1:0|0:0,0:0:0:0:
435,195,248290,2,0,P|460:162|489:132,1,82.5000025177003,0|0,1:0|0:0,0:0:0:0:
465,287,248533,6,0,P|411:296|301:296,1,165.000005035401,8|2,1:0|1:0,0:0:0:0:
218,267,248899,1,0,1:0:0:0:
322,220,249021,2,0,P|290:188|266:148,1,82.5000025177003,10|0,1:0|0:0,0:0:0:0:
136,37,249265,2,0,P|122:115|178:175,1,165.000005035401,6|8,1:0|1:0,0:0:0:0:
362,136,249631,1,0,1:0:0:0:
364,48,249753,2,0,P|277:62|205:91,1,165.000005035401,4|8,1:2|1:0,0:0:0:0:
218,267,250119,1,0,1:0:0:0:
278,320,250241,2,0,P|266:247|270:155,1,165.000005035401,4|8,1:2|1:0,0:0:0:0:
446,151,250607,1,0,0:3:0:0:
426,232,250729,2,0,P|378:227|342:216,1,82.5000025177003,2|0,1:0|1:0,0:0:0:0:
339,93,250972,2,0,P|384:78|422:74,1,82.5000025177003,10|0,1:0|0:0,0:0:0:0:
269,156,251216,102,0,B|188:139|188:176|104:160,1,165.000005035401,6|8,1:0|1:0,0:0:0:0:
147,79,251582,1,0,0:0:0:0:
230,241,251704,2,0,P|224:298|216:334,1,82.5000025177003,2|0,0:0|1:0,0:0:0:0:
116,242,251948,2,0,P|107:185|105:148,1,82.5000025177003,8|0,1:0|0:0,0:0:0:0:
237,66,252192,6,0,P|320:86|401:123,1,165.000005035401,2|8,1:0|1:0,0:0:0:0:
348,192,252558,1,0,0:0:0:0:
471,82,252680,2,0,P|485:129|491:174,1,82.5000025177003,2|0,0:0|1:0,0:0:0:0:
422,316,252924,2,0,P|423:277|429:234,1,82.5000025177003,10|0,1:0|0:0,0:0:0:0:
500,359,253168,2,0,P|422:347|334:352,1,165.000005035401,6|8,1:0|1:0,0:0:0:0:
266,293,253533,1,0,0:0:0:0:
331,227,253655,2,0,P|330:188|324:145,1,82.5000025177003,2|0,0:0|1:0,0:0:0:0:
218,52,253899,2,0,P|205:100|203:136,1,82.5000025177003,8|0,1:0|0:0,0:0:0:0:
83,208,254143,102,0,P|153:219|246:206,1,165.000005035401,2|8,1:0|1:0,0:0:0:0:
305,56,254509,1,0,1:0:0:0:
392,82,254631,2,0,P|407:128|413:173,1,82.5000025177003,2|0,0:0|1:0,0:0:0:0:
238,120,254875,2,0,P|283:135|323:157,1,82.5000025177003,8|0,1:0|0:0,0:0:0:0:
489,207,255119,6,0,P|430:259|349:228,1,165.000005035401,4|10,1:0|1:0,0:0:0:0:
282,288,255485,1,0,0:0:0:0:
245,206,255607,2,0,P|203:216|154:218,1,82.5000025177003,2|0,1:0|1:0,0:0:0:0:
91,74,255851,2,0,P|133:109|151:133,1,82.5000025177003,8|2,1:0|1:0,0:0:0:0:
82,349,256094,102,0,P|74:285|79:181,1,165.000005035401,0|10,0:0|1:0,0:0:0:0:
238,120,256460,1,0,0:0:0:0:
190,52,256582,2,0,P|198:116|193:220,1,165.000005035401,2|8,1:0|1:0,0:0:0:0:
160,301,256948,1,2,1:0:0:0:
37,198,257070,2,0,P|77:185|123:177,1,82.5000025177003,0|0,1:0|0:0,0:0:0:0:
244,287,257314,2,0,P|307:295|407:327,1,165.000005035401,10|2,1:0|1:0,0:0:0:0:
478,280,257680,1,0,1:0:0:0:
412,152,257802,2,0,P|407:198|407:236,1,82.5000025177003,8|0,1:0|1:0,0:0:0:0:
490,107,258046,5,12,1:0:0:0:
316,195,258168,1,8,1:0:0:0:
304,186,258411,1,0,1:0:0:0:
323,92,258533,1,8,1:0:0:0:
241,44,258655,1,8,1:0:0:0:
170,108,258777,1,4,1:2:0:0:
210,196,258899,1,8,1:0:0:0:
133,342,259021,102,0,P|140:259|134:177,1,165.000005035401,6|8,1:0|1:0,0:0:0:0:
83,108,259387,1,0,0:0:0:0:
0,251,259509,2,0,P|29:278|71:301,1,82.5000025177003,2|0,0:0|1:0,0:0:0:0:
209,144,259753,2,0,P|171:155|130:180,1,82.5000025177003,8|0,1:0|0:0,0:0:0:0:
197,378,259997,2,0,P|249:335|220:249,1,165.000005035401,0|8,1:0|1:0,0:0:0:0:
289,186,260363,1,0,1:0:0:0:
373,223,260485,2,0,P|401:257|423:301,1,82.5000025177003,2|0,0:0|1:0,0:0:0:0:
365,132,260729,2,0,P|408:136|455:151,1,82.5000025177003,10|0,1:0|0:0,0:0:0:0:
294,73,260972,6,0,P|328:44|440:0,1,165.000005035401,6|8,1:0|1:0,0:0:0:0:
365,132,261338,1,0,0:0:0:0:
215,124,261460,2,0,P|175:112|134:108,1,82.5000025177003,2|0,0:0|1:0,0:0:0:0:
84,255,261704,2,0,P|115:228|151:208,1,82.5000025177003,8|0,1:0|0:0,0:0:0:0:
74,10,261948,2,0,P|55:78|48:174,1,165.000005035401,6|8,1:0|1:0,0:0:0:0:
168,311,262314,1,0,1:0:0:0:
134,108,262436,2,0,P|163:163|248:237,1,165.000005035401,2|8,0:0|1:0,0:0:0:0:
329,254,262802,1,0,1:0:0:0:
306,53,262924,86,0,P|299:112|301:169,2,112.5,4|8|0,1:0|0:1|1:0,0:0:0:0:
491,181,263899,2,0,P|443:145|393:118,2,112.5,4|0|8,1:0|1:0|0:1,0:0:0:0:
287,277,264875,2,0,P|341:253|389:223,2,112.5,4|0|0,1:0|1:0|1:0,0:0:0:0:
174,271,265851,5,4,1:0:0:0:
174,271,266216,1,0,1:0:0:0:
274,299,266338,2,0,P|275:261|266:225,1,75,8|8,1:0|1:0,0:0:0:0:
95,203,266582,2,0,P|78:236|70:272,1,75,4|0,1:2|0:0,0:0:0:0:
174,271,266826,6,0,L|193:115,1,150,6|8,1:0|1:0,0:0:0:0:
148,47,267192,1,0,0:0:0:0:
310,39,267314,2,0,P|272:37|236:43,1,75,2|0,0:0|1:0,0:0:0:0:
395,76,267558,2,0,P|427:55|462:42,1,75,8|0,1:0|0:0,0:0:0:0:
318,132,267802,2,0,P|292:159|273:191,1,75,0|0,1:0|0:0,0:0:0:0:
403,169,268046,2,0,P|440:163|478:166,1,75,8|0,1:0|0:0,0:0:0:0:
382,293,268290,2,0,P|371:273|363:247,2,50,8|0|0,1:0|1:0|1:0,0:0:0:0:
316,338,268533,2,0,P|305:358|297:384,2,50,8|0|0,1:0|1:0|1:0,0:0:0:0:
257,274,268777,70,0,P|183:264|93:269,1,150,4|0,1:0|0:0,0:0:0:0:
107,266,269753,1,4,1:0:0:0:
107,266,270729,22,0,P|180:249|249:220,1,150,4|8,1:0|1:0,0:0:0:0:
316,166,271094,1,0,0:0:0:0:
226,66,271216,2,0,P|222:113|226:150,1,75,2|0,0:0|0:0,0:0:0:0:
329,256,271460,1,8,1:0:0:0:
447,124,271582,6,0,P|377:94|304:77,1,150,0|0,0:0|0:0,0:0:0:0:
387,186,271948,2,0,P|342:171|312:165,1,75,8|0,1:0|0:0,0:0:0:0:
140,111,272192,2,0,P|93:119|57:131,1,75,2|0,0:0|1:0,0:0:0:0:
84,207,272436,2,0,P|119:197|156:190,1,75,8|0,1:0|0:0,0:0:0:0:
279,241,272680,6,0,P|336:251|392:272,1,112.5,8|0,1:3|0:0,0:0:0:0:
387,269,272924,2,0,P|389:311|384:353,1,75,8|0,1:0|0:0,0:0:0:0:
449,207,273168,2,0,P|443:141|448:90,1,112.5,8|0,1:3|0:0,0:0:0:0:
447,95,273411,2,0,P|412:81|373:71,1,75,8|0,1:3|0:0,0:0:0:0:
242,161,273655,6,0,P|268:155|312:136,1,75,8|8,1:3|1:3,0:0:0:0:
291,52,273899,1,8,1:0:0:0:
175,109,274021,1,0,1:0:0:0:
291,52,274143,2,0,P|238:44|180:23,1,112.5,4|0,1:2|0:0,0:0:0:0:
182,24,274387,2,0,P|145:33|106:34,1,75,8|8,1:3|1:3,0:0:0:0:
70,207,274631,6,0,P|16:160|32:90,1,150,4|8,1:0|1:0,0:0:0:0:
148,185,274997,1,0,0:0:0:0:
214,233,275119,2,0,P|210:275|200:306,1,75,2|0,0:0|0:0,0:0:0:0:
134,363,275363,1,8,1:0:0:0:
223,152,275485,6,0,P|300:143|376:144,1,150,0|0,0:0|0:0,0:0:0:0:
480,250,275851,2,0,P|438:244|405:228,1,75,8|0,1:0|0:0,0:0:0:0:
450,86,276094,2,0,P|465:125|468:161,1,75,2|0,0:0|1:0,0:0:0:0:
361,51,276338,2,0,P|387:17|417:-2,1,75,8|0,1:0|0:0,0:0:0:0:
372,143,276582,38,0,P|297:151|258:152,1,112.5,8|0,1:3|0:0,0:0:0:0:
260,152,276826,2,0,P|254:112|256:73,1,75,8|0,1:0|0:0,0:0:0:0:
190,214,277070,2,0,P|196:263|194:330,1,112.5,8|0,1:3|0:0,0:0:0:0:
194,326,277314,2,0,P|148:329|112:326,1,75,8|8,1:0|1:3,0:0:0:0:
35,306,277558,5,4,1:2:0:0:
83,167,277680,2,0,P|95:204|102:245,1,75,8|0,0:1|0:0,0:0:0:0:
35,306,277924,1,8,0:1:0:0:
0,152,278046,1,8,1:3:0:0:
154,117,278168,1,8,0:1:0:0:
189,271,278290,2,0,P|229:264|265:255,1,75,4|8,1:2|1:3,0:0:0:0:
467,228,278533,6,0,P|401:204|323:187,1,150,4|8,1:0|1:0,0:0:0:0:
239,175,278899,1,0,0:0:0:0:
343,273,279021,2,0,P|346:312|343:353,1,75,2|0,0:0|0:0,0:0:0:0:
433,311,279265,1,8,1:0:0:0:
408,169,279387,6,0,P|403:94|407:17,1,150,0|0,0:0|0:0,0:0:0:0:
315,105,279753,2,0,P|280:95|239:91,1,75,8|0,1:0|0:0,0:0:0:0:
190,231,279997,2,0,P|216:205|240:172,1,75,2|8,0:0|1:3,0:0:0:0:
143,59,280241,2,0,P|151:94|168:131,1,75,8|0,1:0|0:0,0:0:0:0:
298,254,280485,6,0,P|349:247|417:248,1,112.5,8|0,1:3|0:0,0:0:0:0:
409,247,280729,2,0,P|411:210|408:173,1,75,8|0,1:0|0:0,0:0:0:0:
282,28,280972,2,0,P|278:83|287:147,1,112.5,8|0,1:3|0:0,0:0:0:0:
285,139,281216,2,0,P|244:138|206:143,1,75,8|0,1:0|0:0,0:0:0:0:
134,184,281460,1,8,1:3:0:0:
190,282,281582,1,8,1:3:0:0:
59,371,281704,2,0,P|83:342|111:317,1,75,8|8,1:0|1:3,0:0:0:0:
51,130,281948,2,0,P|55:192|48:252,1,112.5,4|0,0:0|0:0,0:0:0:0:
49,241,282192,2,0,P|82:224|118:213,1,75,8|0,1:0|0:0,0:0:0:0:
319,271,282436,6,0,P|280:302|187:279,1,150,4|8,1:0|1:0,0:0:0:0:
203,196,282802,1,0,0:0:0:0:
387,201,282924,2,0,P|404:235|416:273,1,75,2|0,0:0|0:0,0:0:0:0:
370,344,283168,1,8,1:0:0:0:
291,184,283290,2,0,P|268:124|253:37,1,150,0|0,0:0|0:0,0:0:0:0:
335,61,283655,2,0,P|373:58|411:48,1,75,8|0,1:0|0:0,0:0:0:0:
183,117,283899,2,0,P|145:109|100:110,1,75,2|8,0:0|1:0,0:0:0:0:
291,184,284143,2,0,P|321:203|366:219,1,75,8|0,1:0|0:0,0:0:0:0:
218,250,284387,38,0,P|178:293|131:381,1,150,6|8,1:0|1:0,0:0:0:0:
257,327,284753,1,2,1:0:0:0:
79,292,284875,2,0,P|65:247|60:174,1,112.5,0|0,0:0|0:0,0:0:0:0:
59,182,285119,2,0,P|100:174|146:174,1,75,10|0,1:0|0:0,0:0:0:0:
236,100,285363,6,0,P|219:89|189:55,2,50,8|8|8,1:0|1:0|1:0,0:0:0:0:
275,109,285607,1,8,1:0:0:0:
314,107,285688,1,8,1:0:0:0:
351,92,285769,1,8,1:0:0:0:
391,92,285851,1,0,1:0:0:0:
427,108,285932,1,0,1:0:0:0:
455,135,286013,1,0,1:0:0:0:
464,173,286094,2,0,P|462:201|456:223,2,50,0|0|0,1:0|1:0|1:0,0:0:0:0:
493,147,286338,85,4,0:3:0:0:
375,176,286704,1,0,0:0:0:0:
305,264,287070,1,0,0:0:0:0:
210,299,287436,1,0,0:0:0:0:
123,275,287802,101,0,0:0:0:0:
123,275,287924,1,0,0:0:0:0:
135,197,288168,1,0,0:0:0:0:
135,197,288290,1,0,0:0:0:0:
112,78,288655,5,0,0:0:0:0:
217,37,289021,1,0,0:0:0:0:
316,58,289387,1,0,0:0:0:0:
346,143,289753,5,0,0:0:0:0:
336,171,289875,1,0,0:0:0:0:
330,204,289997,1,0,0:0:0:0:
334,241,290119,1,0,0:0:0:0:
379,301,290241,85,4,0:3:0:0:
264,347,290607,1,0,0:0:0:0:
157,310,290972,1,0,0:0:0:0:
109,220,291338,1,0,0:0:0:0:
115,130,291704,5,0,0:0:0:0:
115,130,291826,1,0,0:0:0:0:
148,58,292070,1,0,0:0:0:0:
148,58,292192,1,0,0:0:0:0:
193,122,292558,101,0,0:0:0:0:
194,212,292924,1,0,0:0:0:0:
144,300,293290,1,0,0:0:0:0:
44,352,293655,37,0,0:0:0:0:
31,316,293777,1,0,0:0:0:0:
30,274,293899,1,0,0:0:0:0:
47,232,294021,1,0,0:0:0:0:
110,192,294143,85,4,0:3:0:0:
229,225,294509,1,0,0:0:0:0:
341,217,294875,1,0,0:0:0:0:
422,157,295241,1,0,0:0:0:0:
441,69,295607,101,0,0:0:0:0:
441,69,295729,1,0,0:0:0:0:
397,3,295972,1,0,0:0:0:0:
397,3,296094,1,0,0:0:0:0:
333,49,296460,5,0,0:0:0:0:
254,59,296826,1,0,0:0:0:0:
179,34,297192,1,0,0:0:0:0:
118,83,297558,5,0,0:0:0:0:
109,107,297680,1,0,0:0:0:0:
118,139,297802,1,0,0:0:0:0:
115,176,297924,1,0,0:0:0:0:
94,211,298046,85,4,0:3:0:0:
153,277,298411,1,0,0:0:0:0:
234,275,298777,1,0,0:0:0:0:
290,230,299143,1,0,0:0:0:0:
330,210,299509,5,0,0:0:0:0:
330,210,299631,1,0,0:0:0:0:
403,196,299875,1,0,0:0:0:0:
403,196,299997,1,8,0:3:0:0:
448,136,300363,101,0,0:0:0:0:
444,82,300729,1,0,0:0:0:0:
411,51,301094,1,0,0:0:0:0:
375,49,301460,5,0,0:0:0:0:
375,49,301582,1,0,0:0:0:0:
308,83,301826,1,0,0:0:0:0:
308,83,301948,1,4,0:3:0:0:
