osu file format v14

[General]
AudioFilename: audio.mp3
AudioLeadIn: 0
PreviewTime: 196432
Countdown: 0
SampleSet: Soft
StackLeniency: 0.7
Mode: 0
LetterboxInBreaks: 0
WidescreenStoryboard: 1

[Editor]
Bookmarks: 53099,122118,172314,197412
DistanceSpacing: 1
BeatDivisor: 4
GridSize: 16
TimelineZoom: 1

[Metadata]
Title:anesthesia
TitleUnicode:anesthesia
Artist:Chata
ArtistUnicode:茶太
Creator:vikala
Version:Normal
Source:
Tags:toybot delis mirash luscent garden synderes shirohamymommy 404 aimnotfound frostwich zts interface japanese pop
BeatmapID:2399772
BeatmapSetID:1148598

[Difficulty]
HPDrainRate:4
CircleSize:3.6
OverallDifficulty:4
ApproachRate:5
SliderMultiplier:1.1
SliderTickRate:1

[Events]
//Background and Video events
0,0,"wp.jpg",0,0
//Break Periods
2,78396,80134
2,173099,183663
//Storyboard Layer 0 (Background)
//Storyboard Layer 1 (Fail)
//Storyboard Layer 2 (Pass)
//Storyboard Layer 3 (Foreground)
//Storyboard Layer 4 (Overlay)
//Storyboard Sound Samples

[TimingPoints]
2903,392.156862745098,4,2,1,40,1,0
3491,-100,4,2,1,35,0,0
4079,-100,4,2,1,30,0,0
4471,-100,4,2,1,35,0,0
5059,-100,4,2,1,30,0,0
5648,-100,4,2,1,25,0,0
6040,-100,4,2,1,30,0,0
6628,-100,4,2,1,25,0,0
7216,-100,4,2,1,20,0,0
9177,-100,4,2,1,35,0,0
14569,-100,4,2,1,5,0,0
15452,-100,4,2,1,40,0,0
52903,-100,4,2,1,60,0,0
53491,-100,4,2,1,60,0,1
53589,-100,4,2,1,60,0,0
64961,-100,4,2,1,50,0,0
65452,-100,4,2,1,60,0,1
65550,-100,4,2,1,60,0,0
77216,-100,4,2,1,60,0,0
78197,-100,4,2,1,20,0,0
81334,-100,4,2,1,20,0,0
82118,-100,4,2,1,25,0,0
82903,-100,4,2,1,30,0,0
83687,-100,4,2,1,60,0,0
84471,-100,4,2,1,60,0,0
122118,-100,4,2,1,60,0,1
122216,-100,4,2,1,60,0,0
135059,-100,4,2,1,60,0,1
135157,-100,4,2,1,60,0,0
147608,-100,4,2,1,50,0,0
150942,-100,4,2,1,60,0,0
153295,-100,4,2,1,60,0,0
157216,-100,4,2,1,60,0,0
159667,-100,4,2,1,60,0,0
163687,-100,4,2,1,60,0,0
164079,-100,4,2,1,60,0,0
164471,-100,4,2,1,60,0,0
164863,-100,4,2,1,60,0,0
165255,-100,4,2,1,60,0,0
165844,-100,4,2,1,60,0,0
184863,-100,4,2,1,30,0,0
190550,-100,4,2,1,50,0,0
190746,-100,4,2,1,30,0,0
191138,-100,4,2,1,60,0,0
194275,-100,4,2,1,30,0,0
194667,-100,4,2,1,40,0,0
195059,-100,4,2,1,50,0,0
195452,-100,4,2,1,60,0,0
195648,-100,4,2,1,60,0,0
197412,-100,4,2,1,60,0,0
197804,-100,4,2,1,60,0,1
197903,-100,4,2,1,60,0,0
209569,-100,4,2,1,60,0,0
209961,-100,4,2,1,60,0,1
210059,-100,4,2,1,60,0,0
210353,-100,4,2,1,60,0,0
222510,-100,4,2,1,60,0,1
222608,-100,4,2,1,60,0,0
235059,-100,4,2,1,60,0,1
235157,-100,4,2,1,60,0,0
246628,-100,4,2,1,50,0,0
247020,-100,4,2,1,60,0,0
247216,-100,4,2,1,60,0,0
247608,-100,4,2,1,40,0,0

[Colours]
Combo1 : 255,255,121
Combo2 : 64,128,128
Combo3 : 255,128,0
Combo4 : 244,70,97

[HitObjects]
68,192,2903,6,0,P|65:135|36:22,2,165,2|2|2,0:0|0:0|0:0,0:0:0:0:
173,223,4471,2,0,B|156:285|94:303|94:303|79:331|57:348,2,165,2|2|2,0:0|0:0|0:0,0:0:0:0:
154,114,6040,2,0,B|190:95|190:95|243:97|284:115|302:149,2,165,2|2|2,0:0|0:0|0:0,0:0:0:0:
256,192,9177,12,0,14569,0:0:0:0:
395,133,15452,6,0,P|415:182|407:239,1,110,0|0,1:0|0:0,0:0:0:0:
362,269,16040,1,2,0:0:0:0:
262,221,16432,1,0,1:0:0:0:
262,221,16628,2,0,P|210:211|144:210,1,110,0|0,0:0|1:0,0:0:0:0:
103,232,17216,2,0,L|91:174,2,55,0|0|2,0:0|0:0|0:0,0:0:0:0:
4,181,18001,2,0,L|17:119,1,55,0|0,1:0|0:0,0:0:0:0:
3,73,18393,1,0,0:0:0:0:
3,73,18589,6,0,P|64:104|110:97,1,110,0|0,1:0|0:0,0:0:0:0:
149,69,19177,1,2,0:0:0:0:
249,114,19569,2,0,L|309:99,2,55,0|0|0,1:0|0:0|0:0,0:0:0:0:
204,146,20157,2,0,P|186:187|171:253,1,110,0|0,1:0|0:0,0:0:0:0:
259,317,20942,1,0,0:0:0:0:
259,317,21138,2,0,B|315:304|315:304|349:273|349:273|413:259,1,165,2|0,1:2|1:0,0:0:0:0:
470,169,22118,5,0,0:0:0:0:
470,169,22314,2,0,P|422:135|353:132,1,110,2|0,0:0|1:0,0:0:0:0:
271,172,23099,2,0,L|213:184,1,55,0|0,0:0|1:0,0:0:0:0:
177,288,23687,1,0,0:0:0:0:
177,288,23883,2,0,P|116:288|72:251,1,110,2|0,0:0|1:0,0:0:0:0:
73,205,24471,2,0,P|82:179|86:151,1,55
56,105,24863,5,0,1:0:0:0:
140,32,25255,1,0,0:0:0:0:
180,69,25452,2,0,B|271:88|247:4|355:32,1,165,2|0,0:0|0:0,0:0:0:0:
434,70,26432,2,0,P|445:103|446:128,1,55,0|0,1:0|0:0,0:0:0:0:
409,164,26824,1,0,0:0:0:0:
409,164,27020,2,0,P|395:222|389:279,1,110,2|0,0:0|1:0,0:0:0:0:
246,355,28001,6,0,L|307:373,2,55,0|0|0,1:0|0:0|0:0,0:0:0:0:
206,316,28589,1,0,0:0:0:0:
206,316,28785,2,0,B|159:346|159:346|102:334,1,110,8|0,0:0|0:0,0:0:0:0:
54,237,29569,2,0,P|70:184|80:130,1,110,0|0,1:0|0:0,0:0:0:0:
64,82,30157,1,0,0:0:0:0:
64,82,30353,2,0,P|124:76|174:117,1,110,8|0,0:0|0:0,0:0:0:0:
238,183,31138,6,0,L|255:252,2,55,0|0|0,1:0|0:0|0:0,0:0:0:0:
276,143,31726,1,0,0:0:0:0:
276,143,31922,2,0,P|333:143|383:113,1,110,8|0,0:0|0:0,0:0:0:0:
456,39,32706,2,0,P|478:61|490:102,1,55,0|0,1:0|0:0,0:0:0:0:
500,136,33099,2,0,P|495:165|474:199,1,55,0|0,0:0|0:0,0:0:0:0:
437,217,33491,1,8,0:0:0:0:
437,217,33687,2,0,P|368:214|294:280,1,165,0|0,1:0|1:0,0:0:0:0:
401,323,34667,6,0,P|437:314|462:311,1,55
498,278,35059,2,0,P|522:236|500:159,1,110,8|0,0:0|0:0,0:0:0:0:
422,114,35844,1,0,1:0:0:0:
317,149,36236,1,0,0:0:0:0:
317,149,36432,2,0,L|302:84,1,55,2|8,0:0|0:0,0:0:0:0:
255,60,36824,2,0,P|228:68|201:73,1,55,0|0,1:0|0:0,0:0:0:0:
149,43,37216,1,0,0:0:0:0:
149,43,37412,6,0,B|141:96|141:96|146:120|146:120|136:147|136:147|135:206,1,165,0|2,1:0|0:0,0:0:0:0:
36,250,38393,1,8,0:0:0:0:
36,250,38589,2,0,P|64:295|124:315,1,110,8|4,0:0|1:2,0:0:0:0:
227,303,39373,1,0,1:0:0:0:
227,303,39569,2,0,P|232:246|240:188,1,110,0|0,0:0|1:0,0:0:0:0:
230,139,40157,1,8,0:3:0:0:
319,74,40550,6,0,P|419:87|450:157,1,165,4|0,1:0|0:0,0:0:0:0:
436,248,41530,1,0,1:0:0:0:
436,248,41726,1,8,0:0:0:0:
334,204,42118,2,0,L|320:129,2,55,0|0|0,1:0|0:0|0:0,0:0:0:0:
290,236,42706,2,0,P|235:235|186:203,1,110,0|0,0:0|1:0,0:0:0:0:
160,160,43295,1,8,0:0:0:0:
72,226,43687,6,0,P|45:230|23:247,2,55,0|0|0,1:0|0:0|0:0,0:0:0:0:
90,277,44275,2,0,P|129:315|183:321,1,110,0|0,0:0|1:0,0:0:0:0:
232,298,44863,1,8,0:0:0:0:
302,211,45255,2,0,P|294:184|287:157,1,55,0|2,1:0|0:0,0:0:0:0:
299,107,45648,1,0,0:0:0:0:
299,107,45844,1,2,0:0:0:0:
195,68,46236,2,0,L|204:7,2,55,2|8|0,1:2|0:0|1:0,0:0:0:0:
154,106,46824,5,4,1:0:0:0:
63,168,47216,2,0,P|43:217|49:284,1,110,0|0,0:0|1:0,0:0:0:0:
89,305,47804,1,0,1:0:0:0:
89,305,48001,2,0,B|125:283|125:283|201:308,1,110,8|0,0:0|1:0,0:0:0:0:
292,343,48785,1,0,0:0:0:0:
338,313,48981,2,0,P|327:261|312:194,1,110,2|0,0:0|1:0,0:0:0:0:
277,164,49569,2,0,P|286:119|347:78,1,110,8|0,0:0|1:0,0:0:0:0:
446,93,50353,6,0,L|437:152,1,55,8|0,0:0|0:0,0:0:0:0:
480,182,50746,2,0,L|432:223,1,55,0|0,1:0|0:0,0:0:0:0:
457,269,51138,1,8,0:0:0:0:
457,269,51334,2,0,L|335:295,1,110,4|4,1:2|1:2,0:0:0:0:
220,229,52118,1,0,1:0:0:0:
220,229,52314,1,0,1:0:0:0:
316,116,52706,2,0,L|246:95,1,55,2|0,1:0|1:0,0:0:0:0:
207,50,53099,6,0,P|165:88|101:100,1,110,4|12,1:0|0:0,0:0:0:0:
50,73,53687,1,0,0:0:0:0:
50,73,53883,2,0,P|12:111|9:171,1,110,0|8,1:0|0:0,0:0:0:0:
107,281,54667,2,0,P|140:277|223:312,1,110,0|8,1:0|0:0,0:0:0:0:
258,359,55255,1,2,0:0:0:0:
314,223,55648,1,0,1:0:0:0:
314,223,55844,6,0,L|287:105,2,110,8|0|8,0:0|1:0|0:0,0:0:0:0:
428,325,57020,1,0,1:0:0:0:
428,325,57216,2,0,P|442:303|447:256,1,55,0|8,1:0|0:0,0:0:0:0:
494,216,57608,1,0,0:0:0:0:
433,172,57804,2,0,P|402:126|412:58,1,110,0|8,1:0|0:0,0:0:0:0:
272,5,58589,1,0,1:0:0:0:
204,137,58981,1,8,0:0:0:0:
333,208,59373,6,0,P|339:266|309:326,1,110,0|8,1:0|0:0,0:0:0:0:
250,339,59961,2,0,B|224:329|203:317|203:317|168:327|134:330,1,110,0|0,0:0|1:0,0:0:0:0:
84,287,60550,1,8,0:0:0:0:
11,157,60942,2,0,L|24:81,1,55,0|0,1:0|0:0,0:0:0:0:
93,93,61334,1,8,0:0:0:0:
212,4,61726,2,0,P|245:11|297:73,1,110,0|8,1:0|0:0,0:0:0:0:
314,141,62314,1,0,0:0:0:0:
314,141,62510,6,0,L|436:113,2,110,0|4|0,1:0|0:0|1:0,0:0:0:0:
181,207,63687,2,0,L|160:275,1,55,4|0,0:0|0:0,0:0:0:0:
213,324,64079,1,0,1:0:0:0:
212,323,64275,2,0,P|266:322|303:283,1,110,2|0,1:0|1:0,0:0:0:0:
318,210,64863,1,0,1:0:0:0:
300,66,65255,1,4,3:0:0:0:
300,66,65452,6,0,P|236:21|142:52,1,165,6|8,1:0|0:0,0:0:0:0:
38,129,66432,2,0,B|59:165|59:165|69:233,1,110,0|8,1:0|0:0,0:0:0:0:
181,329,67216,2,0,P|206:320|242:297,1,55,0|0,1:0|0:0,0:0:0:0:
253,237,67608,1,8,0:0:0:0:
253,237,67804,2,0,P|292:230|370:278,1,110,2|2,0:0|1:2,0:0:0:0:
391,322,68393,1,8,0:0:0:0:
493,215,68785,6,0,P|504:165|512:103,1,110,0|10,1:0|0:0,0:0:0:0:
390,30,69569,1,0,1:0:0:0:
390,30,69765,2,0,L|322:18,1,55,2|8,1:2|0:0,0:0:0:0:
228,122,70353,2,0,P|182:119|156:186,1,110,0|8,1:0|0:0,0:0:0:0:
173,240,70942,2,0,P|220:261|327:204,1,165,4|8,0:0|0:0,0:0:0:0:
356,156,71726,1,0,3:0:0:0:
356,156,71922,6,0,L|370:226,1,55,0|0,1:0|0:0,0:0:0:0:
441,236,72314,1,8,0:0:0:0:
441,236,72510,1,0,0:0:0:0:
334,339,72903,2,0,L|278:328,1,55,0|8,1:0|0:0,0:0:0:0:
214,364,73295,2,0,P|175:338|101:322,1,110
43,343,73883,2,0,B|8:300|8:300|16:234,2,110,8|0|8,0:0|1:0|0:0,0:0:0:0:
127,220,75059,6,0,P|112:172|89:116,1,110,0|12,1:0|0:0,0:0:0:0:
128,53,75648,1,0,0:0:0:0:
262,115,76040,2,0,P|267:144|277:174,2,55,0|8|8,1:0|0:0|3:0,0:0:0:0:
277,42,76628,5,4,1:0:0:0:
348,63,76824,1,2,1:0:0:0:
490,103,77216,2,0,P|465:238|440:373,1,275,2|4,0:0|0:0,0:0:0:0:
256,192,81334,12,8,83687,0:0:0:0:
345,298,84471,6,0,P|350:245|362:166,1,110,4|8,1:0|0:0,0:0:0:0:
394,148,85059,1,0,0:0:0:0:
310,75,85452,2,0,P|263:72|188:111,1,110,0|0,1:0|0:0,0:0:0:0:
170,137,86040,2,0,L|47:118,1,110,0|8,1:0|0:0,0:0:0:0:
18,154,86628,1,0,0:0:0:0:
64,259,87020,1,0,1:0:0:0:
64,259,87216,2,0,P|97:258|123:248,1,55,8|0,0:0|0:0,0:0:0:0:
165,224,87608,6,0,P|200:225|263:284,1,110,0|8,1:0|0:0,0:0:0:0:
271,322,88197,1,0,0:0:0:0:
380,309,88589,2,0,L|372:363,2,55,0|8|0,1:0|0:0|0:0,0:0:0:0:
418,269,89177,2,0,B|397:245|397:245|375:156,1,110,0|8,1:0|0:0,0:0:0:0:
438,78,89961,1,0,1:0:0:0:
438,78,90157,2,0,L|377:59,1,55,0|8,1:0|0:0,0:0:0:0:
283,106,90746,6,0,P|304:55|311:1,2,110,0|8|0,1:0|0:0|1:0,0:0:0:0:
180,145,91922,1,8,0:0:0:0:
180,145,92118,2,0,P|137:135|71:177,1,110,0|0,0:0|0:0,0:0:0:0:
62,215,92706,2,0,L|7:237,1,55,8|0,0:0|0:0,0:0:0:0:
90,311,93295,2,0,L|123:361,2,55,0|8|0,1:0|0:0|0:0,0:0:0:0:
136,281,93883,6,0,P|179:279|251:311,1,110,0|8,1:0|0:0,0:0:0:0:
295,299,94471,2,0,P|325:264|282:155,1,165,0|8,0:0|0:0,0:0:0:0:
188,126,95452,1,0,1:0:0:0:
188,126,95648,2,0,L|200:62,1,55,0|8,0:0|0:0,0:0:0:0:
242,39,96040,1,2,0:0:0:0:
349,61,96432,2,0,P|376:53|402:42,2,55,8|8|8,0:0|1:3|0:0,0:0:0:0:
315,104,97020,6,0,P|289:148|290:229,1,110,4|8,1:0|0:0,0:0:0:0:
317,249,97608,1,0,0:0:0:0:
426,262,98001,2,0,L|411:201,1,55,0|8,1:0|0:0,0:0:0:0:
455,174,98393,2,0,B|470:142|470:142|480:64,1,110,0|0,0:0|0:0,0:0:0:0:
431,40,98981,1,8,0:0:0:0:
431,40,99177,2,0,B|343:39|357:107|269:85,1,165,0|8,0:0|0:0,0:0:0:0:
189,22,100157,6,0,P|139:40|82:54,1,110,0|8,1:0|0:0,0:0:0:0:
38,85,100746,2,0,P|12:123|29:204,1,110,0|0,0:0|1:0,0:0:0:0:
60,217,101334,1,8,0:0:0:0:
165,186,101726,2,0,L|151:111,2,55,0|0|8,1:0|0:0|0:0,0:0:0:0:
222,286,102510,1,0,1:0:0:0:
222,286,102706,2,0,P|192:314|103:326,1,110,0|0,1:0|0:0,0:0:0:0:
72,316,103295,6,0,P|66:267|51:199,1,110,0|8,1:0|0:0,0:0:0:0:
90,166,103883,1,0,0:0:0:0:
113,58,104275,2,0,L|52:42,2,55,0|8|0,1:0|0:0|0:0,0:0:0:0:
157,90,104863,2,0,P|195:91|260:51,1,110,0|8,1:0|0:0,0:0:0:0:
288,11,105452,1,0,0:0:0:0:
391,49,105844,1,0,1:0:0:0:
391,49,106040,2,0,P|405:83|404:114,1,55,8|0,0:0|0:0,0:0:0:0:
384,151,106432,6,0,B|363:176|334:183|334:183|360:211|386:248|382:352|296:367,1,275,0|8,1:0|0:0,0:0:0:0:
255,363,107608,1,8,0:0:0:0:
158,310,108001,2,0,L|151:249,2,55,4|0|8,1:2|0:0|0:0,0:0:0:0:
115,344,108589,2,0,L|6:313,1,110,0|8,1:0|3:0,0:0:0:0:
13,203,109373,1,4,3:0:0:0:
62,227,109569,6,0,P|135:230|217:158,1,165,4|2,1:0|0:0,0:0:0:0:
253,77,110550,1,0,1:0:0:0:
253,77,110746,2,0,P|284:85|317:91,1,55,8|0,0:0|0:0,0:0:0:0:
359,73,111138,2,0,B|393:112|393:112|407:194,1,110,0|8,1:0|0:0,0:0:0:0:
363,208,111726,2,0,P|338:256|329:330,1,110,2|0,0:0|1:0,0:0:0:0:
345,362,112314,1,8,0:0:0:0:
235,366,112706,6,0,P|174:356|142:296,1,110,0|8,1:0|0:0,0:0:0:0:
149,264,113295,1,2,0:0:0:0:
149,264,113491,2,0,P|180:257|218:236,2,55,0|0|8,1:0|1:0|0:0,0:0:0:0:
61,196,114275,2,0,P|31:184|0:181,2,55,0|0|8,1:0|0:0|0:0,0:0:0:0:
108,168,114863,2,0,P|112:117|121:52,1,110,2|0,0:0|1:0,0:0:0:0:
156,17,115452,1,8,0:0:0:0:
244,81,115844,6,0,P|287:87|365:48,1,110,0|4,1:0|0:0,0:0:0:0:
449,21,116628,1,0,1:0:0:0:
449,21,116824,2,0,P|468:50|475:76,1,55,0|8,1:0|0:0,0:0:0:0:
412,160,117412,2,0,B|396:195|396:195|386:285,1,110,0|4,1:0|0:0,0:0:0:0:
405,318,118001,2,0,P|369:352|301:347,1,110,2|0,0:0|1:0,0:0:0:0:
271,313,118589,2,0,P|218:301|162:296,1,110,8|0,0:0|1:0,0:0:0:0:
41,300,119373,6,0,L|31:237,1,55,8|0,0:0|1:0,0:0:0:0:
68,197,119765,2,0,L|77:123,1,55,0|0,1:0|1:0,0:0:0:0:
138,143,120157,1,8,0:0:0:0:
138,143,120353,2,0,L|175:14,1,110,4|4,1:2|1:2,0:0:0:0:
285,135,121138,1,4,1:0:0:0:
285,135,121334,1,0,1:0:0:0:
360,11,121726,2,0,L|389:71,1,55,2|0,1:0|1:2,0:0:0:0:
449,95,122118,6,0,P|461:134|423:208,1,110,4|8,1:0|0:0,0:0:0:0:
374,233,122706,1,0,0:0:0:0:
374,233,122902,2,0,P|317:220|265:211,1,110,0|8,1:0|0:0,0:0:0:0:
145,124,123687,2,0,L|130:66,2,55,0|0|8,1:0|0:0|0:0,0:0:0:0:
96,180,124275,1,2,0:0:0:0:
111,331,124667,1,2,1:2:0:0:
111,331,124863,6,0,B|54:327|54:327|1:355,2,110,8|0|8,0:0|1:0|0:0,0:0:0:0:
262,354,126040,1,0,1:0:0:0:
262,354,126236,2,0,P|286:349|314:338,1,55,0|8,1:0|0:0,0:0:0:0:
358,278,126628,1,0,0:0:0:0:
427,304,126824,2,0,L|461:192,1,110,0|8,1:0|0:0,0:0:0:0:
451,50,127608,1,0,1:0:0:0:
303,26,128001,1,8,0:0:0:0:
229,154,128393,6,0,P|181:177|120:176,1,110,0|8,1:0|0:0,0:0:0:0:
58,143,128981,2,0,B|52:127|42:109|42:109|75:31,1,110,0|0,0:0|1:0,0:0:0:0:
138,13,129569,1,8,0:0:0:0:
271,77,129961,2,0,P|298:72|324:64,1,55,0|0,1:0|0:0,0:0:0:0:
373,8,130353,1,8,0:0:0:0:
477,114,130746,2,0,P|458:156|395:189,1,110,0|8,1:0|0:0,0:0:0:0:
258,159,131530,6,0,L|241:275,1,110,0|4,1:0|0:0,0:0:0:0:
305,315,132118,1,0,0:0:0:0:
304,315,132314,2,0,P|362:284|406:274,2,110,0|4|0,1:0|0:0|1:0,0:0:0:0:
256,372,133295,1,0,1:0:0:0:
113,351,133687,1,0,1:0:0:0:
113,351,133883,2,0,P|100:311|126:227,1,110,8|2,3:0|1:0,0:0:0:0:
174,202,134471,1,2,1:2:0:0:
174,202,134667,6,0,P|160:150|145:78,1,110,0|4,1:0|1:0,0:0:0:0:
263,1,135452,2,0,P|270:34|280:68,1,55,0|0,1:0|1:0,0:0:0:0:
346,89,135844,1,8,0:0:0:0:
346,89,136040,2,0,P|390:87|451:148,1,110,2|0,1:0|0:0,0:0:0:0:
469,193,136628,2,0,P|459:219|447:244,1,55,8|2,0:0|0:0,0:0:0:0:
313,303,137216,1,2,1:2:0:0:
313,303,137412,6,0,B|380:321|380:321|415:354,2,110,8|0|10,0:0|1:0|0:0,0:0:0:0:
176,362,138589,1,2,1:2:0:0:
117,316,138785,2,0,L|134:257,1,55,2|8,1:0|0:0,0:0:0:0:
49,140,139373,2,0,P|32:115|9:94,2,55,0|0|8,1:0|0:0|0:0,0:0:0:0:
49,214,139961,2,0,P|85:206|149:102,1,165,4|8,0:0|0:0,0:0:0:0:
212,63,140746,1,0,3:0:0:0:
212,63,140942,6,0,L|328:81,1,110,0|8,1:0|0:0,0:0:0:0:
380,35,141530,1,0,0:0:0:0:
408,180,141922,2,0,L|347:191,1,55,0|8,1:0|0:0,0:0:0:0:
298,238,142314,1,0,0:0:0:0:
298,238,142510,2,0,P|276:297|270:362,2,110,0|10|0,1:0|0:0|1:0,0:0:0:0:
240,100,143687,1,8,0:0:0:0:
128,197,144079,6,0,P|97:211|65:216,1,55,0|0,1:0|0:0,0:0:0:0:
20,174,144471,1,12,0:0:0:0:
20,174,144667,2,0,L|0:61,1,110,0|0,0:0|1:0,0:0:0:0:
59,20,145255,1,8,3:0:0:0:
158,130,145648,1,4,1:0:0:0:
199,68,145844,2,0,B|252:87|252:87|318:91,1,110,2|2,0:0|0:1,0:0:0:0:
349,231,146628,2,0,L|414:216,1,55,2|4,0:1|3:0,0:0:0:0:
449,161,147020,6,0,P|476:201|481:274,1,110,2|4,1:0|1:0,0:0:0:0:
453,307,147608,1,8,0:0:0:0:
348,334,148001,2,0,P|285:318|225:308,1,110,0|8,1:0|0:0,0:0:0:0:
300,217,148785,2,0,P|240:207|176:195,1,110,0|8,1:0|0:0,0:0:0:0:
247,103,149569,2,0,P|191:97|134:83,1,110,0|8,1:0|0:0,0:0:0:0:
85,96,150157,6,0,P|40:133|38:242,1,165,2|8,0:0|0:0,0:0:0:0:
107,316,151138,2,0,L|54:332,2,55,0|2|8,1:0|0:0|0:0,0:0:0:0:
150,282,151726,1,0,0:0:0:0:
202,297,151922,2,0,P|210:246|226:173,1,110,0|8,1:0|0:0,0:0:0:0:
305,117,152706,2,0,P|297:90|288:64,2,55,0|2|8,1:0|0:0|0:0,0:0:0:0:
348,150,153295,6,0,P|384:148|450:193,1,110,4|4,1:2|0:0,0:0:0:0:
457,239,153883,1,8,0:0:0:0:
376,313,154275,2,0,P|329:318|262:337,1,110,0|8,1:0|0:0,0:0:0:0:
202,246,155059,2,0,P|256:240|310:228,1,110,0|8,1:0|0:0,0:0:0:0:
355,127,155844,2,0,P|299:139|232:146,1,110,0|8,1:0|0:0,0:0:0:0:
192,134,156432,6,0,B|155:122|133:95|133:95|90:82|42:117,1,165,2|8,0:0|0:0,0:0:0:0:
17,162,157216,1,2,0:0:0:0:
98,236,157608,2,0,L|80:299,1,55,2|8,0:0|0:0,0:0:0:0:
51,334,158001,1,0,0:0:0:0:
51,334,158197,2,0,P|93:327|175:358,1,110,0|12,1:0|0:0,0:0:0:0:
204,372,158785,1,4,0:3:0:0:
264,280,159177,2,0,L|244:228,1,55,4|8,1:3|0:0,0:0:0:0:
289,197,159569,6,0,P|306:157|293:84,1,110,0|4,1:0|1:3,0:0:0:0:
252,61,160157,1,4,0:0:0:0:
144,85,160550,2,0,L|131:25,2,55,0|0|8,1:0|1:0|0:0,0:0:0:0:
62,159,161334,2,0,P|96:199|122:250,1,110,0|8,1:0|0:0,0:0:0:0:
210,324,162118,2,0,L|229:273,1,55,0|0,1:0|1:0,0:0:0:0:
272,239,162510,1,8,0:0:0:0:
272,239,162706,6,0,B|350:227|335:296|426:298,1,165,2|8,0:0|0:0,0:0:0:0:
459,194,163687,2,0,P|486:187|524:177,2,55,0|2|8,1:0|0:0|0:0,0:0:0:0:
415,160,164275,1,0,0:0:0:0:
403,106,164471,2,0,P|376:77|304:60,1,110,0|8,1:0|0:0,0:0:0:0:
209,104,165255,2,0,L|145:93,2,55,0|2|8,1:0|0:0|0:0,0:0:0:0:
251,138,165844,6,0,B|271:173|271:173|262:250,1,110,4|2,1:0|0:0,0:0:0:0:
239,291,166432,1,8,0:0:0:0:
130,302,166824,2,0,L|116:360,2,55,0|0|8,1:0|1:0|0:0,0:0:0:0:
72,208,167608,2,0,P|101:170|117:97,1,110,0|8,1:0|0:0,0:0:0:0:
163,10,168393,2,0,P|178:32|200:49,1,55,0|2,1:0|1:2,0:0:0:0:
255,71,168785,1,8,0:0:0:0:
255,71,168981,6,0,L|371:51,1,110,2|0,0:0|1:0,0:0:0:0:
412,77,169569,1,8,0:0:0:0:
334,154,169961,2,0,P|308:209|310:268,1,110,0|8,1:0|0:0,0:0:0:0:
386,334,170746,1,2,1:2:0:0:
439,321,170942,2,0,B|454:290|454:290|432:196,1,110,2|4,1:2|1:0,0:0:0:0:
409,109,171726,1,4,1:2:0:0:
380,3,172118,1,4,0:0:0:0:
440,106,184863,6,0,B|389:78|321:126|367:147|297:203|228:159,1,220,0|8,1:0|0:0,0:0:0:0:
90,133,186236,1,0,1:0:0:0:
90,133,186432,2,0,P|66:83|63:29,2,110,0|0|8,0:0|1:0|0:0,0:0:0:0:
36,346,188001,6,0,B|91:358|140:323|140:323|204:332|253:328,1,220,0|8,1:0|0:0,0:0:0:0:
387,238,189373,1,0,1:0:0:0:
387,238,189569,2,0,P|410:290|411:347,1,110,0|8,0:0|0:0,0:0:0:0:
360,363,190157,1,0,1:0:0:0:
303,268,190550,2,0,L|285:137,1,110,8|0,0:0|1:0,0:0:0:0:
245,124,191138,6,0,B|171:107|171:107|123:122,1,110,4|0,1:0|1:0,0:0:0:0:
61,195,191922,1,8,0:0:0:0:
154,252,192314,2,0,P|161:279|168:309,1,55,0|0,1:0|0:0,0:0:0:0:
217,328,192706,2,0,B|288:341|288:341|329:330,1,110,0|0,1:0|1:0,0:0:0:0:
415,269,193491,2,0,P|436:218|445:164,1,110,8|0,0:0|1:0,0:0:0:0:
421,114,194079,1,0,0:0:0:0:
421,114,194275,5,0,1:0:0:0:
317,76,194667,2,0,L|260:97,1,55,0|0,1:0|1:0,0:0:0:0:
233,139,195059,2,0,L|168:119,1,55,8|0,0:0|1:0,0:0:0:0:
141,83,195452,1,0,0:0:0:0:
141,83,195648,2,0,L|14:122,1,110,6|6,1:0|1:0,0:0:0:0:
10,264,196432,1,4,1:2:0:0:
10,264,196628,1,2,1:0:0:0:
141,333,197020,2,0,P|152:311|156:281,1,55,2|4,1:0|1:2,0:0:0:0:
156,206,197412,6,0,P|196:207|269:252,1,110,4|4,0:3|1:0,0:0:0:0:
305,302,198001,1,0,0:0:0:0:
305,302,198197,2,0,P|362:288|422:271,1,110,0|8,1:0|0:0,0:0:0:0:
460,134,198981,2,0,P|486:140|512:150,2,55,0|0|8,1:0|0:0|0:0,0:0:0:0:
390,159,199569,1,2,0:0:0:0:
409,15,199961,1,0,1:0:0:0:
409,15,200157,6,0,P|463:15|512:40,2,110,8|0|8,0:0|1:0|0:0,0:0:0:0:
266,57,201334,1,0,1:0:0:0:
317,110,201530,2,0,L|307:164,1,55,2|8,1:0|0:0,0:0:0:0:
254,216,201922,1,0,0:0:0:0:
254,216,202118,2,0,B|220:227|191:233|191:233|175:251|154:270,1,110,2|8,1:2|0:0,0:0:0:0:
10,270,202903,1,0,1:0:0:0:
16,121,203295,1,8,0:0:0:0:
162,144,203687,6,0,P|202:125|239:65,1,110,4|8,1:0|0:0,0:0:0:0:
204,5,204275,2,0,P|252:22|311:42,1,110,0|0,0:0|1:0,0:0:0:0:
379,23,204863,1,8,0:0:0:0:
508,96,205255,2,0,L|492:170,1,55,0|0,1:0|0:0,0:0:0:0:
507,223,205648,1,8,0:0:0:0:
367,273,206040,2,0,P|313:266|274:228,1,110,0|8,1:0|0:0,0:0:0:0:
268,158,206628,1,0,0:0:0:0:
268,158,206824,6,0,L|136:140,1,110,0|8,1:0|0:0,0:0:0:0:
107,89,207412,1,0,0:0:0:0:
34,218,207804,2,0,L|10:155,2,55,0|8|0,1:0|0:0|1:0,0:0:0:0:
6,289,208393,1,4,1:3:0:0:
6,289,208589,2,0,P|24:327|104:349,1,110,0|0,1:0|1:0,0:0:0:0:
155,330,209177,1,4,3:0:0:0:
248,214,209569,2,0,L|314:227,1,55,2|2,1:0|1:0,0:0:0:0:
362,267,209961,6,0,P|350:219|341:154,1,110,4|8,1:0|0:0,0:0:0:0:
222,70,210746,2,0,P|215:118|201:183,1,110,0|8,1:0|0:0,0:0:0:0:
152,233,211334,1,0,0:0:0:0:
152,233,211530,2,0,P|92:226|48:179,1,110,0|8,1:0|0:0,0:0:0:0:
35,123,212118,1,2,0:0:0:0:
125,6,212510,1,0,1:0:0:0:
125,6,212706,6,0,B|172:28|172:28|241:25,1,110,8|0,0:0|1:0,0:0:0:0:
305,7,213295,1,0,0:0:0:0:
305,7,213491,2,0,P|328:67|336:121,1,110,10|0,0:0|1:0,0:0:0:0:
268,143,214079,2,0,P|255:177|247:210,1,55,2|8,1:0|0:0,0:0:0:0:
328,320,214667,2,0,P|341:286|349:253,2,55,2|2|8,1:2|0:0|0:0,0:0:0:0:
389,361,215255,2,0,P|442:368|513:276,1,165,4|8,0:0|0:0,0:0:0:0:
447,158,216236,6,0,P|413:153|380:136,1,55,4|0,1:0|0:0,0:0:0:0:
353,88,216628,1,8,0:0:0:0:
353,88,216824,2,0,B|299:78|299:78|233:104,1,110,0|0,0:0|1:0,0:0:0:0:
200,155,217412,1,8,0:0:0:0:
294,269,217804,2,0,L|279:341,1,55,0|0,1:0|0:0,0:0:0:0:
223,368,218197,1,8,0:0:0:0:
82,320,218589,2,0,P|72:273|58:203,1,110,2|8,1:2|0:0,0:0:0:0:
29,150,219177,1,0,0:0:0:0:
29,150,219373,6,0,P|45:109|111:63,1,110,0|4,1:0|0:0,0:0:0:0:
169,61,219961,1,2,0:0:0:0:
265,174,220353,2,0,P|292:169|318:161,2,55,0|8|0,1:0|0:0|0:0,0:0:0:0:
208,221,220942,1,8,3:0:0:0:
208,221,221138,2,0,B|163:200|163:200|91:190,2,110,4|2|2,3:0|1:0|1:0,0:0:0:0:
263,270,222118,2,0,L|275:334,1,55,8|2,0:0|1:0,0:0:0:0:
340,355,222510,5,4,1:0:0:0:
469,282,222902,2,0,P|475:243|463:162,1,110,8|0,0:0|1:0,0:0:0:0:
410,132,223491,1,0,1:0:0:0:
410,132,223687,1,8,0:0:0:0:
276,196,224079,2,0,P|238:194|207:182,1,55,0|0,1:0|0:0,0:0:0:0:
186,129,224471,1,8,0:0:0:0:
186,129,224667,2,0,B|137:103|137:103|77:95,1,110,2|0,0:0|1:0,0:0:0:0:
27,145,225255,6,0,P|2:103|0:38,2,110,12|0|10,0:0|1:0|0:0,0:0:0:0:
116,270,226432,1,0,1:0:0:0:
116,270,226628,2,0,L|105:344,1,55,2|8,1:2|0:0,0:0:0:0:
179,345,227020,1,0,0:0:0:0:
223,285,227216,2,0,P|277:278|332:280,1,110,2|2,1:0|0:1,0:0:0:0:
475,321,228001,1,2,1:0:0:0:
505,176,228393,1,8,0:0:0:0:
351,154,228785,6,0,P|325:111|339:38,1,110,4|8,1:0|0:0,0:0:0:0:
387,6,229373,1,2,0:0:0:0:
496,114,229765,1,0,1:0:0:0:
496,114,229961,2,0,P|508:144|512:169,1,55,8|0,0:0|0:0,0:0:0:0:
500,239,230353,2,0,P|492:265|475:287,1,55,0|0,1:0|0:0,0:0:0:0:
406,259,230746,2,0,P|353:248|297:242,1,110,8|0,0:0|1:0,0:0:0:0:
214,365,231530,1,8,0:0:0:0:
80,300,231922,6,0,P|49:254|38:200,1,110,0|8,1:0|0:0,0:0:0:0:
72,135,232510,1,0,0:0:0:0:
206,68,232902,1,0,1:0:0:0:
206,68,233099,2,0,L|319:51,1,110,4|0,0:0|1:0,0:0:0:0:
380,86,233687,1,8,0:0:0:0:
431,230,234079,1,0,1:0:0:0:
431,230,234275,2,0,B|386:238|386:238|325:205,1,110,8|8,3:0|0:0,0:0:0:0:
284,154,234863,1,8,0:0:0:0:
284,154,235059,6,0,P|310:105|312:40,2,110,4|8|0,1:0|0:0|1:0,0:0:0:0:
148,92,236236,2,0,L|80:110,1,55,8|0,0:0|0:0,0:0:0:0:
42,158,236628,1,0,1:0:0:0:
52,309,237020,1,8,0:0:0:0:
52,309,237216,2,0,P|95:342|166:336,1,110,2|0,1:0|1:0,0:0:0:0:
190,281,237804,6,0,B|221:309|221:309|243:380,2,110,8|0|10,0:0|1:0|0:0,0:0:0:0:
154,141,238981,1,0,1:0:0:0:
154,141,239177,2,0,L|176:70,1,55,2|8,1:0|0:0,0:0:0:0:
314,54,239765,2,0,P|301:29|293:3,2,55,0|0|8,1:0|0:0|0:0,0:0:0:0:
376,93,240353,2,0,P|423:89|511:168,1,165,4|8,0:0|0:0,0:0:0:0:
461,301,241334,5,4,1:0:0:0:
341,222,241726,1,8,0:0:0:0:
341,222,241922,2,0,L|233:255,1,110,0|0,0:0|1:0,0:0:0:0:
206,322,242510,1,8,0:0:0:0:
71,258,242902,2,0,P|47:206|54:137,1,110,0|8,1:0|0:0,0:0:0:0:
136,34,243687,1,2,1:0:0:0:
281,61,244079,1,2,1:0:0:0:
312,206,244471,6,0,P|311:233|304:259,1,55,2|2,1:0|3:0,0:0:0:0:
258,319,244863,1,12,0:0:0:0:
258,319,245059,2,0,P|305:349|364:346,1,110,2|2,3:0|3:0,0:0:0:0:
416,301,245648,1,8,3:0:0:0:
448,158,246040,1,4,1:0:0:0:
448,158,246236,2,0,L|430:43,1,110,4|2,0:2|0:0,0:0:0:0:
288,16,247020,1,0,1:0:0:0:
270,67,247216,2,0,L|286:136,1,55,8|2,0:0|0:0,0:0:0:0:
256,192,247608,5,0,1:0:0:0:
