osu file format v14

[General]
AudioFilename: audio.mp3
AudioLeadIn: 0
PreviewTime: 196432
Countdown: 0
SampleSet: Soft
StackLeniency: 0.7
Mode: 0
LetterboxInBreaks: 0
WidescreenStoryboard: 0

[Editor]
Bookmarks: 53099,122118,172314,197412
DistanceSpacing: 1.2
BeatDivisor: 4
GridSize: 16
TimelineZoom: 1

[Metadata]
Title:anesthesia
TitleUnicode:anesthesia
Artist:Chata
ArtistUnicode:茶太
Creator:vikala
Version:Empty
Source:
Tags:toybot delis mirash luscent garden synderes shirohamymommy 404 aimnotfound frostwich zts interface japanese pop
BeatmapID:2398024
BeatmapSetID:1148598

[Difficulty]
HPDrainRate:6
CircleSize:4.5
OverallDifficulty:8.3
ApproachRate:8.7
SliderMultiplier:2
SliderTickRate:1

[Events]
//Background and Video events
0,0,"wp.jpg",0,0
//Break Periods
2,78396,80659
2,173099,183883
//Storyboard Layer 0 (Background)
//Storyboard Layer 1 (Fail)
//Storyboard Layer 2 (Pass)
//Storyboard Layer 3 (Foreground)
//Storyboard Layer 4 (Overlay)
//Storyboard Sound Samples

[TimingPoints]
2903,392.156862745098,4,2,1,40,1,0
3491,-100,4,2,1,35,0,0
4079,-100,4,2,1,30,0,0
4471,-100,4,2,1,35,0,0
5059,-100,4,2,1,30,0,0
5648,-100,4,2,1,25,0,0
6040,-100,4,2,1,30,0,0
6628,-100,4,2,1,25,0,0
7216,-100,4,2,1,20,0,0
9177,-100,4,2,1,35,0,0
14569,-100,4,2,1,5,0,0
14863,-100,4,2,1,25,0,0
15452,-133.333333333333,4,2,1,40,0,0
51334,-133.333333333333,4,2,1,60,0,0
52118,-133.333333333333,4,2,1,50,0,0
52903,-100,4,2,1,60,0,0
53491,-100,4,2,1,60,0,1
53589,-100,4,2,1,60,0,0
64961,-100,4,2,1,50,0,0
65452,-100,4,2,1,60,0,1
65550,-100,4,2,1,60,0,0
77216,-200,4,2,1,60,0,0
78197,-200,4,2,1,20,0,0
81334,-200,4,2,1,20,0,0
82118,-200,4,2,1,25,0,0
82903,-200,4,2,1,30,0,0
83687,-200,4,2,1,60,0,0
84471,-133.333333333333,4,2,1,60,0,0
122118,-100,4,2,1,60,0,1
122216,-100,4,2,1,60,0,0
134667,-133.333333333333,4,2,1,60,0,0
134863,-133.333333333333,4,2,1,5,0,0
135059,-100,4,2,1,60,0,1
135157,-100,4,2,1,60,0,0
147608,-100,4,2,1,50,0,0
150942,-250,4,2,1,60,0,0
153295,-100,4,2,1,60,0,0
157216,-250,4,2,1,60,0,0
159667,-100,4,2,1,60,0,0
163687,-111.111111111111,4,2,1,60,0,0
164079,-125,4,2,1,60,0,0
164471,-166.666666666667,4,2,1,60,0,0
164863,-200,4,2,1,60,0,0
165255,-250,4,2,1,60,0,0
165844,-100,4,2,1,60,0,0
184863,-100,4,2,1,30,0,0
190550,-100,4,2,1,50,0,0
190746,-100,4,2,1,30,0,0
191138,-133.333333333333,4,2,1,60,0,0
194275,-133.333333333333,4,2,1,30,0,0
194667,-133.333333333333,4,2,1,40,0,0
195059,-133.333333333333,4,2,1,50,0,0
195452,-133.333333333333,4,2,1,60,0,0
195648,-80,4,2,1,60,0,0
197314,-166.666666666667,4,2,1,60,0,0
197706,-166.666666666667,4,2,1,5,0,0
197804,-100,4,2,1,60,0,1
197903,-100,4,2,1,60,0,0
209569,-80,4,2,1,60,0,0
209961,-80,4,2,1,60,0,1
210059,-80,4,2,1,60,0,0
210353,-100,4,2,1,60,0,0
222510,-100,4,2,1,60,0,1
222608,-100,4,2,1,60,0,0
235059,-100,4,2,1,60,0,1
235157,-100,4,2,1,60,0,0
246628,-133.333333333333,4,2,1,50,0,0
247020,-133.333333333333,4,2,1,60,0,0
247216,-111.111111111111,4,2,1,60,0,0
247608,-111.111111111111,4,2,1,40,0,0

[Colours]
Combo1 : 255,255,121
Combo2 : 64,128,128
Combo3 : 255,128,0
Combo4 : 244,70,97

[HitObjects]
405,110,2903,5,2,0:0:0:0:
373,99,3099,1,0,0:0:0:0:
341,89,3295,1,0,0:0:0:0:
313,211,3491,5,2,0:0:0:0:
331,199,3687,1,0,0:0:0:0:
349,187,3883,1,0,0:0:0:0:
269,128,4079,5,2,0:0:0:0:
273,141,4275,1,0,0:0:0:0:
326,74,4471,5,2,0:0:0:0:
250,56,4667,1,0,0:0:0:0:
194,108,4863,1,0,0:0:0:0:
269,128,5059,1,2,0:0:0:0:
281,86,5255,5,0,0:0:0:0:
256,77,5452,1,0,0:0:0:0:
237,97,5648,1,2,0:0:0:0:
263,105,5844,1,0,0:0:0:0:
415,167,6040,5,2,0:0:0:0:
399,210,6236,1,0,0:0:0:0:
372,202,6432,1,0,0:0:0:0:
363,185,6628,1,2,0:0:0:0:
328,211,6824,1,0,0:0:0:0:
340,215,7020,1,0,0:0:0:0:
335,249,7216,1,2,0:0:0:0:
329,251,7412,1,0,0:0:0:0:
270,297,7608,5,0,0:0:0:0:
266,292,7804,1,2,0:0:0:0:
262,287,8001,1,0,0:0:0:0:
258,282,8197,1,0,0:0:0:0:
214,219,8393,5,2,0:0:0:0:
211,226,8590,1,0,0:0:0:0:
209,232,8786,1,0,0:0:0:0:
186,301,8981,5,0,0:0:0:0:
113,318,9177,5,2,0:0:0:0:
256,192,9765,12,0,14569,0:0:0:0:
53,61,14863,5,2,0:0:0:0:
53,61,15059,1,2,0:0:0:0:
53,61,15452,6,0,L|61:157,1,75.0000028610231,0|0,1:0|0:0,0:0:0:0:
77,296,15844,1,0,0:0:0:0:
30,355,16040,2,0,P|29:309|98:213,1,150.000005722046,2|0,0:0|1:0,0:0:0:0:
146,259,16628,1,0,0:0:0:0:
80,297,16824,1,0,0:0:0:0:
81,222,17020,6,0,P|46:210|13:193,1,75.0000028610231,0|0,1:0|0:0,0:0:0:0:
219,181,17412,1,0,0:0:0:0:
153,139,17608,2,0,P|198:138|297:63,1,150.000005722046,2|0,0:0|1:0,0:0:0:0:
284,83,18393,1,0,0:0:0:0:
360,110,18589,6,0,P|371:176|371:208,1,75.0000028610231,0|0,1:0|0:0,0:0:0:0:
248,308,18981,1,0,0:0:0:0:
321,328,19177,1,2,0:0:0:0:
321,328,19569,1,0,1:0:0:0:
373,278,19765,1,0,0:0:0:0:
303,254,19961,1,0,0:0:0:0:
248,308,20157,1,0,1:0:0:0:
132,349,20353,5,0,0:0:0:0:
54,267,20550,1,0,0:0:0:0:
161,238,20746,1,2,0:0:0:0:
248,308,20942,1,0,0:0:0:0:
200,366,21138,2,0,P|215:306|287:219,1,150.000005722046,2|0,1:2|0:0,0:0:0:0:
345,241,21726,6,0,L|318:167,1,75.0000028610231,0|0,1:0|0:0,0:0:0:0:
319,170,22118,1,0,0:0:0:0:
345,56,22314,2,0,P|302:117|243:163,1,150.000005722046,2|0,0:0|1:0,0:0:0:0:
218,90,22903,1,0,0:0:0:0:
291,105,23099,1,0,0:0:0:0:
423,127,23295,6,0,P|464:117|506:101,1,75.0000028610231,0|0,1:0|0:0,0:0:0:0:
353,153,23687,1,0,0:0:0:0:
491,284,23883,2,0,P|455:235|358:233,1,150.000005722046,2|0,0:0|1:0,0:0:0:0:
308,272,24471,1,0,0:0:0:0:
314,301,24667,1,0,0:0:0:0:
253,359,24863,6,0,P|259:288|274:192,1,150.000005722046,0|0,1:0|0:0,0:0:0:0:
197,174,25452,2,0,B|127:105|200:21|342:29|243:148|316:158|380:134,1,300.000011444092,2|0,0:0|0:0,0:0:0:0:
421,97,26432,6,0,L|385:16,1,75.0000028610231,0|0,1:0|0:0,0:0:0:0:
496,114,26824,2,0,L|448:182,1,75.0000028610231,0|2,0:0|0:0,0:0:0:0:
481,39,27412,1,0,1:0:0:0:
481,39,27608,1,0,0:0:0:0:
481,39,27804,1,0,0:0:0:0:
494,237,28001,6,0,P|458:216|398:204,1,75.0000028610231,0|0,1:0|0:0,0:0:0:0:
361,245,28393,1,0,0:0:0:0:
399,312,28589,1,0,0:0:0:0:
234,356,28785,5,8,0:0:0:0:
234,356,28981,2,0,P|215:321|151:208,1,150.000005722046,0|0,1:0|0:0,0:0:0:0:
160,225,29569,6,0,L|210:163,1,75.0000028610231,0|0,1:0|0:0,0:0:0:0:
228,263,29961,2,0,L|175:324,1,75.0000028610231
66,114,30353,5,8,0:0:0:0:
134,141,30550,2,0,P|92:133|18:220,1,150.000005722046,0|0,1:0|0:0,0:0:0:0:
18,199,31138,6,0,P|66:212|103:233,1,75.0000028610231,0|0,1:0|0:0,0:0:0:0:
263,141,31530,1,0,0:0:0:0:
188,120,31726,2,0,P|155:144|113:157,1,75.0000028610231,0|8,0:0|0:0,0:0:0:0:
263,141,32118,1,0,1:0:0:0:
211,200,32314,1,0,0:0:0:0:
288,215,32510,2,0,P|320:243|340:282,1,75.0000028610231,0|0,0:0|1:0,0:0:0:0:
275,317,32903,5,0,0:0:0:0:
412,296,33099,1,0,0:0:0:0:
368,136,33295,1,0,0:0:0:0:
211,200,33491,1,8,0:0:0:0:
336,270,33687,2,0,P|363:237|463:236,1,150.000005722046,0|0,1:0|0:0,0:0:0:0:
492,168,34177,1,0,1:0:0:0:
449,138,34275,6,0,L|438:45,1,75.0000028610231,0|0,1:0|0:0,0:0:0:0:
367,57,34667,1,0,0:0:0:0:
291,76,34863,2,0,L|301:0,1,75.0000028610231,0|8,0:0|0:0,0:0:0:0:
300,1,35255,1,0,1:0:0:0:
328,143,35452,1,0,0:0:0:0:
328,143,35648,1,0,0:0:0:0:
271,191,35844,6,0,P|220:205|141:290,1,150.000005722046,0|0,1:0|0:0,0:0:0:0:
389,270,36432,2,0,L|306:249,1,75.0000028610231,0|8,0:0|0:0,0:0:0:0:
458,241,36824,1,0,1:0:0:0:
504,304,37020,1,0,0:0:0:0:
434,332,37216,1,2,0:0:0:0:
316,251,37412,6,0,P|369:242|481:114,1,225.000008583069,0|2,1:0|0:0,0:0:0:0:
478,123,38393,1,8,0:0:0:0:
333,82,38589,1,8,0:0:0:0:
408,103,38785,5,0,0:0:0:0:
408,103,38981,2,0,L|415:188,1,75.0000028610231,4|0,1:2|0:0,0:0:0:0:
380,277,39373,2,0,L|462:238,1,75.0000028610231,0|0,1:0|0:0,0:0:0:0:
308,220,39765,1,8,0:0:0:0:
233,337,39961,5,0,1:0:0:0:
218,323,40059,1,0,1:0:0:0:
191,316,40157,1,8,0:3:0:0:
159,327,40255,1,8,0:3:0:0:
133,357,40353,1,4,0:3:0:0:
87,367,40452,1,4,0:3:0:0:
19,342,40550,6,0,P|176:348|336:364,1,300.000011444092,4|0,1:0|0:0,0:0:0:0:
386,319,41530,1,0,1:0:0:0:
386,319,41726,1,8,0:0:0:0:
386,319,42118,6,0,P|354:278|311:255,1,75.0000028610231,0|0,1:0|0:0,0:0:0:0:
269,239,42510,1,0,0:0:0:0:
194,243,42706,2,0,P|167:207|157:100,1,150.000005722046,0|0,0:0|1:0,0:0:0:0:
19,48,43295,1,8,0:0:0:0:
65,107,43491,5,0,1:0:0:0:
65,107,43687,2,0,L|157:83,1,75.0000028610231,0|0,1:0|0:0,0:0:0:0:
200,39,44079,1,0,0:0:0:0:
208,116,44275,2,0,L|56:71,1,150.000005722046,0|0,0:0|1:0,0:0:0:0:
139,218,44863,1,8,0:0:0:0:
104,290,45059,5,0,0:0:0:0:
28,275,45255,1,0,1:0:0:0:
17,196,45452,1,2,0:0:0:0:
86,160,45648,1,0,0:0:0:0:
139,218,45844,1,2,0:0:0:0:
139,218,46236,5,2,1:2:0:0:
282,256,46432,1,8,0:0:0:0:
361,238,46628,5,0,1:0:0:0:
361,238,46726,1,0,1:0:0:0:
361,238,46824,2,0,L|342:142,1,75.0000028610231,4|0,1:0|0:0,0:0:0:0:
402,114,47216,1,0,0:0:0:0:
474,143,47412,1,2,0:0:0:0:
416,193,47608,5,0,1:0:0:0:
281,166,47804,1,0,1:0:0:0:
139,138,48001,1,8,0:0:0:0:
201,94,48197,5,0,0:0:0:0:
201,94,48393,2,0,L|215:173,1,75.0000028610231,0|0,1:0|0:0,0:0:0:0:
162,307,48785,1,0,0:0:0:0:
100,353,48981,2,0,P|120:290|208:229,1,150.000005722046,2|0,0:0|1:0,0:0:0:0:
330,318,49569,1,8,0:0:0:0:
395,277,49765,5,0,1:0:0:0:
372,204,49961,1,0,1:0:0:0:
372,204,50353,5,8,0:0:0:0:
330,318,50550,1,0,0:0:0:0:
298,167,50746,5,0,1:0:0:0:
442,116,50942,1,0,0:0:0:0:
307,243,51138,5,8,0:0:0:0:
138,167,51334,1,4,1:2:0:0:
138,167,51530,1,4,1:2:0:0:
284,53,51726,1,4,1:2:0:0:
236,112,51922,5,8,0:0:0:0:
299,154,52118,5,0,1:0:0:0:
345,96,52314,5,0,1:0:0:0:
284,53,52706,5,2,1:0:0:0:
256,308,52903,1,0,1:0:0:0:
256,308,53001,1,0,1:0:0:0:
256,308,53099,1,4,1:0:0:0:
256,308,53491,5,12,0:0:0:0:
139,205,53687,1,0,0:0:0:0:
241,228,53883,1,0,1:0:0:0:
87,271,54079,1,0,1:0:0:0:
87,271,54275,1,8,0:0:0:0:
296,165,54471,5,0,0:0:0:0:
322,198,54569,1,0,0:0:0:0:
348,229,54667,1,0,1:0:0:0:
383,135,54863,1,0,0:0:0:0:
261,243,55059,1,8,0:0:0:0:
426,203,55255,1,2,0:0:0:0:
310,88,55452,1,0,1:0:0:0:
310,88,55648,1,0,1:0:0:0:
155,233,55844,6,0,P|200:187|340:177,1,200,8|0,0:0|1:0,0:0:0:0:
288,321,56432,1,0,0:0:0:0:
390,300,56628,1,8,0:0:0:0:
339,244,56824,1,0,0:0:0:0:
288,321,57020,1,0,1:0:0:0:
327,349,57216,2,0,L|301:242,1,100,0|8,1:0|0:0,0:0:0:0:
157,206,57608,5,0,0:0:0:0:
197,67,57804,1,0,1:0:0:0:
249,126,58001,1,0,0:0:0:0:
96,157,58197,1,8,0:0:0:0:
119,86,58393,1,2,0:0:0:0:
230,204,58589,2,0,P|267:210|335:247,1,100,0|0,1:0|1:0,0:0:0:0:
158,280,58981,2,0,P|87:304|30:352,1,150,8|0,0:0|0:0,0:0:0:0:
30,352,59373,6,0,L|46:232,1,100,0|0,1:0|0:0,0:0:0:0:
88,186,59765,1,8,0:0:0:0:
25,137,59961,2,0,B|125:166|125:166|213:94,1,200,0|0,0:0|1:0,0:0:0:0:
280,132,60550,1,8,0:0:0:0:
414,92,60746,5,0,0:0:0:0:
271,54,60942,1,0,1:0:0:0:
217,180,61138,1,0,0:0:0:0:
337,90,61334,2,0,L|132:64,1,200,8|0,0:0|1:0,0:0:0:0:
109,147,61922,1,2,1:2:0:0:
113,168,62020,1,0,0:0:0:0:
118,193,62118,1,8,0:0:0:0:
332,261,62314,5,0,0:0:0:0:
323,304,62412,1,0,0:0:0:0:
314,346,62510,1,0,1:0:0:0:
422,336,62706,1,0,0:0:0:0:
207,289,62903,1,4,0:0:0:0:
241,365,63099,5,2,0:0:0:0:
241,365,63491,1,0,1:0:0:0:
429,260,63687,1,4,0:0:0:0:
408,251,63883,1,0,0:0:0:0:
299,320,64079,5,0,1:0:0:0:
512,269,64275,1,2,1:0:0:0:
360,114,64471,1,4,0:0:0:0:
301,167,64667,5,0,1:0:0:0:
226,137,64863,5,0,1:0:0:0:
253,109,64961,1,8,3:0:0:0:
284,83,65059,1,8,3:0:0:0:
322,98,65157,1,4,3:0:0:0:
360,114,65255,1,4,3:0:0:0:
194,33,65452,6,0,B|106:5|85:83|-12:43,1,200,6|0,1:0|0:0,0:0:0:0:
66,93,66040,1,8,0:0:0:0:
85,170,66236,1,0,0:0:0:0:
76,251,66432,1,0,1:0:0:0:
76,251,66628,1,0,1:0:0:0:
181,328,66824,5,8,0:0:0:0:
200,202,67020,5,0,0:0:0:0:
200,202,67118,1,0,0:0:0:0:
200,202,67216,1,0,1:0:0:0:
101,318,67412,1,0,0:0:0:0:
228,272,67608,1,8,0:0:0:0:
125,187,67805,1,2,0:0:0:0:
151,259,68001,1,0,1:0:0:0:
181,328,68197,1,2,1:2:0:0:
49,231,68393,6,0,P|146:217|228:272,1,200,8|0,0:0|1:0,0:0:0:0:
358,332,68981,1,0,0:0:0:0:
407,205,69177,1,10,0:0:0:0:
352,302,69373,1,0,0:0:0:0:
256,244,69569,1,0,1:0:0:0:
345,273,69765,2,0,L|320:164,1,100,2|8,1:2|0:0,0:0:0:0:
279,113,70157,5,0,0:0:0:0:
444,24,70353,1,0,1:0:0:0:
451,141,70550,1,0,0:0:0:0:
302,20,70746,1,8,0:0:0:0:
505,77,70942,2,0,P|438:66|377:197,1,200,4|0,0:0|1:0,0:0:0:0:
282,348,71530,2,0,P|232:301|229:234,1,100,8|0,0:0|3:0,0:0:0:0:
248,223,71824,1,0,3:0:0:0:
287,233,71922,5,0,1:0:0:0:
298,308,72118,1,0,0:0:0:0:
214,353,72314,1,8,0:0:0:0:
134,287,72510,2,0,B|94:199|188:192|156:80,1,200,0|0,0:0|1:0,0:0:0:0:
88,130,73099,1,8,0:0:0:0:
207,250,73295,5,0,0:0:0:0:
207,250,73393,1,0,0:0:0:0:
207,250,73491,2,0,L|317:279,1,100,0|0,1:0|0:0,0:0:0:0:
443,98,73883,2,0,B|347:66|347:66|266:134,1,200,8|0,0:0|1:0,0:0:0:0:
337,174,74471,1,0,1:0:0:0:
343,96,74667,1,8,0:0:0:0:
432,269,74863,5,0,0:0:0:0:
432,269,74961,1,0,0:0:0:0:
432,269,75059,1,0,1:0:0:0:
323,375,75255,1,0,0:0:0:0:
277,229,75452,1,12,0:0:0:0:
338,291,75648,5,0,0:0:0:0:
179,154,75844,1,0,1:0:0:0:
121,352,76040,1,0,1:0:0:0:
12,277,76236,5,8,0:0:0:0:
58,265,76334,1,8,3:0:0:0:
101,253,76432,1,8,3:0:0:0:
147,241,76530,1,8,3:0:0:0:
193,230,76628,5,4,1:0:0:0:
273,61,76824,1,2,1:0:0:0:
326,114,77216,6,0,B|283:153|222:148|217:88|143:76|96:143|140:188,1,250,2|4,0:0|0:0,0:0:0:0:
395,177,81334,5,4,0:0:0:0:
328,222,81726,1,4,0:0:0:0:
201,306,82118,5,8,0:0:0:0:
279,339,82510,1,2,0:0:0:0:
279,339,82706,1,8,0:0:0:0:
263,263,82903,5,2,0:0:0:0:
249,188,83295,1,2,0:0:0:0:
234,113,83687,5,8,0:0:0:0:
416,185,83883,1,0,1:0:0:0:
101,224,84079,1,8,0:0:0:0:
129,225,84177,1,0,1:0:0:0:
158,228,84275,1,0,1:0:0:0:
187,232,84373,1,0,1:0:0:0:
187,232,84471,6,0,L|163:132,1,75.0000028610231,4|0,1:0|0:0,0:0:0:0:
245,283,84863,2,0,L|176:335,1,75.0000028610231,8|0,0:0|0:0,0:0:0:0:
267,211,85255,1,0,1:0:0:0:
376,259,85452,1,0,1:0:0:0:
468,181,85648,1,8,0:0:0:0:
392,182,85844,5,0,0:0:0:0:
392,182,86040,2,0,L|468:213,1,75.0000028610231,0|0,1:0|0:0,0:0:0:0:
342,121,86432,2,0,L|267:151,1,75.0000028610231,8|0,0:0|0:0,0:0:0:0:
403,76,86824,1,0,1:0:0:0:
320,209,87020,1,0,1:0:0:0:
433,334,87216,2,0,P|379:288|280:298,1,150.000005722046,8|0,0:0|1:0,0:0:0:0:
239,328,87804,6,0,L|147:305,1,75.0000028610231,0|8,0:0|0:0,0:0:0:0:
94,335,88197,1,0,0:0:0:0:
94,335,88393,1,0,1:0:0:0:
18,245,88589,5,0,1:0:0:0:
127,223,88785,1,8,0:0:0:0:
108,137,88981,1,0,0:0:0:0:
3,164,89177,1,0,1:0:0:0:
32,170,89373,1,0,0:0:0:0:
103,258,89569,5,8,0:0:0:0:
171,239,89765,1,0,0:0:0:0:
214,117,89961,5,0,1:0:0:0:
368,150,90157,1,0,1:0:0:0:
294,136,90353,5,8,0:0:0:0:
294,136,90550,1,0,0:0:0:0:
322,210,90746,2,0,P|320:146|368:50,1,150.000005722046,0|8,1:0|0:0,0:0:0:0:
290,26,91334,2,0,L|196:43,1,75.0000028610231,0|0,0:0|1:0,0:0:0:0:
159,92,91726,1,0,1:0:0:0:
86,71,91922,5,8,0:0:0:0:
121,200,92118,1,0,0:0:0:0:
81,312,92314,2,0,P|83:237|55:168,1,150.000005722046,0|8,1:0|0:0,0:0:0:0:
164,273,92903,2,0,L|259:297,1,75.0000028610231,0|0,0:0|1:0,0:0:0:0:
314,269,93295,1,0,1:0:0:0:
250,217,93491,5,8,0:0:0:0:
314,269,93687,1,0,0:0:0:0:
387,238,93883,2,0,L|408:78,1,150.000005722046,0|8,1:0|0:0,0:0:0:0:
468,224,94471,2,0,L|484:319,1,75.0000028610231,0|0,0:0|1:0,0:0:0:0:
419,351,94863,5,0,1:0:0:0:
293,290,95059,2,0,B|219:274|227:331|133:323,1,150.000005722046,8|0,0:0|1:0,0:0:0:0:
86,284,95648,1,0,0:0:0:0:
36,343,95844,1,8,0:0:0:0:
39,223,96040,5,2,0:0:0:0:
39,223,96432,2,0,L|87:200,1,37.5000014305115,8|0,0:0|0:0,0:0:0:0:
86,284,96628,1,8,1:3:0:0:
78,133,96824,2,0,L|130:151,1,37.5000014305115,8|0,0:0|0:0,0:0:0:0:
175,103,97020,6,0,L|203:191,1,75.0000028610231,4|0,1:0|0:0,0:0:0:0:
271,201,97412,1,8,0:0:0:0:
396,178,97608,2,0,P|348:214|336:320,1,150.000005722046,0|0,0:0|1:0,0:0:0:0:
450,330,98197,1,8,0:0:0:0:
438,252,98393,6,0,L|416:88,1,150.000005722046
325,30,98981,1,8,0:0:0:0:
217,85,99177,1,0,0:0:0:0:
217,85,99373,1,0,1:0:0:0:
291,98,99569,5,0,1:0:0:0:
208,13,99765,1,8,0:0:0:0:
151,124,99961,1,0,0:0:0:0:
238,221,100157,2,0,B|315:200|304:270|410:256,1,150.000005722046,0|8,1:0|0:0,0:0:0:0:
445,221,100746,6,0,L|415:127,1,75.0000028610231,0|0,0:0|1:0,0:0:0:0:
444,299,101138,2,0,L|423:378,1,75.0000028610231,0|8,1:0|0:0,0:0:0:0:
512,261,101530,1,0,0:0:0:0:
361,305,101726,5,0,1:0:0:0:
350,273,101922,1,0,0:0:0:0:
275,176,102118,5,8,0:0:0:0:
261,259,102314,1,0,0:0:0:0:
436,170,102510,5,0,1:0:0:0:
390,21,102706,1,0,1:0:0:0:
455,66,102903,5,8,0:0:0:0:
358,152,103099,1,0,0:0:0:0:
358,152,103197,1,0,0:0:0:0:
358,152,103295,2,0,L|340:69,1,75.0000028610231,0|0,1:0|0:0,0:0:0:0:
199,29,103687,1,8,0:0:0:0:
254,82,103883,2,0,P|196:82|133:173,1,150.000005722046,0|0,0:0|1:0,0:0:0:0:
188,216,104471,5,8,0:0:0:0:
34,252,104667,1,0,0:0:0:0:
178,301,104863,2,0,L|143:140,1,150.000005722046,0|8,1:0|0:0,0:0:0:0:
99,308,105452,2,0,L|17:352,1,75.0000028610231,0|0,0:0|1:0,0:0:0:0:
143,373,105844,1,0,1:0:0:0:
178,301,106040,5,8,0:0:0:0:
325,353,106236,1,0,0:0:0:0:
482,335,106432,2,0,P|405:344|274:252,1,225.000008583069,0|0,1:0|1:0,0:0:0:0:
284,269,107216,1,0,0:0:0:0:
353,180,107412,5,8,0:0:0:0:
188,218,107608,1,8,0:0:0:0:
206,148,107804,5,0,0:0:0:0:
206,148,108001,2,0,L|289:177,1,75.0000028610231,4|0,1:2|0:0,0:0:0:0:
358,337,108393,1,8,0:0:0:0:
432,298,108589,1,0,1:0:0:0:
418,265,108687,1,0,1:0:0:0:
405,237,108785,1,0,1:0:0:0:
472,155,108981,5,8,3:0:0:0:
468,166,109079,1,8,3:0:0:0:
464,177,109177,1,4,3:0:0:0:
327,84,109373,1,4,3:0:0:0:
495,74,109569,6,0,P|438:82|384:183,1,150.000005722046,4|8,1:0|0:0,0:0:0:0:
314,190,110157,2,0,L|137:164,1,150.000005722046,2|0,0:0|1:0,0:0:0:0:
102,212,110746,1,8,0:0:0:0:
212,284,110942,5,0,0:0:0:0:
126,309,111138,1,0,1:0:0:0:
187,369,111334,1,0,0:0:0:0:
212,284,111530,1,8,0:0:0:0:
52,178,111726,2,0,L|80:247,1,75.0000028610231,2|0,0:0|0:0,0:0:0:0:
219,213,112118,2,0,L|220:122,1,75.0000028610231,0|8,1:0|0:0,0:0:0:0:
141,192,112510,5,0,1:0:0:0:
141,192,112706,2,0,B|213:202|187:257|280:268,1,150.000005722046,0|8,1:0|0:0,0:0:0:0:
329,212,113295,2,0,L|411:228,1,75.0000028610231,2|0,0:0|1:0,0:0:0:0:
472,262,113687,1,0,1:0:0:0:
417,322,113883,1,8,0:0:0:0:
305,135,114079,5,0,0:0:0:0:
283,41,114275,1,0,1:0:0:0:
395,19,114471,1,0,0:0:0:0:
408,122,114667,1,8,0:0:0:0:
266,209,114863,2,0,B|194:219|220:274|127:285,1,150.000005722046,2|0,0:0|1:0,0:0:0:0:
140,282,115353,1,0,0:0:0:0:
140,282,115452,1,8,0:0:0:0:
76,326,115648,5,0,0:0:0:0:
43,303,115746,1,0,1:0:0:0:
15,282,115844,2,0,L|33:207,1,75.0000028610231,0|0,1:0|0:0,0:0:0:0:
32,117,116236,2,0,L|123:181,1,75.0000028610231,4|0,0:0|0:0,0:0:0:0:
105,241,116628,1,0,1:0:0:0:
245,182,116824,1,0,1:0:0:0:
206,263,117020,1,8,0:0:0:0:
93,160,117216,5,0,0:0:0:0:
93,160,117314,1,0,0:0:0:0:
93,160,117412,2,0,L|174:136,1,75.0000028610231,0|0,1:0|0:0,0:0:0:0:
243,74,117804,1,4,0:0:0:0:
384,91,118001,2,0,P|296:74|244:19,1,150.000005722046,2|0,0:0|1:0,0:0:0:0:
266,118,118589,1,8,0:0:0:0:
278,208,118785,1,0,3:0:0:0:
278,208,118883,1,0,3:0:0:0:
278,208,118981,1,0,1:0:0:0:
492,251,119373,5,8,0:0:0:0:
478,343,119569,1,0,1:0:0:0:
258,320,119765,5,0,1:0:0:0:
256,177,119961,1,0,1:0:0:0:
31,186,120157,5,8,0:0:0:0:
59,358,120353,1,4,1:2:0:0:
59,358,120550,1,4,1:2:0:0:
192,250,120746,1,4,1:2:0:0:
133,198,120942,5,8,0:0:0:0:
117,276,121138,5,4,1:0:0:0:
180,330,121334,5,0,1:0:0:0:
204,299,121432,1,8,3:0:0:0:
249,281,121530,1,4,3:0:0:0:
302,281,121628,1,4,3:0:0:0:
366,307,121726,6,0,L|383:340,1,37.5000014305115,2|0,1:0|0:0,0:0:0:0:
345,137,121922,2,0,L|356:101,1,37.5000014305115,0|0,1:2|0:0,0:0:0:0:
428,57,122118,2,0,P|372:66|293:-5,1,150,4|0,1:0|0:0,0:0:0:0:
246,70,122510,6,0,L|141:52,1,100,8|0,0:0|0:0,0:0:0:0:
91,177,122902,1,0,1:0:0:0:
58,97,123099,1,0,1:0:0:0:
58,97,123295,1,8,0:0:0:0:
182,137,123491,5,0,0:0:0:0:
70,281,123687,1,0,1:0:0:0:
250,308,123883,1,0,0:0:0:0:
209,216,124079,5,8,0:0:0:0:
141,253,124275,1,2,0:0:0:0:
190,263,124471,1,0,1:0:0:0:
131,206,124667,1,2,1:2:0:0:
288,100,124863,6,0,P|379:99|440:198,1,200,8|0,0:0|1:0,0:0:0:0:
351,333,125452,1,0,0:0:0:0:
363,204,125648,1,8,0:0:0:0:
451,254,125844,1,0,0:0:0:0:
351,333,126040,1,0,1:0:0:0:
330,293,126236,2,0,L|429:325,1,100,0|8,1:0|0:0,0:0:0:0:
248,258,126628,5,0,0:0:0:0:
74,289,126824,1,0,1:0:0:0:
104,365,127020,1,0,0:0:0:0:
185,206,127216,1,8,0:0:0:0:
108,220,127412,1,2,0:0:0:0:
178,380,127608,1,0,1:0:0:0:
239,334,127804,1,0,1:0:0:0:
349,353,128001,2,0,B|252:362|269:288|156:294,1,200,8|0,0:0|1:0,0:0:0:0:
97,253,128589,6,0,L|118:147,1,100,0|8,0:0|0:0,0:0:0:0:
56,107,128981,2,0,P|79:50|227:43,1,200,0|0,0:0|1:0,0:0:0:0:
273,63,129569,1,8,0:0:0:0:
193,158,129765,1,0,0:0:0:0:
153,91,129961,1,0,1:0:0:0:
271,140,130157,5,0,0:0:0:0:
187,242,130353,2,0,P|233:301|355:288,1,200,8|0,0:0|1:0,0:0:0:0:
409,246,130942,1,2,1:2:0:0:
482,272,131138,1,8,0:0:0:0:
486,109,131334,5,0,0:0:0:0:
436,125,131432,1,0,0:0:0:0:
396,94,131530,2,0,P|348:87|298:73,1,100,0|0,1:0|0:0,0:0:0:0:
314,156,131922,1,4,0:0:0:0:
187,289,132118,2,0,B|147:256|147:256|166:189,1,100,0|0,0:0|1:0,0:0:0:0:
234,188,132510,2,0,B|274:221|274:221|255:288,2,100,0|4|0,1:0|0:0|0:0,0:0:0:0:
80,211,133099,5,0,1:0:0:0:
336,275,133295,1,0,1:0:0:0:
293,135,133491,1,4,0:0:0:0:
122,326,133687,1,0,1:0:0:0:
89,294,133785,5,8,3:0:0:0:
141,305,133883,1,8,3:0:0:0:
191,316,133981,1,4,3:0:0:0:
241,327,134079,1,4,3:0:0:0:
372,177,134275,1,2,1:0:0:0:
216,77,134471,1,2,1:2:0:0:
216,77,134569,1,0,1:0:0:0:
216,77,134667,2,0,L|137:97,1,75.0000028610231
274,20,135059,5,4,1:0:0:0:
349,49,135255,1,0,0:0:0:0:
292,108,135452,1,0,1:0:0:0:
216,77,135648,1,0,1:0:0:0:
369,132,135844,1,8,0:0:0:0:
232,205,136040,2,0,B|338:185|308:271|417:268,1,200,2|0,1:0|0:0,0:0:0:0:
483,238,136628,1,8,0:0:0:0:
418,192,136824,1,2,0:0:0:0:
348,224,137020,5,0,1:0:0:0:
404,342,137216,1,2,1:2:0:0:
483,238,137412,2,0,P|438:188|439:42,1,200,8|0,0:0|1:0,0:0:0:0:
501,83,138001,1,0,0:0:0:0:
388,144,138197,5,10,0:0:0:0:
290,166,138393,1,0,0:0:0:0:
160,44,138589,5,2,1:2:0:0:
318,62,138785,2,0,L|211:90,1,100,2|8,1:0|0:0,0:0:0:0:
151,124,139177,5,0,0:0:0:0:
234,262,139373,1,0,1:0:0:0:
84,205,139569,1,0,0:0:0:0:
239,165,139765,1,8,0:0:0:0:
132,287,139961,2,0,P|175:277|290:367,1,200,4|0,0:0|1:0,0:0:0:0:
81,355,140550,2,0,L|32:250,1,100,8|0,0:0|3:0,0:0:0:0:
54,220,140844,1,0,1:0:0:0:
98,215,140942,5,0,1:0:0:0:
161,166,141138,1,0,0:0:0:0:
126,86,141334,1,8,0:0:0:0:
33,85,141530,2,0,P|87:126|223:103,1,200,0|0,0:0|1:0,0:0:0:0:
191,29,142118,1,8,0:0:0:0:
301,137,142314,5,0,0:0:0:0:
280,224,142510,2,0,L|402:196,1,100,0|0,1:0|0:0,0:0:0:0:
377,201,142903,2,0,L|169:160,2,200,10|0|8,0:0|1:0|0:0,0:0:0:0:
460,169,143883,5,0,0:0:0:0:
445,128,143981,1,0,1:0:0:0:
430,89,144079,1,0,1:0:0:0:
346,276,144275,1,0,0:0:0:0:
425,305,144471,1,12,0:0:0:0:
328,142,144667,1,0,0:0:0:0:
277,188,144863,1,0,1:0:0:0:
397,213,145059,5,0,1:0:0:0:
397,213,145157,1,8,3:0:0:0:
397,213,145255,1,8,3:0:0:0:
397,213,145353,1,4,3:0:0:0:
397,213,145452,1,4,3:0:0:0:
478,195,145648,5,4,1:0:0:0:
257,297,145844,1,2,0:0:0:0:
46,200,146040,1,4,0:0:0:0:
256,117,146236,2,0,L|374:145,1,100,2|0,0:1|0:0,0:0:0:0:
253,78,146628,5,2,0:1:0:0:
211,93,146726,1,8,3:0:0:0:
161,112,146824,1,4,3:0:0:0:
103,136,146922,1,4,3:0:0:0:
40,162,147020,2,0,P|96:146|208:218,1,200,2|4,1:0|1:0,0:0:0:0:
346,332,147608,5,8,0:0:0:0:
397,277,147804,1,0,0:0:0:0:
322,258,148001,1,0,1:0:0:0:
273,319,148197,1,0,1:0:0:0:
353,336,148393,1,8,0:0:0:0:
399,268,148589,1,0,0:0:0:0:
317,261,148785,1,0,1:0:0:0:
272,329,148981,1,0,0:0:0:0:
355,330,149177,5,8,0:0:0:0:
394,258,149373,1,0,0:0:0:0:
357,171,149569,1,0,1:0:0:0:
247,140,149765,1,0,1:0:0:0:
143,205,149961,1,8,0:0:0:0:
129,357,150157,2,0,P|199:313|145:114,1,300,2|8,0:0|0:0,0:0:0:0:
60,111,150942,6,0,L|51:57,1,40,2|0,0:0|1:0,0:0:0:0:
254,102,151334,2,0,L|255:50,1,40,2|8,0:0|0:0,0:0:0:0:
457,116,151726,2,0,L|462:72,1,40,0|0,0:0|1:0,0:0:0:0:
461,76,152314,6,0,L|456:115,1,40,8|2,0:0|0:0,0:0:0:0:
57,80,152706,2,0,L|67:133,1,40,0|2,1:0|0:0,0:0:0:0:
256,127,153098,1,8,0:0:0:0:
258,54,153295,2,0,B|296:159|207:132|257:278,1,200,4|4,1:2|0:0,0:0:0:0:
111,348,153883,5,8,0:0:0:0:
63,290,154079,1,0,0:0:0:0:
128,250,154275,1,0,1:0:0:0:
178,310,154471,1,0,1:0:0:0:
108,343,154667,1,8,0:0:0:0:
58,283,154863,1,0,0:0:0:0:
129,256,155059,1,0,1:0:0:0:
177,317,155255,1,0,0:0:0:0:
101,344,155452,5,8,0:0:0:0:
56,277,155648,1,0,0:0:0:0:
79,186,155844,1,0,1:0:0:0:
184,143,156040,1,0,1:0:0:0:
301,198,156236,1,8,0:0:0:0:
295,340,156432,2,0,P|160:312|168:175,1,300,2|8,0:0|0:0,0:0:0:0:
229,220,157216,6,0,L|220:271,1,40,2|0,0:0|1:0,0:0:0:0:
334,111,157608,2,0,L|370:95,1,40,2|8,0:0|0:0,0:0:0:0:
171,82,158001,2,0,L|131:52,1,40,0|0,0:0|1:0,0:0:0:0:
139,58,158393,5,0,1:0:0:0:
241,136,158589,1,12,0:0:0:0:
224,261,158785,2,0,L|229:223,1,20,4|0,0:3|0:0,0:0:0:0:
241,136,158981,1,0,1:0:0:0:
371,94,159177,2,0,L|351:100,1,20,4|0,1:3|0:0,0:0:0:0:
241,136,159373,1,8,0:0:0:0:
112,177,159569,1,0,1:0:0:0:
96,158,159667,6,0,L|242:208,1,150,8|4,1:3|1:3,0:0:0:0:
485,251,160157,2,0,B|413:272|413:272|385:327|385:327|290:356,1,200,4|0,0:0|1:0,0:0:0:0:
244,307,160746,1,0,1:0:0:0:
319,263,160942,2,0,P|372:276|411:325,1,100,8|0,0:0|0:0,0:0:0:0:
244,307,161334,5,0,1:0:0:0:
241,222,161530,1,0,0:0:0:0:
319,263,161726,2,0,P|331:315|318:364,1,100,8|0,0:0|0:0,0:0:0:0:
241,222,162118,5,0,1:0:0:0:
315,173,162314,1,0,1:0:0:0:
319,263,162510,1,8,0:0:0:0:
234,136,162706,2,0,B|139:117|152:206|44:201,1,200,2|0,0:0|0:0,0:0:0:0:
69,120,163295,6,0,L|147:193,1,100,8|2,0:0|0:0,0:0:0:0:
164,11,163687,2,0,L|77:47,1,89.9999972534181,0|2,1:0|0:0,0:0:0:0:
210,146,164079,2,0,L|221:49,1,80,8|0,0:0|0:0,0:0:0:0:
92,125,164471,2,0,L|147:172,1,59.9999981689454,0|0,1:0|0:0,0:0:0:0:
154,29,164863,2,0,L|101:49,1,50,8|2,0:0|0:0,0:0:0:0:
203,124,165255,2,0,L|211:66,2,40,0|2|8,1:0|0:0|0:0,0:0:0:0:
203,124,165844,6,0,P|270:118|373:225,1,200,4|2,1:0|0:0,0:0:0:0:
206,375,166432,2,0,P|165:319|206:205,1,200,8|0,0:0|1:0,0:0:0:0:
272,250,167020,1,0,1:0:0:0:
198,283,167216,2,0,P|149:263|126:197,1,100,8|0,0:0|0:0,0:0:0:0:
278,170,167608,5,0,1:0:0:0:
272,250,167804,1,0,0:0:0:0:
205,205,168001,2,0,P|200:154|231:102,1,100,8|2,0:0|0:1,0:0:0:0:
346,211,168393,5,0,1:0:0:0:
272,250,168589,1,2,1:2:0:0:
278,170,168785,1,8,0:0:0:0:
345,292,168981,2,0,B|245:278|270:364|161:353,1,200,2|0,0:0|1:0,0:0:0:0:
89,332,169569,6,0,L|99:219,1,100,8|2,0:0|0:1,0:0:0:0:
263,177,169961,2,0,L|149:179,1,100,0|2,1:0|0:0,0:0:0:0:
87,29,170353,2,0,L|95:128,1,100,8|0,0:0|0:0,0:0:0:0:
32,180,170746,5,2,1:2:0:0:
256,286,170942,1,2,1:2:0:0:
459,183,171138,1,8,0:0:0:0:
255,81,171334,1,4,1:0:0:0:
254,159,171726,5,8,1:2:0:0:
255,237,172118,5,4,0:0:0:0:
19,338,184863,5,0,1:0:0:0:
19,338,185059,1,0,1:0:0:0:
96,323,185648,1,8,0:0:0:0:
218,366,186236,5,0,1:0:0:0:
218,366,186824,1,0,1:0:0:0:
293,351,187216,1,8,0:0:0:0:
412,323,188001,5,0,1:0:0:0:
412,323,188197,1,0,1:0:0:0:
489,338,188785,1,8,0:0:0:0:
295,358,189373,5,0,1:0:0:0:
219,348,189961,1,8,0:0:0:0:
219,348,190157,1,0,1:0:0:0:
257,24,190550,5,8,0:0:0:0:
263,115,190746,1,0,1:0:0:0:
263,115,190844,1,0,1:0:0:0:
263,115,190942,1,0,1:0:0:0:
263,115,191040,1,0,1:0:0:0:
263,115,191138,6,0,P|301:110|336:101,1,75.0000028610231,4|0,1:0|0:0,0:0:0:0:
407,129,191530,1,0,1:0:0:0:
461,201,191922,1,8,0:0:0:0:
465,293,192314,1,0,1:0:0:0:
256,201,192510,5,0,0:0:0:0:
256,201,192608,1,0,1:0:0:0:
256,201,192706,2,0,P|218:196|181:190,1,75.0000028610231,0|0,1:0|0:0,0:0:0:0:
113,218,193099,1,0,1:0:0:0:
68,291,193491,1,8,0:0:0:0:
79,379,193883,5,0,1:0:0:0:
225,272,194079,1,0,0:0:0:0:
231,362,194275,5,0,1:0:0:0:
231,362,194373,1,0,1:0:0:0:
231,362,194471,1,0,1:0:0:0:
231,362,194569,1,0,1:0:0:0:
231,362,194667,5,0,1:0:0:0:
193,343,194765,1,0,1:0:0:0:
173,303,194863,1,0,1:0:0:0:
186,259,194961,1,0,1:0:0:0:
235,229,195059,1,8,0:0:0:0:
280,193,195157,1,0,1:0:0:0:
294,135,195255,1,0,1:0:0:0:
257,95,195353,1,0,1:0:0:0:
257,95,195452,2,0,L|268:158,1,37.5000014305115
253,252,195648,6,0,L|266:3,1,250,6|6,1:0|1:0,0:0:0:0:
139,224,196432,1,4,1:2:0:0:
385,337,196628,1,2,1:0:0:0:
385,337,196726,1,8,0:0:0:0:
385,337,196824,1,8,0:0:0:0:
359,219,197020,5,2,1:0:0:0:
127,351,197216,1,4,1:2:0:0:
127,351,197314,2,0,P|184:344|215:295,1,119.999996337891,0|0,1:0|0:0,0:0:0:0:
246,308,197804,6,0,L|232:208,1,100,4|0,1:0|0:0,0:0:0:0:
178,149,198197,1,0,1:0:0:0:
99,123,198393,1,0,1:0:0:0:
13,142,198589,1,8,0:0:0:0:
20,341,198785,5,0,0:0:0:0:
172,233,198981,1,0,1:0:0:0:
36,260,199177,1,0,0:0:0:0:
214,321,199373,1,8,0:0:0:0:
36,260,199569,2,0,P|107:245|180:125,1,200,2|0,0:0|1:0,0:0:0:0:
383,99,200157,2,0,P|323:90|253:20,1,150,8|0,0:0|0:0,0:0:0:0:
258,31,200550,6,0,L|276:137,1,100,0|0,1:0|0:0,0:0:0:0:
304,322,200942,1,8,0:0:0:0:
413,272,201138,1,0,0:0:0:0:
388,157,201334,1,0,1:0:0:0:
220,233,201530,1,2,1:0:0:0:
322,233,201726,5,8,0:0:0:0:
220,233,201922,5,0,0:0:0:0:
388,157,202118,1,2,1:2:0:0:
293,324,202314,1,0,0:0:0:0:
277,135,202510,1,8,0:0:0:0:
407,281,202706,5,2,0:0:0:0:
318,227,202903,1,0,1:0:0:0:
216,221,203099,1,0,1:0:0:0:
119,270,203295,2,0,B|152:165|74:179|96:70,1,200,8|4,0:0|1:0,0:0:0:0:
169,110,203883,6,0,L|271:88,1,100,0|8,0:0|0:0,0:0:0:0:
271,168,204275,2,0,P|324:159|424:269,1,200,0|0,0:0|1:0,0:0:0:0:
265,316,204863,1,8,0:0:0:0:
466,316,205059,6,0,L|479:106,1,200,4|0,0:0|1:0,0:0:0:0:
256,227,205648,2,0,L|242:111,1,100,8|2,0:0|0:0,0:0:0:0:
365,60,206040,1,0,1:0:0:0:
362,239,206236,1,4,1:2:0:0:
320,132,206432,5,8,0:0:0:0:
409,149,206628,1,0,0:0:0:0:
409,149,206726,1,0,1:0:0:0:
409,149,206824,1,0,1:0:0:0:
295,207,207020,1,0,0:0:0:0:
176,85,207216,5,8,0:0:0:0:
320,132,207412,1,0,0:0:0:0:
320,132,207608,1,0,1:0:0:0:
288,291,207804,5,0,1:0:0:0:
241,147,208001,1,8,0:0:0:0:
206,14,208197,1,0,1:0:0:0:
243,24,208295,1,0,1:0:0:0:
277,34,208393,1,4,1:3:0:0:
161,177,208589,6,0,L|110:197,1,50,0|0,1:0|0:0,0:0:0:0:
330,98,208785,1,12,0:0:0:0:
155,98,208981,6,0,L|96:82,1,50,0|0,1:0|0:0,0:0:0:0:
331,184,209177,1,0,3:0:0:0:
331,184,209275,1,8,3:0:0:0:
331,184,209373,2,0,L|406:226,1,50,4|0,3:0|0:0,0:0:0:0:
247,294,209569,6,0,B|233:267|233:267|242:236,1,62.5,2|0,1:0|0:0,0:0:0:0:
241,26,209765,2,0,B|253:55|253:55|245:88,1,62.5,2|0,1:0|0:0,0:0:0:0:
338,89,209961,6,0,B|252:56|256:148|160:114,1,187.5,4|0,1:0|0:0,0:0:0:0:
92,80,210353,1,8,0:0:0:0:
57,204,210550,1,0,0:0:0:0:
174,288,210746,1,0,1:0:0:0:
223,155,210942,1,0,1:0:0:0:
96,89,211138,1,8,0:0:0:0:
87,288,211334,5,0,0:0:0:0:
87,288,211432,1,0,0:0:0:0:
87,288,211530,1,0,1:0:0:0:
182,91,211726,1,0,0:0:0:0:
28,135,211922,1,8,0:0:0:0:
226,231,212118,2,0,P|283:229|372:341,1,200,2|0,0:0|1:0,0:0:0:0:
462,109,212706,6,0,L|414:123,1,50,8|0,0:0|0:0,0:0:0:0:
308,59,212902,2,0,L|379:89,1,50
353,174,213099,6,0,P|315:216|303:292,1,100,0|0,1:0|0:0,0:0:0:0:
172,364,213491,1,10,0:0:0:0:
154,195,213687,1,0,0:0:0:0:
211,271,213883,1,0,1:0:0:0:
268,347,214079,5,2,1:0:0:0:
97,265,214275,1,8,0:0:0:0:
262,143,214471,1,0,0:0:0:0:
81,64,214667,1,2,1:2:0:0:
59,163,214863,1,2,0:0:0:0:
258,133,215059,1,8,0:0:0:0:
217,45,215255,2,0,P|171:109|204:236,1,200,4|0,0:0|1:0,0:0:0:0:
436,189,215844,2,0,P|424:116|361:73,1,150,8|0,0:0|0:0,0:0:0:0:
366,74,216236,6,0,L|349:182,1,100,4|0,1:0|0:0,0:0:0:0:
299,233,216628,1,8,0:0:0:0:
402,348,216824,2,0,B|335:273|335:273|220:301,1,200,0|0,0:0|1:0,0:0:0:0:
91,347,217412,1,8,0:0:0:0:
179,242,217608,1,0,0:0:0:0:
129,371,217804,6,0,L|109:268,1,100,0|0,1:0|0:0,0:0:0:0:
5,153,218197,2,0,P|60:156|140:65,1,150,8|0,0:0|0:0,0:0:0:0:
82,42,218589,1,2,1:2:0:0:
74,189,218785,1,0,1:0:0:0:
209,120,218981,1,8,0:0:0:0:
131,99,219177,5,0,0:0:0:0:
140,145,219275,1,0,1:0:0:0:
150,189,219373,1,0,1:0:0:0:
311,88,219569,1,0,0:0:0:0:
279,224,219765,1,4,0:0:0:0:
482,173,219961,1,2,0:0:0:0:
371,302,220157,1,0,1:0:0:0:
391,224,220353,5,0,1:0:0:0:
465,250,220550,1,8,0:0:0:0:
446,324,220746,1,0,0:0:0:0:
371,302,220942,1,8,3:0:0:0:
371,302,221040,1,8,3:0:0:0:
371,302,221138,1,4,3:0:0:0:
136,221,221334,5,12,0:0:0:0:
196,156,221530,2,0,L|219:270,1,100,2|0,1:0|0:0,0:0:0:0:
441,133,221922,2,0,L|418:24,1,100,2|8,1:0|0:0,0:0:0:0:
383,82,222216,1,8,0:0:0:0:
327,103,222314,1,2,1:0:0:0:
267,97,222412,1,8,0:0:0:0:
212,71,222510,6,0,B|116:57|137:152|34:140,1,200,4|8,1:0|0:0,0:0:0:0:
202,158,223099,1,0,0:0:0:0:
133,218,223295,1,0,1:0:0:0:
220,248,223491,2,0,P|267:255|327:293,1,100,0|8,1:0|0:0,0:0:0:0:
426,108,223883,5,0,0:0:0:0:
393,137,223981,1,0,0:0:0:0:
350,133,224079,1,0,1:0:0:0:
293,55,224275,1,0,0:0:0:0:
445,23,224471,1,8,0:0:0:0:
481,181,224667,2,0,P|426:166|321:250,1,200,2|0,0:0|1:0,0:0:0:0:
140,358,225255,2,0,P|192:304|210:232,1,150,12|0,0:0|0:0,0:0:0:0:
210,232,225648,6,0,P|163:197|133:142,1,100,0|0,1:0|0:0,0:0:0:0:
198,22,226040,2,0,P|220:73|223:123,1,100,10|0,0:0|0:0,0:0:0:0:
89,236,226432,1,0,1:0:0:0:
31,171,226628,2,0,P|59:119|116:79,1,100,2|8,1:2|0:0,0:0:0:0:
153,147,227020,5,0,0:0:0:0:
129,308,227216,1,2,1:0:0:0:
89,236,227412,1,0,0:0:0:0:
271,257,227608,1,2,0:1:0:0:
223,319,227805,1,2,0:0:0:0:
154,155,228001,1,2,1:0:0:0:
234,166,228197,1,0,1:0:0:0:
186,232,228393,2,0,L|162:38,1,150,8|0,0:0|0:0,0:0:0:0:
194,42,228785,6,0,B|240:67|240:67|302:51,1,100,4|0,1:0|0:0,0:0:0:0:
332,117,229177,1,8,0:0:0:0:
492,106,229373,2,0,P|416:104|366:226,1,200,2|0,0:0|1:0,0:0:0:0:
444,270,229961,1,8,0:0:0:0:
391,373,230157,1,0,0:0:0:0:
306,292,230353,1,0,1:0:0:0:
478,344,230550,5,0,0:0:0:0:
306,292,230746,2,0,L|169:325,1,100,8|2,0:0|0:0,0:0:0:0:
53,188,231138,2,0,L|156:220,1,100,0|2,1:0|1:0,0:0:0:0:
211,170,231530,1,8,0:0:0:0:
141,137,231726,1,0,0:0:0:0:
141,137,231824,1,0,1:0:0:0:
141,137,231922,1,0,1:0:0:0:
101,271,232118,5,0,0:0:0:0:
211,170,232314,1,8,0:0:0:0:
59,117,232510,2,0,P|129:101|186:16,1,150
178,43,232902,2,0,L|75:23,1,100,0|4,1:0|0:0,0:0:0:0:
259,21,233295,1,0,0:0:0:0:
239,100,233491,5,0,1:0:0:0:
386,208,233687,1,8,0:0:0:0:
480,58,233883,1,4,0:0:0:0:
489,134,234079,5,0,1:0:0:0:
440,150,234177,1,8,3:0:0:0:
395,164,234275,1,8,3:0:0:0:
351,179,234373,1,4,3:0:0:0:
305,193,234471,1,4,3:0:0:0:
144,313,234667,1,8,0:0:0:0:
210,123,234863,1,8,0:0:0:0:
262,137,234961,1,8,0:0:0:0:
316,150,235059,2,0,L|295:40,1,100,4|0,1:0|0:0,0:0:0:0:
161,53,235452,5,8,0:0:0:0:
127,131,235648,1,2,0:0:0:0:
59,172,235844,1,0,1:0:0:0:
5,184,236040,1,2,1:0:0:0:
5,184,236138,1,0,0:0:0:0:
5,184,236236,1,8,0:0:0:0:
201,170,236432,6,0,L|303:216,1,100,0|0,0:0|1:0,0:0:0:0:
144,105,236824,2,0,L|128:4,1,100,0|8,0:0|0:0,0:0:0:0:
227,100,237216,2,0,P|157:138|139:264,1,200,2|0,1:0|1:0,0:0:0:0:
337,357,237804,2,0,P|277:315|271:229,1,150,8|0,0:0|0:0,0:0:0:0:
266,243,238197,6,0,P|323:223|362:178,1,100,0|0,1:0|0:0,0:0:0:0:
149,163,238589,2,0,P|127:118|89:86,1,100,10|0,0:0|0:0,0:0:0:0:
277,31,238981,1,0,1:0:0:0:
236,162,239177,2,0,P|259:97|389:67,1,200,2|0,1:0|0:0,0:0:0:0:
443,107,239667,1,0,1:0:0:0:
406,139,239765,6,0,P|398:97|381:42,1,100,0|0,1:0|0:0,0:0:0:0:
487,194,240157,1,8,0:0:0:0:
341,323,240353,2,0,B|241:353|269:236|149:280,1,200,4|0,0:0|1:0,0:0:0:0:
22,320,240942,1,8,0:0:0:0:
184,363,241138,1,4,1:3:0:0:
48,280,241334,6,0,L|24:174,1,100,4|0,1:0|0:0,0:0:0:0:
82,127,241726,1,8,0:0:0:0:
208,220,241922,2,0,P|224:167|331:138,1,150
305,130,242314,2,0,L|293:237,1,100,0|8,1:0|0:0,0:0:0:0:
416,125,242706,6,0,P|389:56|255:41,1,200,2|0,0:0|0:0,0:0:0:0:
273,311,243295,2,0,P|338:305|378:221,1,150,8|0,0:0|0:0,0:0:0:0:
410,259,243687,6,0,L|387:161,1,100,2|0,1:0|1:0,0:0:0:0:
145,3,244079,2,0,L|120:151,1,150,2|0,1:0|0:0,0:0:0:0:
65,207,244471,5,2,1:0:0:0:
26,65,244667,1,2,3:0:0:0:
143,224,244863,5,12,0:0:0:0:
31,345,245059,1,2,3:0:0:0:
31,345,245157,1,0,1:0:0:0:
31,345,245255,1,0,1:0:0:0:
121,152,245452,5,2,3:0:0:0:
256,160,245648,1,8,3:0:0:0:
310,178,245746,1,8,3:0:0:0:
344,222,245844,1,4,3:0:0:0:
336,288,245942,1,4,3:0:0:0:
272,335,246040,6,0,P|266:312|256:287,1,50,4|0,1:0|0:0,0:0:0:0:
435,204,246236,2,0,P|412:154|397:81,1,100,4|0,0:2|0:0,0:0:0:0:
428,36,246628,6,0,P|392:77|293:113,1,150.000005722046,2|0,0:0|1:0,0:0:0:0:
136,35,247216,5,8,0:0:0:0:
136,35,247314,2,0,L|224:49,1,89.9999972534181,0|0,1:0|0:0,0:0:0:0:
224,49,247608,1,0,1:0:0:0:
