osu file format v14

[General]
AudioFilename: audio.ogg
AudioLeadIn: 2000
PreviewTime: 118308
Countdown: 0
SampleSet: Soft
StackLeniency: 0.5
Mode: 0
LetterboxInBreaks: 1
WidescreenStoryboard: 1

[Editor]
Bookmarks: 21584,22273,22963,23308,23653,24342,26157
DistanceSpacing: 0.9
BeatDivisor: 4
GridSize: 16
TimelineZoom: 1.5

[Metadata]
Title:Yuujou Pop
TitleUnicode:友情ぽっぷ
Artist:Chata
ArtistUnicode:茶太
Creator:bakery
Version:Ultra
Source:太鼓の達人12 ド~ン!と増量版
Tags:Taiko no Tatsujin ポップ asapbakery laplus mirawi みらゐ Gin ginn Sato satou 在藤 銀 Yasunori Matsuya video rhythm game japanese pop arcade jpop female djulus hinamommy -mikanmymommy
BeatmapID:3968695
BeatmapSetID:1922564

[Difficulty]
HPDrainRate:6
CircleSize:4
OverallDifficulty:8.5
ApproachRate:9
SliderMultiplier:1.7
SliderTickRate:1

[Events]
//Background and Video events
0,0,"pop.png",0,0
//Break Periods
//Storyboard Layer 0 (Background)
//Storyboard Layer 1 (Fail)
//Storyboard Layer 2 (Pass)
//Storyboard Layer 3 (Foreground)
//Storyboard Layer 4 (Overlay)
//Storyboard Sound Samples

[TimingPoints]
474,344.827586206897,4,2,1,75,1,0
991,-100,4,2,1,75,0,0
1508,-100,4,2,2,75,0,0
1853,-66.6666666666667,4,2,1,75,0,1
2198,-66.6666666666667,4,2,2,75,0,1
2542,-80,4,2,1,75,0,1
2887,-80,4,2,2,75,0,1
3060,-100,4,2,2,75,0,1
3232,-100,4,2,1,75,0,1
3577,-100,4,2,2,75,0,1
3922,-100,4,2,1,75,0,1
4267,-100,4,2,2,75,0,1
4611,-100,4,2,1,75,0,1
4956,-100,4,2,2,75,0,1
5300,-100,4,2,1,75,0,1
5645,-100,4,2,2,75,0,1
5990,-100,4,2,1,75,0,1
6336,-100,4,2,2,75,0,1
6680,-100,4,2,1,75,0,1
7025,-100,4,2,2,75,0,1
7370,-66.6666666666667,4,2,1,75,0,1
7715,-66.6666666666667,4,2,2,75,0,1
8060,-80,4,2,1,75,0,1
8404,-80,4,2,2,75,0,1
8577,-100,4,2,2,75,0,1
8749,-100,4,2,1,75,0,1
9094,-100,4,2,2,75,0,1
9439,-100,4,2,1,75,0,1
9784,-100,4,2,2,75,0,1
10129,-100,4,2,1,75,0,1
10474,-100,4,2,2,75,0,1
10818,-100,4,2,1,75,0,1
11163,-100,4,2,2,75,0,1
11336,-66.6666666666667,4,2,3,75,0,1
11508,-66.6666666666667,4,2,1,75,0,1
11853,-80,4,2,3,75,0,1
12198,-80,4,2,1,75,0,1
12542,-80,4,2,2,75,0,1
12887,-66.6666666666667,4,2,1,75,0,1
13232,-66.6666666666667,4,2,2,75,0,1
13577,-80,4,2,1,75,0,1
13921,-80,4,2,2,75,0,1
14094,-100,4,2,2,75,0,1
14266,-100,4,2,1,75,0,1
14611,-100,4,2,2,75,0,1
14956,-100,4,2,1,75,0,1
15301,-100,4,2,2,75,0,1
15646,-100,4,2,1,75,0,1
15991,-100,4,2,2,75,0,1
16335,-100,4,2,1,75,0,1
16680,-100,4,2,2,75,0,1
17025,-100,4,2,1,75,0,1
17370,-100,4,2,2,75,0,1
17887,-100,4,2,1,75,0,1
18060,-100,4,2,2,75,0,1
18577,-100,4,2,1,75,0,1
18922,-100,4,2,2,75,0,1
19094,-100,4,2,1,75,0,1
19440,-100,4,2,2,75,0,1
19611,-100,4,2,1,75,0,1
19957,-100,4,2,2,75,0,1
20129,-100,4,2,1,75,0,1
20474,-100,4,2,2,75,0,1
20646,-100,4,2,1,75,0,1
20818,-100,4,2,2,75,0,1
21163,-100,4,2,1,75,0,1
21508,-100,4,2,2,75,0,1
21853,-100,4,2,1,75,0,1
22198,-100,4,2,2,75,0,1
22542,-100,4,2,1,75,0,1
22887,-100,4,2,2,75,0,1
23232,-100,4,2,1,75,0,1
23577,-100,4,2,2,75,0,1
24094,-100,4,2,1,75,0,1
24267,-100,4,2,2,75,0,1
24439,-100,4,2,1,75,0,1
24611,-100,4,2,2,75,0,1
24784,-100,4,2,1,75,0,1
24870,-58.8235294117647,4,2,2,75,0,0
25129,-58.8235294117647,4,2,1,75,0,0
25818,-133.333333333333,4,2,1,75,0,0
25991,-133.333333333333,4,2,1,35,0,0
26336,-80,4,2,1,35,0,0
26680,-80,4,2,1,50,0,0
27025,-80,4,2,2,50,0,0
27370,-80,4,2,1,50,0,0
27715,-80,4,2,2,50,0,0
28060,-80,4,2,1,50,0,0
28405,-80,4,2,2,50,0,0
28749,-80,4,2,1,50,0,0
29094,-80,4,2,2,50,0,0
29439,-80,4,2,1,50,0,0
29784,-80,4,2,2,50,0,0
30129,-80,4,2,1,50,0,0
30474,-80,4,2,2,50,0,0
30646,-71.4285714285714,4,2,2,50,0,0
30818,-71.4285714285714,4,2,1,50,0,0
31164,-71.4285714285714,4,2,2,50,0,0
31508,-71.4285714285714,4,2,1,50,0,0
31853,-71.4285714285714,4,2,2,50,0,0
32198,-80,4,2,1,50,0,0
32543,-80,4,2,2,50,0,0
32887,-80,4,2,1,50,0,0
33232,-80,4,2,2,50,0,0
33577,-80,4,2,1,50,0,0
33922,-80,4,2,2,50,0,0
34267,-80,4,2,1,50,0,0
34612,-80,4,2,2,50,0,0
34956,-80,4,2,1,50,0,0
35301,-80,4,2,2,50,0,0
35646,-80,4,2,1,50,0,0
35991,-80,4,2,2,50,0,0
36336,-80,4,2,1,50,0,0
36680,-80,4,2,2,50,0,0
37715,-80,4,2,1,50,0,0
38060,-80,4,2,2,50,0,0
38405,-80,4,2,1,50,0,0
38750,-80,4,2,2,50,0,0
39094,-80,4,2,1,50,0,0
39439,-80,4,2,2,50,0,0
39784,-80,4,2,1,50,0,0
40129,-80,4,2,2,50,0,0
40474,-80,4,2,1,50,0,0
40818,-80,4,2,2,50,0,0
41163,-80,4,2,1,50,0,0
41508,-80,4,2,2,50,0,0
41680,-66.6666666666667,4,2,2,50,0,0
41852,-66.6666666666667,4,2,1,50,0,0
42197,-66.6666666666667,4,2,2,50,0,0
42542,-66.6666666666667,4,2,1,50,0,0
42887,-66.6666666666667,4,2,2,50,0,0
43232,-80,4,2,1,50,0,0
43577,-80,4,2,2,50,0,0
43922,-80,4,2,1,50,0,0
44267,-80,4,2,2,50,0,0
44611,-80,4,2,1,50,0,0
44956,-80,4,2,2,50,0,0
45301,-80,4,2,1,50,0,0
45646,-80,4,2,2,50,0,0
46163,-80,4,2,1,50,0,0
46508,-80,4,2,2,50,0,0
46680,-80,4,2,1,50,0,0
47025,-80,4,2,2,50,0,0
47198,-80,4,2,1,50,0,0
47284,-100,4,2,1,50,0,0
47542,-100,4,2,2,50,0,0
47715,-100,4,2,1,50,0,0
48060,-100,4,2,2,50,0,0
48146,-100,4,2,1,50,0,0
48318,-100,4,2,2,50,0,0
48663,-100,4,2,2,50,0,0
48749,-100,4,2,4,60,0,0
52542,-50,4,2,4,60,0,0
54698,-100,4,2,4,60,0,0
54870,-100,4,2,4,60,0,0
55129,-50,4,2,4,60,0,0
57025,-66.6666666666667,4,2,1,60,0,0
57370,-66.6666666666667,4,2,2,60,0,0
57542,-66.6666666666667,4,2,1,60,0,0
57715,-66.6666666666667,4,2,2,60,0,0
58232,-66.6666666666667,4,2,1,60,0,0
58405,-66.6666666666667,4,2,1,70,0,0
58922,-200,4,2,1,70,0,0
59042,370.37037037037,4,2,1,70,1,0
59042,-200,4,2,1,40,0,0
59784,344.827586206897,4,2,1,75,1,1
59784,-66.6666666666667,4,2,1,75,0,1
60129,-66.6666666666667,4,2,2,75,0,1
60474,-80,4,2,1,75,0,1
60818,-80,4,2,2,75,0,1
60991,-111.111111111111,4,2,2,75,0,1
61163,-111.111111111111,4,2,1,75,0,1
61508,-100,4,2,2,75,0,1
61853,-100,4,2,1,75,0,1
62198,-100,4,2,2,75,0,1
62542,-83.3333333333333,4,2,1,75,0,1
62887,-83.3333333333333,4,2,2,75,0,1
63231,-83.3333333333333,4,2,1,75,0,1
63576,-83.3333333333333,4,2,2,75,0,1
63921,-83.3333333333333,4,2,1,75,0,1
64267,-83.3333333333333,4,2,2,75,0,1
64611,-83.3333333333333,4,2,1,75,0,1
64956,-83.3333333333333,4,2,2,75,0,1
65301,-66.6666666666667,4,2,1,75,0,1
65646,-66.6666666666667,4,2,2,75,0,1
65991,-80,4,2,1,75,0,1
66335,-80,4,2,2,75,0,1
66508,-100,4,2,2,75,0,1
66680,-100,4,2,1,75,0,1
67025,-100,4,2,2,75,0,1
67370,-100,4,2,1,75,0,1
67715,-100,4,2,2,75,0,1
68060,-83.3333333333333,4,2,1,75,0,1
68405,-83.3333333333333,4,2,2,75,0,1
68749,-83.3333333333333,4,2,1,75,0,1
69094,-83.3333333333333,4,2,2,75,0,1
69267,-66.6666666666667,4,2,3,75,0,1
69439,-66.6666666666667,4,2,1,75,0,1
69784,-66.6666666666667,4,2,3,75,0,1
70129,-66.6666666666667,4,2,1,75,0,1
70473,-66.6666666666667,4,2,2,75,0,1
70818,-66.6666666666667,4,2,1,75,0,1
71163,-66.6666666666667,4,2,2,75,0,1
71508,-80,4,2,1,75,0,1
71852,-80,4,2,2,75,0,1
72025,-100,4,2,2,75,0,1
72197,-100,4,2,1,75,0,1
72542,-100,4,2,2,75,0,1
72887,-100,4,2,1,75,0,1
73232,-100,4,2,2,75,0,1
73577,-83.3333333333333,4,2,1,75,0,1
73922,-83.3333333333333,4,2,2,75,0,1
74266,-83.3333333333333,4,2,1,75,0,1
74611,-83.3333333333333,4,2,2,75,0,1
74956,-83.3333333333333,4,2,1,75,0,1
75301,-83.3333333333333,4,2,2,75,0,1
75473,-83.3333333333333,4,2,1,75,0,1
75646,-83.3333333333333,4,2,2,75,0,1
75818,-83.3333333333333,4,2,1,75,0,1
75991,-83.3333333333333,4,2,2,75,0,1
76508,-83.3333333333333,4,2,1,75,0,1
76853,-83.3333333333333,4,2,2,75,0,1
77025,-83.3333333333333,4,2,1,75,0,1
77371,-83.3333333333333,4,2,2,75,0,1
77542,-83.3333333333333,4,2,1,75,0,1
77888,-83.3333333333333,4,2,2,75,0,1
78060,-83.3333333333333,4,2,1,75,0,1
78405,-83.3333333333333,4,2,2,75,0,1
78577,-83.3333333333333,4,2,1,75,0,1
78749,-83.3333333333333,4,2,2,75,0,1
79094,-83.3333333333333,4,2,1,75,0,1
79439,-83.3333333333333,4,2,2,75,0,1
79784,-83.3333333333333,4,2,1,75,0,1
80129,-83.3333333333333,4,2,2,75,0,1
80473,-83.3333333333333,4,2,1,75,0,1
80818,-83.3333333333333,4,2,2,75,0,1
81163,-83.3333333333333,4,2,1,75,0,1
81508,-83.3333333333333,4,2,2,75,0,1
82025,-83.3333333333333,4,2,1,75,0,1
82198,-83.3333333333333,4,2,2,75,0,1
82370,-83.3333333333333,4,2,1,75,0,1
82542,-83.3333333333333,4,2,2,75,0,1
82715,-83.3333333333333,4,2,1,75,0,1
82801,-83.3333333333333,4,2,2,75,0,1
83060,-83.3333333333333,4,2,1,75,0,1
83577,-83.3333333333333,4,2,1,75,0,0
84611,-80,4,2,1,55,0,0
84956,-80,4,2,2,55,0,0
85300,-80,4,2,1,55,0,0
85645,-80,4,2,2,55,0,0
85990,-80,4,2,1,55,0,0
86335,-80,4,2,2,55,0,0
86680,-80,4,2,1,55,0,0
87025,-80,4,2,2,55,0,0
87370,-80,4,2,1,55,0,0
87715,-80,4,2,2,55,0,0
88059,-80,4,2,1,55,0,0
88404,-80,4,2,2,55,0,0
88749,-80,4,2,1,55,0,0
89094,-80,4,2,2,55,0,0
89439,-80,4,2,1,55,0,0
89784,-80,4,2,2,55,0,0
90129,-80,4,2,1,55,0,0
90474,-80,4,2,2,55,0,0
90818,-80,4,2,1,55,0,0
91163,-80,4,2,2,55,0,0
91508,-80,4,2,1,55,0,0
91853,-80,4,2,2,55,0,0
92198,-80,4,2,1,55,0,0
92543,-80,4,2,2,55,0,0
92887,-80,4,2,1,55,0,0
93232,-80,4,2,2,55,0,0
93576,-80,4,2,1,55,0,0
93921,-80,4,2,2,55,0,0
94266,-80,4,2,1,55,0,0
94611,-80,4,2,2,55,0,0
94784,-80,4,2,1,55,0,0
94956,-80,4,2,2,55,0,0
95646,-80,4,2,1,55,0,0
95991,-80,4,2,2,55,0,0
96335,-80,4,2,1,55,0,0
96680,-80,4,2,2,55,0,0
97025,-80,4,2,1,55,0,0
97370,-80,4,2,2,55,0,0
97715,-80,4,2,1,55,0,0
98060,-80,4,2,2,55,0,0
98405,-80,4,2,1,55,0,0
98750,-80,4,2,2,55,0,0
99094,-80,4,2,1,55,0,0
99439,-80,4,2,2,55,0,0
99784,-80,4,2,1,55,0,0
100129,-80,4,2,2,55,0,0
100474,-80,4,2,1,55,0,0
100819,-80,4,2,2,55,0,0
101164,-80,4,2,1,55,0,0
101509,-80,4,2,2,55,0,0
101853,-80,4,2,1,55,0,0
102198,-80,4,2,2,55,0,0
102543,-80,4,2,1,55,0,0
102888,-80,4,2,2,55,0,0
103233,-80,4,2,1,55,0,0
103577,-50,4,2,2,55,0,0
103922,-66.6666666666667,4,2,1,55,0,0
104439,-66.6666666666667,4,2,2,55,0,0
104611,-66.6666666666667,4,2,1,55,0,0
104956,-66.6666666666667,4,2,2,55,0,0
105129,-66.6666666666667,4,2,1,55,0,0
105474,-66.6666666666667,4,2,2,55,0,0
105646,-66.6666666666667,4,2,1,55,0,0
105991,-66.6666666666667,4,2,2,55,0,0
106077,-66.6666666666667,4,2,1,55,0,0
106249,-66.6666666666667,4,2,2,55,0,0
106680,-66.6666666666667,4,2,4,60,0,0
110301,-50,4,2,4,60,0,0
112715,-100,4,2,4,60,0,0
113060,-50,4,2,4,60,0,0
114784,-66.6666666666667,4,2,4,60,0,0
114956,-66.6666666666667,4,2,1,50,0,0
115301,-66.6666666666667,4,2,2,50,0,0
115473,-66.6666666666667,4,2,1,50,0,0
115646,-66.6666666666667,4,2,2,50,0,0
116163,-66.6666666666667,4,2,1,50,0,0
116336,-66.6666666666667,4,2,1,60,0,0
118749,-100,4,2,2,50,0,0
119094,-66.6666666666667,4,2,1,75,0,1
119439,-66.6666666666667,4,2,2,75,0,1
119784,-80,4,2,1,75,0,1
120128,-80,4,2,2,75,0,1
120301,-100,4,2,2,75,0,1
120473,-100,4,2,1,75,0,1
120818,-83.3333333333333,4,2,2,75,0,1
121163,-83.3333333333333,4,2,1,75,0,1
121508,-83.3333333333333,4,2,2,75,0,1
121852,-83.3333333333333,4,2,1,75,0,1
122197,-83.3333333333333,4,2,2,75,0,1
122541,-83.3333333333333,4,2,1,75,0,1
122886,-83.3333333333333,4,2,2,75,0,1
123231,-83.3333333333333,4,2,1,75,0,1
123577,-83.3333333333333,4,2,2,75,0,1
123921,-83.3333333333333,4,2,1,75,0,1
124266,-83.3333333333333,4,2,2,75,0,1
124611,-66.6666666666667,4,2,1,75,0,1
124956,-66.6666666666667,4,2,2,75,0,1
125301,-80,4,2,1,75,0,1
125645,-80,4,2,2,75,0,1
125818,-100,4,2,2,75,0,1
125990,-100,4,2,1,75,0,1
126335,-100,4,2,2,75,0,1
126680,-100,4,2,1,75,0,1
127025,-100,4,2,2,75,0,1
127370,-83.3333333333333,4,2,1,75,0,1
127715,-83.3333333333333,4,2,2,75,0,1
128059,-83.3333333333333,4,2,1,75,0,1
128404,-83.3333333333333,4,2,2,75,0,1
128577,-66.6666666666667,4,2,3,75,0,1
128749,-66.6666666666667,4,2,1,75,0,1
129094,-66.6666666666667,4,2,3,75,0,1
129353,-100,4,2,3,75,0,1
129439,-100,4,2,1,75,0,1
129783,-100,4,2,2,75,0,1
130129,-66.6666666666667,4,2,1,75,0,1
130473,-66.6666666666667,4,2,2,75,0,1
130818,-80,4,2,1,75,0,1
131162,-80,4,2,2,75,0,1
131336,-100,4,2,2,75,0,1
131507,-100,4,2,1,75,0,1
131852,-100,4,2,2,75,0,1
132197,-100,4,2,1,75,0,1
132542,-100,4,2,2,75,0,1
132887,-83.3333333333333,4,2,1,75,0,1
133232,-83.3333333333333,4,2,2,75,0,1
133576,-83.3333333333333,4,2,1,75,0,1
133921,-83.3333333333333,4,2,2,75,0,1
134266,-83.3333333333333,4,2,1,75,0,1
134611,-83.3333333333333,4,2,2,75,0,1
135128,-83.3333333333333,4,2,1,75,0,1
135301,-83.3333333333333,4,2,2,75,0,1
135818,-83.3333333333333,4,2,1,75,0,1
136163,-83.3333333333333,4,2,2,75,0,1
136335,-83.3333333333333,4,2,1,75,0,1
136681,-83.3333333333333,4,2,2,75,0,1
136852,-83.3333333333333,4,2,1,75,0,1
137198,-83.3333333333333,4,2,2,75,0,1
137370,-83.3333333333333,4,2,1,75,0,1
137715,-66.6666666666667,4,2,2,75,0,1
137887,-66.6666666666667,4,2,1,75,0,1
138059,-66.6666666666667,4,2,2,75,0,1
138404,-66.6666666666667,4,2,1,75,0,1
138749,-66.6666666666667,4,2,2,75,0,1
139094,-66.6666666666667,4,2,1,75,0,1
139439,-66.6666666666667,4,2,2,75,0,1
139783,-66.6666666666667,4,2,1,75,0,1
140128,-66.6666666666667,4,2,2,75,0,1
140473,-66.6666666666667,4,2,1,75,0,1
140818,-66.6666666666667,4,2,2,75,0,1
141335,-66.6666666666667,4,2,1,75,0,1
141508,-66.6666666666667,4,2,2,75,0,1
141680,-66.6666666666667,4,2,1,75,0,1
141852,-66.6666666666667,4,2,2,75,0,1
142025,-66.6666666666667,4,2,1,75,0,1
142111,-100,4,2,2,75,0,1
142456,-100,4,2,2,75,0,1
142542,-100,4,2,1,75,0,1
143749,-196.078431372549,4,2,2,75,0,0
149266,-100,4,2,2,5,0,0
149509,-100,4,2,2,75,0,0

[Colours]
Combo1 : 219,155,247
Combo2 : 185,248,255
Combo3 : 150,253,138
Combo4 : 176,184,253

[HitObjects]
257,134,474,5,2,2:3:0:0:
256,128,818,1,2,2:3:0:0:
149,5,1163,6,0,L|144:112,1,85,2|8,2:3|2:2,0:0:0:0:
368,4,1508,2,0,L|373:111,1,85,8|0,2:2|0:0,0:0:0:0:
252,373,1853,6,0,B|193:228|300:283|252:116,1,255.000009727478,14|8,2:2|2:2,0:0:0:0:
90,214,2370,5,0,0:0:0:0:
16,148,2542,2,0,P|112:118|179:196,1,212.5,10|8,2:2|2:2,0:0:0:0:
322,310,3060,2,0,P|372:310|438:220,1,170,2|8,2:2|2:2,0:0:0:0:
290,59,3577,5,8,2:2:0:0:
351,221,3749,1,0,0:0:0:0:
447,18,3922,1,8,2:2:0:0:
501,178,4094,1,8,2:2:0:0:
403,115,4267,1,8,2:2:0:0:
403,115,4439,5,2,2:2:0:0:
506,271,4611,2,0,P|506:313|512:356,1,85,14|0,2:2|0:0,0:0:0:0:
437,220,4956,5,10,2:2:0:0:
322,310,5129,2,0,P|291:339|265:373,1,85,2|8,2:2|2:2,0:0:0:0:
102,259,5474,2,0,P|60:257|18:263,1,85,10|8,2:2|2:2,0:0:0:0:
0,52,5818,6,0,P|11:132|89:156,1,170,2|10,2:2|2:2,0:0:0:0:
158,72,6336,2,0,P|119:58|80:73,1,85,10|0,2:2|0:0,0:0:0:0:
8,268,6680,5,10,2:2:0:0:
89,367,6853,1,10,2:2:0:0:
195,323,7025,5,10,2:2:0:0:
80,72,7198,1,10,2:2:0:0:
80,72,7284,1,8,2:2:0:0:
80,72,7370,6,0,P|211:64|353:49,1,255.000009727478,14|8,2:2|2:2,0:0:0:0:
182,213,7887,1,0,0:0:0:0:
270,141,8060,2,0,P|331:148|383:283,1,212.5,10|8,2:2|2:2,0:0:0:0:
493,5,8577,2,0,P|481:83|403:94,1,170,2|8,2:2|2:2,0:0:0:0:
466,188,9094,5,8,2:2:0:0:
475,361,9267,1,0,0:0:0:0:
307,273,9439,1,8,2:2:0:0:
466,188,9612,1,8,2:2:0:0:
468,283,9784,1,8,2:2:0:0:
468,283,9957,5,2,2:2:0:0:
222,269,10129,2,0,P|182:284|122:294,1,85,14|0,2:2|0:0,0:0:0:0:
215,128,10474,5,10,2:2:0:0:
316,348,10646,2,0,P|356:363|416:373,1,85,2|8,2:2|2:2,0:0:0:0:
80,232,10991,2,0,P|35:220|-8:203,1,85,10|8,2:2|2:2,0:0:0:0:
313,88,11336,6,0,B|320:153|320:153|259:209,1,127.500004863739,2|8,2:2|2:2,0:0:0:0:
54,309,11680,1,10,2:2:0:0:
215,128,11853,6,0,B|209:76|209:76|257:33,1,106.25,10|0,2:2|0:0,0:0:0:0:
395,69,12198,5,10,2:2:0:0:
208,126,12370,1,10,2:2:0:0:
0,195,12542,1,10,2:2:0:0:
395,69,12715,1,10,2:2:0:0:
395,69,12801,1,8,2:2:0:0:
395,69,12887,6,0,B|449:44|449:44|510:62|533:167|480:222,1,255.000009727478,14|8,2:2|2:2,0:0:0:0:
204,364,13405,5,0,0:0:0:0:
191,222,13577,6,0,B|148:202|148:202|99:216|80:300|121:342,1,212.5,10|8,2:2|2:2,0:0:0:0:
316,348,14094,2,0,P|291:268|271:174,1,170,2|8,2:2|2:2,0:0:0:0:
402,188,14611,5,8,2:2:0:0:
512,291,14784,1,0,0:0:0:0:
402,384,14956,1,8,2:2:0:0:
491,374,15129,1,8,2:2:0:0:
424,295,15301,1,8,2:2:0:0:
424,295,15474,5,2,2:2:0:0:
114,342,15646,2,0,P|77:355|20:370,1,85,14|0,2:2|0:0,0:0:0:0:
217,292,15991,5,10,2:2:0:0:
75,163,16163,2,0,P|39:146|-11:116,1,85,2|8,2:2|2:2,0:0:0:0:
230,0,16508,2,0,P|241:41|258:112,1,85,10|8,2:2|2:2,0:0:0:0:
41,31,16853,2,0,P|106:37|170:136,1,170,2|10,2:2|2:2,0:0:0:0:
414,78,17370,2,0,P|385:108|344:114,1,85,10|0,2:2|0:0,0:0:0:0:
242,0,17715,5,10,2:2:0:0:
281,172,17887,1,10,2:2:0:0:
281,172,17974,1,8,2:2:0:0:
281,172,18060,1,10,2:2:0:0:
242,0,18232,1,10,2:2:0:0:
307,284,18405,5,10,2:2:0:0:
307,284,18577,2,0,L|405:267,1,85,8|10,2:2|2:2,0:0:0:0:
84,260,18922,5,10,2:2:0:0:
84,260,19094,2,0,L|-14:243,1,85,8|10,2:2|2:2,0:0:0:0:
429,343,19439,5,10,2:2:0:0:
429,343,19611,2,0,L|527:360,1,85,8|10,2:2|2:2,0:0:0:0:
213,314,19956,5,10,2:2:0:0:
213,314,20128,2,0,L|115:331,1,85,8|10,2:2|2:2,0:0:0:0:
471,261,20474,2,0,P|497:223|472:168,1,85,10|8,2:2|2:2,0:0:0:0:
481,179,20732,1,8,2:2:0:0:
472,174,20818,1,10,2:2:0:0:
343,113,20991,1,8,2:2:0:0:
98,0,21163,5,14,2:2:0:0:
81,0,21249,1,0,0:0:0:0:
65,7,21336,1,0,0:0:0:0:
51,17,21422,1,0,0:0:0:0:
46,33,21508,1,8,2:2:0:0:
48,49,21594,1,0,0:0:0:0:
56,63,21680,1,0,0:0:0:0:
71,69,21767,1,0,0:0:0:0:
96,72,21853,5,8,2:2:0:0:
118,83,21939,1,0,0:0:0:0:
130,104,22025,1,8,2:2:0:0:
130,133,22111,1,0,0:0:0:0:
111,156,22198,1,8,2:2:0:0:
74,165,22284,1,0,0:0:0:0:
40,146,22370,1,0,0:0:0:0:
31,108,22456,1,0,0:0:0:0:
59,71,22542,5,8,2:2:0:0:
103,86,22629,1,0,0:0:0:0:
146,103,22715,1,0,0:0:0:0:
189,120,22801,1,0,0:0:0:0:
232,136,22887,5,8,2:2:0:0:
286,122,22974,1,0,0:0:0:0:
295,67,23060,1,0,0:0:0:0:
263,25,23146,1,0,0:0:0:0:
207,28,23232,5,8,2:2:0:0:
189,88,23318,1,0,0:0:0:0:
232,136,23405,1,8,2:2:0:0:
294,125,23491,1,0,0:0:0:0:
339,136,23577,5,8,2:2:0:0:
364,163,23663,1,0,0:0:0:0:
363,201,23749,1,0,0:0:0:0:
336,222,23836,1,0,0:0:0:0:
302,214,23922,5,12,2:2:0:0:
283,223,24008,1,0,0:0:0:0:
263,230,24094,1,8,2:2:0:0:
242,236,24180,1,0,0:0:0:0:
222,244,24267,5,8,2:2:0:0:
222,282,24353,1,0,0:0:0:0:
241,314,24439,1,8,2:2:0:0:
276,328,24525,1,0,0:0:0:0:
313,332,24611,5,8,2:2:0:0:
349,313,24698,1,0,0:0:0:0:
382,293,24784,1,8,2:2:0:0:
420,272,24870,1,8,2:2:0:0:
459,253,24956,1,8,2:2:0:0:
499,182,25129,6,0,P|421:164|340:132,1,144.500002756119,4|0,2:1|0:0,0:0:0:0:
226,59,25474,1,0,0:0:0:0:
451,0,25646,2,0,P|383:24|312:41,1,144.500002756119,4|0,2:1|0:0,0:0:0:0:
449,90,25991,6,0,P|479:82|509:70,1,63.7500024318696,2|2,2:3|2:3,0:0:0:0:
448,89,26680,5,8,2:2:0:0:
233,139,26853,1,0,0:0:0:0:
233,139,27025,2,0,P|182:131|150:91,1,106.25,8|0,2:2|0:0,0:0:0:0:
171,3,27370,5,8,2:2:0:0:
64,47,27542,2,0,P|68:104|67:160,1,106.25,8|8,2:2|2:2,0:0:0:0:
83,270,27887,2,0,P|51:230|0:222,1,106.25,2|8,2:2|2:2,0:0:0:0:
171,325,28232,2,0,P|170:272|168:219,1,106.25,10|8,2:2|2:2,0:0:0:0:
86,157,28577,5,2,2:2:0:0:
30,351,28749,2,0,P|73:320|82:264,1,106.25,10|8,2:2|2:2,0:0:0:0:
252,216,29094,2,0,P|302:227|333:270,1,106.25,10|0,2:2|0:0,0:0:0:0:
171,325,29439,5,8,2:2:0:0:
258,301,29611,1,0,0:0:0:0:
321,354,29784,2,0,P|375:353|449:341,1,106.25,8|0,2:2|0:0,0:0:0:0:
491,202,30129,5,8,2:2:0:0:
399,220,30301,2,0,P|437:257|498:301,1,106.25,8|8,2:2|2:2,0:0:0:0:
489,90,30646,2,0,P|472:145|507:219,1,118.999996368408,2|8,2:2|2:2,0:0:0:0:
452,16,30991,1,10,2:2:0:0:
368,47,31163,1,10,2:2:0:0:
397,128,31336,1,0,0:0:0:0:
326,168,31508,5,10,2:2:0:0:
207,130,31680,1,10,2:2:0:0:
238,16,31853,1,10,2:2:0:0:
368,47,32025,1,2,2:2:0:0:
207,130,32370,5,0,0:0:0:0:
120,99,32542,2,0,P|73:87|10:66,1,106.25,8|0,2:2|0:0,0:0:0:0:
151,29,32887,5,8,2:2:0:0:
94,172,33060,2,0,P|52:196|-7:226,1,106.25,8|8,2:2|2:2,0:0:0:0:
135,299,33405,6,0,B|146:233|165:258|170:196,1,106.25,0|8,0:0|2:2,0:0:0:0:
48,286,33749,2,0,B|52:344|71:319|82:385,1,106.25,8|8,2:2|2:2,0:0:0:0:
94,172,34094,5,0,0:0:0:0:
217,299,34267,2,0,P|267:315|318:328,1,106.25,8|8,2:2|2:2,0:0:0:0:
318,339,34611,2,0,P|267:326|217:310,1,106.25,8|0,2:2|0:0,0:0:0:0:
411,357,34956,5,10,2:2:0:0:
253,219,35129,1,2,2:2:0:0:
368,99,35301,1,10,2:2:0:0:
456,297,35474,6,0,B|514:196|514:196|501:101,1,212.5,2|10,2:2|2:2,0:0:0:0:
395,250,35991,2,0,P|413:194|428:139,1,106.25,10|0,2:2|0:0,0:0:0:0:
370,8,36336,5,10,2:2:0:0:
436,61,36508,1,10,2:2:0:0:
368,99,36680,1,10,2:2:0:0:
295,49,36853,1,2,2:2:0:0:
436,61,37025,5,8,2:2:0:0:
227,90,37284,1,8,2:2:0:0:
227,90,37370,1,8,2:2:0:0:
116,99,37542,1,8,2:2:0:0:
0,9,37715,5,12,2:2:0:0:
22,113,37887,2,0,P|13:57|-7:-15,2,106.25,0|8|0,0:0|2:2|0:0,0:0:0:0:
137,202,38405,5,8,2:2:0:0:
137,202,38577,2,0,P|128:149|115:98,1,106.25,8|8,2:2|2:2,0:0:0:0:
53,195,38922,6,0,P|29:236|57:307,1,106.25,2|8,0:0|2:2,0:0:0:0:
207,316,39267,2,0,P|231:275|203:204,1,106.25,10|8,2:2|2:2,0:0:0:0:
127,310,39611,5,2,0:0:0:0:
316,238,39784,2,0,P|355:251|420:264,1,106.25,8|8,2:2|2:2,0:0:0:0:
418,263,40129,2,0,P|379:250|314:237,1,106.25,8|0,2:2|0:0,0:0:0:0:
264,27,40474,5,8,2:2:0:0:
232,99,40646,1,0,0:0:0:0:
282,163,40818,1,8,2:2:0:0:
362,158,40991,1,0,0:0:0:0:
399,87,41163,1,8,2:2:0:0:
484,206,41336,1,8,2:2:0:0:
484,206,41680,6,0,P|428:273|454:373,1,191.250007295609,2|0,2:2|0:0,0:0:0:0:
454,372,42025,2,0,P|516:311|499:253,1,127.500004863739,10|8,2:2|2:2,0:0:0:0:
483,125,42370,5,2,2:2:0:0:
345,26,42542,1,10,2:2:0:0:
467,4,42715,1,8,2:2:0:0:
362,160,42887,5,10,2:2:0:0:
243,189,43060,1,0,0:0:0:0:
121,210,43232,6,0,L|8:234,2,106.25,8|0|8,2:2|0:0|2:2,0:0:0:0:
114,31,43749,2,0,B|136:68|136:68|195:67|248:138|229:214,1,212.5,0|8,0:0|2:2,0:0:0:0:
86,361,44267,5,8,2:2:0:0:
2,365,44439,2,0,B|-13:317|40:246|99:247|99:247|121:210,1,212.5,0|8,0:0|2:2,0:0:0:0:
26,39,44956,2,0,P|44:84|74:144,1,106.25,8|0,2:2|0:0,0:0:0:0:
166,358,45301,2,0,P|190:311|210:262,1,106.25,8|8,2:2|2:2,0:0:0:0:
209,4,45646,1,8,2:2:0:0:
209,4,45818,1,0,0:0:0:0:
308,66,45991,5,10,2:2:0:0:
441,27,46163,1,8,2:2:0:0:
441,27,46336,1,8,2:2:0:0:
386,144,46508,5,8,2:2:0:0:
452,253,46680,1,10,2:2:0:0:
452,253,46853,1,8,2:2:0:0:
346,238,47025,5,8,2:2:0:0:
273,340,47198,1,8,2:2:0:0:
247,225,47370,1,10,2:2:0:0:
124,195,47542,5,8,2:2:0:0:
216,120,47715,1,8,2:2:0:0:
346,238,47887,1,8,2:2:0:0:
306,152,48060,5,10,2:2:0:0:
306,152,48146,1,8,2:2:0:0:
306,152,48232,1,8,2:2:0:0:
196,295,48405,1,8,2:2:0:0:
352,384,48577,1,8,2:2:0:0:
391,307,48749,5,4,2:3:0:0:
310,69,48922,1,4,2:3:0:0:
391,307,49094,1,4,2:3:0:0:
391,307,49784,5,4,2:3:0:0:
119,384,49957,1,4,2:3:0:0:
119,384,50301,5,4,2:3:0:0:
50,152,50474,1,4,2:3:0:0:
50,152,50818,5,4,2:3:0:0:
310,69,50991,1,4,2:3:0:0:
50,152,51163,1,4,2:3:0:0:
475,339,51508,5,4,2:3:0:0:
503,265,51680,1,4,2:3:0:0:
475,339,51853,1,4,2:3:0:0:
475,339,52370,5,4,2:3:0:0:
60,23,52715,6,0,B|72:70|72:70|144:97|139:183,1,170,4|0,2:3|0:0,0:0:0:0:
92,315,53060,1,4,2:3:0:0:
51,154,53232,6,0,P|6:224|14:308,1,170,4|0,2:3|0:0,0:0:0:0:
196,8,53577,5,4,2:3:0:0:
139,162,53749,1,4,2:3:0:0:
92,315,53922,1,4,2:3:0:0:
316,8,54267,5,4,2:3:0:0:
373,162,54439,1,4,2:3:0:0:
490,40,54612,1,4,2:3:0:0:
390,78,54784,2,0,P|382:119|372:161,1,85
495,318,55129,6,0,P|489:205|391:165,1,170,4|0,2:3|0:0,0:0:0:0:
106,315,55474,2,0,P|98:148|190:8,1,340,4|4,2:3|2:3,0:0:0:0:
217,111,55991,2,0,P|208:169|180:284,1,170,4|0,2:3|0:0,0:0:0:0:
34,355,56336,5,4,2:3:0:0:
34,355,56509,1,4,2:3:0:0:
274,251,56681,1,4,2:3:0:0:
274,251,57025,5,10,2:2:0:0:
217,111,57198,1,10,2:2:0:0:
342,21,57370,1,10,2:2:0:0:
466,95,57543,1,10,2:2:0:0:
423,258,57715,1,8,2:2:0:0:
351,144,57887,5,10,2:2:0:0:
342,152,57974,1,8,2:2:0:0:
358,155,58060,1,10,2:2:0:0:
343,137,58146,1,8,2:2:0:0:
362,140,58232,1,10,2:2:0:0:
346,307,58405,5,8,2:2:0:0:
346,307,58577,5,8,2:2:0:0:
346,307,58749,5,8,2:2:0:0:
346,307,59042,2,0,L|353:366,3,42.5,2|2|2|2,2:2|2:2|2:2|2:2,0:0:0:0:
194,286,59784,6,0,B|41:281|-7:127|-7:127,1,255.000009727478,14|8,2:2|2:2,0:0:0:0:
233,153,60301,1,0,0:0:0:0:
164,201,60474,2,0,P|123:117|127:-21,1,212.5,10|8,2:2|2:2,0:0:0:0:
272,222,60991,2,0,P|267:282|269:393,1,152.999995330811,2|8,2:2|2:2,0:0:0:0:
127,356,61508,5,8,2:2:0:0:
233,153,61680,1,0,0:0:0:0:
235,131,61767,1,0,0:0:0:0:
239,109,61853,1,8,2:2:0:0:
242,89,61939,1,0,0:0:0:0:
247,68,62025,1,8,2:2:0:0:
253,50,62111,1,0,0:0:0:0:
260,33,62198,1,8,2:2:0:0:
338,179,62370,5,2,2:2:0:0:
512,35,62542,2,0,P|451:34|436:173,1,203.999993774414,14|10,2:2|2:2,0:0:0:0:
494,221,63060,2,0,P|496:170|493:120,1,101.999996887207,2|8,2:2|2:2,0:0:0:0:
412,347,63405,2,0,P|408:296|411:246,1,101.999996887207,10|8,2:2|2:2,0:0:0:0:
278,232,63749,6,0,P|287:335|262:385,1,152.999995330811,2|0,2:2|0:0,0:0:0:0:
254,367,64094,1,10,2:2:0:0:
233,153,64267,2,0,P|226:80|244:44,1,101.999996887207,10|0,2:2|0:0,0:0:0:0:
338,179,64611,5,10,2:2:0:0:
195,260,64784,1,10,2:2:0:0:
139,108,64956,1,10,2:2:0:0:
139,108,65129,1,10,2:2:0:0:
66,376,65301,6,0,B|58:331|58:331|-9:285|-21:212|18:137,1,255.000009727478,14|8,2:2|2:2,0:0:0:0:
163,27,65818,1,0,0:0:0:0:
95,175,65991,2,0,P|104:245|117:295,1,106.25,10|8,2:2|2:2,0:0:0:0:
346,384,66336,5,8,2:2:0:0:
429,270,66508,2,0,P|420:186|403:103,1,170,2|8,2:2|2:2,0:0:0:0:
493,132,67025,5,8,2:2:0:0:
324,80,67198,1,0,0:0:0:0:
310,77,67284,1,0,0:0:0:0:
298,73,67370,1,8,2:2:0:0:
286,71,67456,1,0,0:0:0:0:
274,68,67542,1,8,2:2:0:0:
261,64,67629,1,0,0:0:0:0:
249,59,67715,1,8,2:2:0:0:
378,25,67887,5,2,2:2:0:0:
334,161,68060,2,0,B|320:206|320:206|359:275,1,101.999996887207,14|0,2:2|0:0,0:0:0:0:
506,241,68405,5,10,2:2:0:0:
442,363,68577,2,0,B|456:318|456:318|428:270,1,101.999996887207,2|8,2:2|2:2,0:0:0:0:
147,209,68922,2,0,B|200:231|268:242,1,101.999996887207,10|8,2:2|2:2,0:0:0:0:
362,330,69267,6,0,P|282:354|176:375,1,191.250007295609,2|0,2:2|0:0,0:0:0:0:
249,253,69611,1,10,2:2:0:0:
157,295,69784,2,0,P|90:264|56:219,1,127.500004863739,10|0,2:2|0:0,0:0:0:0:
270,34,70129,5,10,2:2:0:0:
335,68,70215,1,8,2:2:0:0:
325,141,70301,1,10,2:2:0:0:
251,152,70387,1,8,2:2:0:0:
217,87,70474,6,0,P|238:46|261:31,1,63.7500024318696,10|0,2:2|0:0,0:0:0:0:
335,68,70646,2,0,P|337:114|324:138,1,63.7500024318696,10|8,2:2|2:2,0:0:0:0:
14,48,70818,6,0,P|105:43|310:22,1,255.000009727478,14|8,2:2|2:2,0:0:0:0:
466,140,71336,1,0,0:0:0:0:
466,140,71508,2,0,P|355:151|245:157,1,212.5,10|8,2:2|2:2,0:0:0:0:
442,125,72025,2,0,B|481:54|481:54|415:-10,1,170,2|8,2:2|2:2,0:0:0:0:
344,64,72542,5,8,2:2:0:0:
412,315,72715,1,0,0:0:0:0:
388,294,72801,1,0,0:0:0:0:
367,278,72887,1,8,2:2:0:0:
348,261,72973,1,0,0:0:0:0:
358,240,73060,1,8,2:2:0:0:
373,216,73146,1,0,0:0:0:0:
388,190,73232,1,8,2:2:0:0:
475,237,73405,5,2,2:2:0:0:
323,337,73577,2,0,P|267:345|192:348,1,101.999996887207,14|0,2:2|0:0,0:0:0:0:
0,131,73922,5,10,2:2:0:0:
35,224,74094,2,0,P|17:279|84:356,1,152.999995330811,2|0,2:2|0:0,0:0:0:0:
82,345,74439,2,0,P|125:328|139:261,1,101.999996887207,10|8,2:2|2:2,0:0:0:0:
100,102,74784,2,0,P|103:153|111:204,1,101.999996887207,2|8,2:2|2:2,0:0:0:0:
412,102,75129,2,0,P|404:51|401:0,1,101.999996887207,10|10,2:2|2:2,0:0:0:0:
195,208,75473,5,8,2:2:0:0:
195,208,75646,1,10,2:2:0:0:
334,186,75818,1,10,2:2:0:0:
240,43,75990,1,10,2:2:0:0:
257,131,76163,1,10,2:2:0:0:
426,185,76336,5,10,2:2:0:0:
486,133,76508,1,8,2:2:0:0:
486,133,76680,1,10,2:2:0:0:
380,250,76853,5,10,2:2:0:0:
483,248,77025,1,8,2:2:0:0:
483,248,77197,1,10,2:2:0:0:
299,255,77370,5,10,2:2:0:0:
444,354,77542,1,8,2:2:0:0:
444,354,77714,1,10,2:2:0:0:
227,213,77887,5,10,2:2:0:0:
361,384,78059,1,8,2:2:0:0:
361,384,78231,1,10,2:2:0:0:
176,139,78405,5,10,2:2:0:0:
178,60,78663,5,8,2:2:0:0:
178,60,78749,1,10,2:2:0:0:
219,0,78922,1,8,2:2:0:0:
109,183,79094,5,14,2:2:0:0:
74,211,79180,1,0,0:0:0:0:
29,211,79267,1,0,0:0:0:0:
7,191,79353,1,0,0:0:0:0:
2,171,79439,2,0,P|8:123|9:62,1,101.999996887207,8|0,2:2|0:0,0:0:0:0:
97,10,79784,2,0,P|96:61|90:112,1,101.999996887207,8|8,2:2|2:2,0:0:0:0:
0,284,80129,5,8,2:2:0:0:
0,284,80215,1,0,0:0:0:0:
0,284,80301,1,0,0:0:0:0:
123,197,80474,1,8,2:2:0:0:
147,163,80560,1,0,0:0:0:0:
187,151,80646,1,0,0:0:0:0:
210,158,80732,1,0,0:0:0:0:
219,168,80818,2,0,P|267:175|329:181,2,101.999996887207,8|0|8,2:2|0:0|2:2,0:0:0:0:
96,297,81336,5,8,2:2:0:0:
196,246,81508,1,8,2:2:0:0:
196,246,81594,1,0,0:0:0:0:
196,246,81680,1,0,0:0:0:0:
284,97,81853,5,12,2:2:0:0:
296,73,81939,1,0,0:0:0:0:
300,43,82025,1,8,2:2:0:0:
291,18,82111,1,0,0:0:0:0:
274,4,82198,5,8,2:2:0:0:
300,43,82284,1,0,0:0:0:0:
352,54,82370,1,8,2:2:0:0:
405,45,82456,1,0,0:0:0:0:
448,20,82542,6,0,P|489:49|492:115,1,101.999996887207,8|8,2:2|2:2,0:0:0:0:
488,108,82801,1,8,2:2:0:0:
478,116,82887,1,8,2:2:0:0:
364,366,83060,5,4,2:1:0:0:
318,178,83232,1,4,2:1:0:0:
512,314,83405,1,4,2:1:0:0:
466,126,83577,1,4,2:1:0:0:
466,126,84267,6,0,L|455:164,6,25.4999992218018
474,248,84611,6,0,B|430:288|430:288|223:236|223:236|171:269,1,318.75,12|0,2:2|0:0,0:0:0:0:
40,99,85301,2,0,B|29:45|29:45|68:-11|68:-11,1,106.25,8|8,2:2|2:2,0:0:0:0:
229,327,85646,5,8,2:2:0:0:
229,327,85818,2,0,B|200:287|200:287|86:260|86:260|51:212,1,212.5,0|8,0:0|2:2,0:0:0:0:
281,62,86336,2,0,B|292:116|292:116|253:172|253:172,1,106.25,8|0,2:2|0:0,0:0:0:0:
138,192,86680,2,0,L|162:89,1,106.25,8|8,2:2|2:2,0:0:0:0:
149,357,87025,2,0,L|45:333,1,106.25,8|0,2:2|0:0,0:0:0:0:
363,27,87370,6,0,L|552:66,1,159.375,8|0,2:2|0:0,0:0:0:0:
512,49,87715,1,8,2:2:0:0:
265,60,87887,2,0,B|274:106|274:106|440:144,1,212.5,0|8,0:0|2:2,0:0:0:0:
512,159,88405,2,0,B|521:211|521:211|475:257,1,106.25,8|0,2:2|0:0,0:0:0:0:
375,312,88749,6,0,B|366:260|366:260|412:214,1,106.25,8|8,2:2|2:2,0:0:0:0:
461,320,89094,1,8,2:2:0:0:
297,300,89267,2,0,B|135:337|135:337|126:384,1,212.5,0|8,0:0|2:2,0:0:0:0:
313,192,89784,5,8,2:2:0:0:
317,186,89956,1,8,2:2:0:0:
10,112,90129,6,0,B|220:163|220:163|250:60,1,318.75,8|0,2:2|0:0,0:0:0:0:
64,40,90818,2,0,P|167:67|167:67,1,106.25,8|8,2:2|2:2,0:0:0:0:
323,42,91163,5,8,2:2:0:0:
338,384,91336,2,0,B|288:267|288:267|321:178,1,212.5,0|8,0:0|2:2,0:0:0:0:
512,87,91853,1,8,2:2:0:0:
395,15,92025,2,0,B|444:131|444:131|412:221,1,212.5,0|8,0:0|2:2,0:0:0:0:
193,241,92542,2,0,B|12:267,1,159.375,8|0,2:2|0:0,0:0:0:0:
32,241,92887,6,0,B|7:67|7:67|91:57|91:57|103:148,1,318.75,8|0,2:2|0:0,0:0:0:0:
193,241,93577,1,8,2:2:0:0:
303,225,93749,1,8,2:2:0:0:
282,109,93922,1,8,2:2:0:0:
481,338,94094,6,0,B|506:164|506:164|422:154|422:154|410:245,1,318.75,0|8,0:0|2:2,0:0:0:0:
133,338,94784,5,8,2:2:0:0:
133,338,94870,1,8,2:2:0:0:
133,338,94956,1,8,2:2:0:0:
392,302,95215,5,8,2:2:0:0:
392,302,95301,1,8,2:2:0:0:
272,324,95474,1,8,2:2:0:0:
272,324,95560,1,8,2:2:0:0:
272,324,95646,6,0,B|247:165|247:165|278:106,1,212.5,12|8,2:2|2:2,0:0:0:0:
333,174,96163,1,0,0:0:0:0:
186,15,96336,2,0,B|202:86|202:86|185:115,1,106.25,8|8,2:2|2:2,0:0:0:0:
48,108,96680,1,8,2:2:0:0:
274,43,96853,2,0,B|394:30|394:30|416:135,1,212.5,0|8,0:0|2:2,0:0:0:0:
212,189,97370,6,0,L|89:206,1,106.25,8|0,2:2|0:0,0:0:0:0:
329,172,97715,2,0,B|316:113|316:113|238:122,1,106.25,8|8,2:2|2:2,0:0:0:0:
35,226,98060,2,0,B|47:284|47:284|125:275,1,106.25,8|0,2:2|0:0,0:0:0:0:
33,36,98405,5,8,2:2:0:0:
186,15,98577,1,0,0:0:0:0:
212,189,98749,1,8,2:2:0:0:
412,209,98922,2,0,B|442:181|442:181|427:53|427:53|392:28,1,212.5,0|8,0:0|2:2,0:0:0:0:
212,189,99439,5,8,2:2:0:0:
238,363,99611,1,0,0:0:0:0:
395,346,99783,1,8,2:2:0:0:
347,265,99956,2,0,L|226:277,1,106.25,8|8,2:2|2:2,0:0:0:0:
36,56,100301,2,0,B|6:84|6:84|21:212|21:212|56:237,1,212.5,0|8,0:0|2:2,0:0:0:0:
165,314,100818,5,8,2:2:0:0:
93,134,100991,1,8,2:2:0:0:
93,134,101077,1,8,2:2:0:0:
93,134,101163,5,8,2:2:0:0:
123,119,101249,1,0,0:0:0:0:
142,96,101336,1,8,2:2:0:0:
148,67,101422,1,0,0:0:0:0:
183,27,101508,5,8,2:2:0:0:
198,61,101594,1,0,0:0:0:0:
231,81,101681,1,0,0:0:0:0:
268,92,101767,1,0,0:0:0:0:
327,69,101853,6,0,P|335:43|349:7,3,53.125,8|0|8|0,2:2|0:0|2:2|0:0,0:0:0:0:
403,98,102198,2,0,P|427:88|453:80,3,53.125,8|0|0|0,2:2|0:0|0:0|0:0,0:0:0:0:
429,171,102543,5,8,2:2:0:0:
412,201,102629,1,0,0:0:0:0:
381,221,102716,1,8,2:2:0:0:
336,214,102802,1,0,0:0:0:0:
279,165,102887,5,8,2:2:0:0:
227,151,102973,1,0,0:0:0:0:
180,175,103060,1,0,0:0:0:0:
162,222,103146,1,0,0:0:0:0:
238,289,103232,6,0,P|247:264|255:238,3,53.125,8|0|8|0,2:2|0:0|2:2|0:0,0:0:0:0:
145,234,103577,2,0,P|63:204|-4:149,1,170,8|8,2:2|2:2,0:0:0:0:
152,332,103922,5,8,2:2:0:0:
178,321,104008,1,0,0:0:0:0:
206,320,104094,1,8,2:2:0:0:
235,327,104180,1,0,0:0:0:0:
259,343,104267,1,8,2:2:0:0:
277,356,104353,1,0,0:0:0:0:
303,365,104439,1,8,2:2:0:0:
333,359,104525,1,0,0:0:0:0:
355,330,104611,5,8,2:2:0:0:
360,298,104698,1,0,0:0:0:0:
338,271,104784,1,8,2:2:0:0:
297,262,104870,1,0,0:0:0:0:
259,290,104956,1,8,2:2:0:0:
271,347,105042,1,0,0:0:0:0:
320,362,105129,1,8,2:2:0:0:
372,317,105215,1,0,0:0:0:0:
363,240,105301,5,8,2:2:0:0:
349,221,105387,1,0,0:0:0:0:
336,203,105474,1,8,2:2:0:0:
325,187,105560,1,0,0:0:0:0:
314,168,105646,5,8,2:2:0:0:
313,143,105732,1,0,0:0:0:0:
343,119,105818,1,8,2:2:0:0:
385,126,105905,1,8,2:2:0:0:
417,166,105991,1,8,2:2:0:0:
477,170,106077,1,8,2:2:0:0:
504,106,106163,1,8,2:2:0:0:
447,52,106249,1,8,2:2:0:0:
377,98,106336,2,0,P|298:109|235:111,1,127.500004863739,8|8,2:2|2:2,0:0:0:0:
512,245,106680,5,4,2:3:0:0:
320,261,106853,1,4,2:3:0:0:
149,360,107025,1,4,2:3:0:0:
149,360,107715,5,4,2:3:0:0:
512,239,107887,1,4,2:3:0:0:
512,239,108232,5,4,2:3:0:0:
149,360,108404,1,4,2:3:0:0:
149,360,108749,5,4,2:3:0:0:
320,261,108922,1,4,2:3:0:0:
512,245,109094,1,4,2:3:0:0:
0,139,109439,5,4,2:3:0:0:
192,123,109611,1,4,2:3:0:0:
363,24,109784,1,4,2:3:0:0:
363,24,110301,5,4,2:3:0:0:
80,179,110646,2,0,B|83:101|40:62|40:62|48:-2,1,170,4|0,2:3|0:0,0:0:0:0:
123,23,110991,5,4,2:3:0:0:
14,218,111163,2,0,P|29:282|48:398,1,170,4|0,2:3|0:0,0:0:0:0:
409,269,111508,5,4,2:3:0:0:
217,285,111680,1,4,2:3:0:0:
46,384,111853,1,4,2:3:0:0:
472,49,112198,5,4,2:3:0:0:
311,69,112370,1,4,2:3:0:0:
334,245,112542,1,4,2:3:0:0:
495,212,112715,2,0,L|509:128,1,85
512,381,113060,6,0,P|492:310|396:284,1,170,4|0,2:3|0:0,0:0:0:0:
197,1,113405,2,0,P|263:158|417:129,1,340,4|4,2:3|2:3,0:0:0:0:
334,255,113922,2,0,P|250:269|167:287,1,170,4|0,2:3|0:0,0:0:0:0:
316,74,114267,5,4,2:3:0:0:
166,197,114439,1,4,2:3:0:0:
92,29,114611,1,4,2:3:0:0:
92,29,114956,6,0,B|123:81|123:81|105:145,1,127.500004863739,10|10,2:2|2:2,0:0:0:0:
27,103,115301,1,10,2:2:0:0:
166,197,115474,1,10,2:2:0:0:
17,286,115646,1,8,2:2:0:0:
66,212,115818,1,10,2:2:0:0:
66,212,115905,1,8,2:2:0:0:
66,212,115991,1,10,2:2:0:0:
244,295,116163,1,10,2:2:0:0:
207,369,116336,5,8,2:1:0:0:
131,336,116680,5,2,2:1:0:0:
207,369,117025,5,8,2:1:0:0:
17,286,117198,1,8,2:1:0:0:
207,369,117370,5,2,2:1:0:0:
305,15,117715,5,8,2:1:0:0:
495,98,117888,1,8,2:1:0:0:
495,98,117974,1,8,2:1:0:0:
495,98,118060,5,2,2:1:0:0:
377,45,118232,1,2,2:1:0:0:
248,311,118405,5,8,2:1:0:0:
248,311,118577,1,2,2:1:0:0:
486,380,118749,2,0,P|463:361|484:382,1,85,12|0,2:2|0:0,0:0:0:0:
248,311,119094,6,0,B|281:128|219:253|245:53,1,255.000009727478,14|8,2:2|2:2,0:0:0:0:
42,264,119611,1,0,0:0:0:0:
72,336,119784,2,0,P|174:276|118:177,1,212.5,10|8,2:2|2:2,0:0:0:0:
31,45,120301,2,0,P|22:143|95:176,1,170,2|8,2:2|2:2,0:0:0:0:
221,60,120818,6,0,P|169:88|114:107,1,101.999996887207,8|0,2:2|0:0,0:0:0:0:
354,24,121163,2,0,P|337:80|311:132,1,101.999996887207,8|8,2:2|2:2,0:0:0:0:
455,7,121508,5,8,2:2:0:0:
408,172,121680,1,2,2:2:0:0:
455,7,121853,2,0,P|451:57|471:104,1,101.999996887207,14|0,2:2|0:0,0:0:0:0:
342,259,122198,5,10,2:2:0:0:
403,314,122370,2,0,P|428:242|409:170,1,152.999995330811,2|0,2:2|0:0,0:0:0:0:
510,279,122715,2,0,P|498:328|464:365,1,101.999996887207,10|8,2:2|2:2,0:0:0:0:
107,238,123060,2,0,P|61:142|119:27,1,203.999993774414,2|10,2:2|2:2,0:0:0:0:
285,197,123577,2,0,P|226:208|179:218,1,101.999996887207,10|0,2:2|0:0,0:0:0:0:
146,121,123922,5,10,2:2:0:0:
217,315,124094,1,10,2:2:0:0:
342,259,124267,1,10,2:2:0:0:
108,373,124439,1,10,2:2:0:0:
108,373,124525,1,8,2:2:0:0:
108,373,124611,6,0,P|87:310|-3:4,1,382.500014591218,14|0,2:2|0:0,0:0:0:0:
184,216,125301,2,0,P|218:161|292:15,1,212.5,10|8,2:2|2:2,0:0:0:0:
339,123,125818,2,0,P|387:111|508:71,1,170,2|8,2:2|2:2,0:0:0:0:
503,66,126336,1,8,2:2:0:0:
438,14,126508,1,0,0:0:0:0:
359,36,126680,1,8,2:2:0:0:
339,124,126853,1,8,2:2:0:0:
402,184,127025,1,8,2:2:0:0:
184,216,127198,5,2,2:2:0:0:
184,216,127284,1,0,0:0:0:0:
184,216,127370,2,0,P|176:278|221:313,1,101.999996887207,14|0,2:2|0:0,0:0:0:0:
299,337,127715,1,10,2:2:0:0:
461,381,127887,2,0,P|472:318|399:274,1,152.999995330811,2|0,2:2|0:0,0:0:0:0:
374,265,128232,2,0,P|377:315|384:366,1,101.999996887207,10|8,2:2|2:2,0:0:0:0:
97,185,128577,6,0,P|93:121|84:58,1,127.500004863739,2|8,2:2|2:2,0:0:0:0:
276,240,128922,1,10,2:2:0:0:
83,186,129094,2,0,P|74:122|70:59,1,127.500004863739,10|0,2:2|0:0,0:0:0:0:
423,99,129439,5,10,2:2:0:0:
184,216,129611,1,10,2:2:0:0:
0,23,129784,1,10,2:2:0:0:
233,12,129956,1,10,2:2:0:0:
233,12,130042,1,8,2:2:0:0:
233,12,130129,6,0,P|312:105|444:218,1,255.000009727478,14|8,2:2|2:2,0:0:0:0:
274,197,130646,1,0,0:0:0:0:
191,104,130818,2,0,P|168:208|132:308,1,212.5,10|8,2:2|2:2,0:0:0:0:
389,277,131336,2,0,P|290:295|202:325,1,170,2|8,2:2|2:2,0:0:0:0:
300,379,131853,5,8,2:2:0:0:
44,340,132025,1,0,0:0:0:0:
37,314,132111,1,0,0:0:0:0:
30,289,132198,1,8,2:2:0:0:
24,264,132284,1,0,0:0:0:0:
18,241,132370,1,8,2:2:0:0:
13,216,132456,1,0,0:0:0:0:
7,192,132542,1,8,2:2:0:0:
79,17,132715,5,2,2:2:0:0:
10,184,132887,2,0,B|1:82|1:82|88:11,1,203.999993774414,14|10,2:2|2:2,0:0:0:0:
125,83,133405,2,0,P|107:132|86:178,1,101.999996887207,2|8,2:2|2:2,0:0:0:0:
385,299,133749,2,0,P|402:251|426:206,1,101.999996887207,10|8,2:2|2:2,0:0:0:0:
502,200,134094,2,0,B|511:302|511:302|432:366,1,203.999993774414,2|10,2:2|2:2,0:0:0:0:
318,238,134611,5,10,2:2:0:0:
250,186,134784,1,0,0:0:0:0:
250,186,134870,1,0,0:0:0:0:
250,186,134956,2,0,P|269:137|287:69,1,101.999996887207,10|10,2:2|2:2,0:0:0:0:
274,79,135215,1,8,2:2:0:0:
264,68,135301,1,10,2:2:0:0:
342,27,135474,1,10,2:2:0:0:
425,76,135646,5,10,2:2:0:0:
355,145,135818,1,8,2:2:0:0:
425,76,135991,1,10,2:2:0:0:
430,196,136163,5,10,2:2:0:0:
245,194,136335,1,8,2:2:0:0:
430,196,136508,1,10,2:2:0:0:
307,317,136680,5,10,2:2:0:0:
151,158,136852,1,8,2:2:0:0:
307,317,137025,1,10,2:2:0:0:
115,353,137198,5,10,2:2:0:0:
99,90,137370,1,8,2:2:0:0:
115,353,137543,1,10,2:2:0:0:
106,14,137715,5,10,2:2:0:0:
91,95,137974,5,8,2:2:0:0:
91,95,138059,1,10,2:2:0:0:
142,162,138232,1,8,2:2:0:0:
35,344,138405,5,14,2:2:0:0:
26,335,138491,1,0,0:0:0:0:
23,322,138577,1,0,0:0:0:0:
24,309,138663,1,0,0:0:0:0:
30,291,138749,1,8,2:2:0:0:
43,277,138835,1,0,0:0:0:0:
67,270,138921,1,0,0:0:0:0:
89,281,139007,1,0,0:0:0:0:
111,304,139094,5,8,2:2:0:0:
142,308,139180,1,0,0:0:0:0:
175,289,139266,1,8,2:2:0:0:
183,251,139352,1,0,0:0:0:0:
153,217,139439,1,8,2:2:0:0:
100,240,139525,1,0,0:0:0:0:
105,297,139611,1,0,0:0:0:0:
166,311,139697,1,0,0:0:0:0:
203,258,139784,5,8,2:2:0:0:
185,196,139870,1,0,0:0:0:0:
171,133,139956,1,0,0:0:0:0:
155,71,140042,1,0,0:0:0:0:
139,8,140129,1,8,2:2:0:0:
194,22,140215,1,0,0:0:0:0:
247,42,140301,1,0,0:0:0:0:
293,63,140387,1,0,0:0:0:0:
340,82,140474,5,8,2:2:0:0:
277,113,140560,1,0,0:0:0:0:
253,172,140646,1,8,2:2:0:0:
277,230,140732,1,0,0:0:0:0:
324,247,140818,1,8,2:2:0:0:
364,228,140904,1,0,0:0:0:0:
369,183,140990,1,0,0:0:0:0:
337,159,141077,1,0,0:0:0:0:
288,242,141163,5,12,2:2:0:0:
292,260,141249,1,0,0:0:0:0:
296,278,141335,1,8,2:2:0:0:
302,296,141422,1,0,0:0:0:0:
308,314,141508,5,8,2:2:0:0:
333,332,141594,1,0,0:0:0:0:
364,337,141680,1,8,2:2:0:0:
394,328,141767,1,0,0:0:0:0:
424,304,141853,1,8,2:2:0:0:
448,274,141939,1,0,0:0:0:0:
462,233,142025,1,8,2:2:0:0:
464,185,142111,1,8,2:2:0:0:
457,137,142198,6,0,P|462:87|472:31,1,85,8|8,2:2|2:2,0:0:0:0:
136,41,142542,5,8,2:2:0:0:
100,213,142715,1,8,2:2:0:0:
277,332,142887,1,8,2:2:0:0:
284,129,143060,1,8,2:2:0:0:
230,237,143232,5,2,2:3:0:0:
236,228,143318,1,2,2:3:0:0:
224,245,143404,1,2,2:3:0:0:
222,230,143491,1,2,2:3:0:0:
238,242,143577,1,8,2:2:0:0:
437,282,143749,6,0,B|482:285|537:224|484:150|423:128|372:178|372:178|410:130|401:34|269:-36|154:77|184:162|184:162|161:103|41:74|-10:142|-19:255|0:285|33:302|33:302|239:282|349:283|349:283|351:325|386:350,1,1387.2000084668,12|0,2:2|0:0,0:0:0:0:
