osu file format v14

[General]
AudioFilename: audio.ogg
AudioLeadIn: 2000
PreviewTime: 118308
Countdown: 0
SampleSet: Soft
StackLeniency: 0.5
Mode: 0
LetterboxInBreaks: 1
WidescreenStoryboard: 1

[Editor]
Bookmarks: 21584,22273,22963,23308,23653,24342,26157
DistanceSpacing: 0.8
BeatDivisor: 2
GridSize: 8
TimelineZoom: 1.4

[Metadata]
Title:Yuujou Pop
TitleUnicode:友情ぽっぷ
Artist:Chata
ArtistUnicode:茶太
Creator:bakery
Version:Normal
Source:太鼓の達人12 ド~ン!と増量版
Tags:Taiko no Tatsujin ポップ asapbakery laplus mirawi みらゐ Gin ginn Sato satou 在藤 銀 Yasunori Matsuya video rhythm game japanese pop arcade jpop female djulus hinamommy -mikanmymommy
BeatmapID:3968905
BeatmapSetID:1922564

[Difficulty]
HPDrainRate:3
CircleSize:2
OverallDifficulty:4
ApproachRate:5
SliderMultiplier:1.2
SliderTickRate:1

[Events]
//Background and Video events
0,0,"pop.png",0,0
//Break Periods
2,84611,94446
//Storyboard Layer 0 (Background)
//Storyboard Layer 1 (Fail)
//Storyboard Layer 2 (Pass)
//Storyboard Layer 3 (Foreground)
//Storyboard Layer 4 (Overlay)
//Storyboard Sound Samples

[TimingPoints]
474,344.827586206897,4,2,1,75,1,0
1508,-100,4,2,2,75,0,0
1853,-100,4,2,1,75,0,1
2198,-100,4,2,2,75,0,1
2542,-100,4,2,1,75,0,1
2887,-100,4,2,2,75,0,1
3232,-100,4,2,1,75,0,1
3577,-100,4,2,2,75,0,1
3922,-100,4,2,1,75,0,1
4267,-100,4,2,2,75,0,1
4611,-100,4,2,1,75,0,1
4956,-100,4,2,2,75,0,1
5300,-100,4,2,1,75,0,1
5645,-100,4,2,2,75,0,1
5990,-100,4,2,1,75,0,1
6336,-100,4,2,2,75,0,1
6680,-100,4,2,1,75,0,1
7025,-100,4,2,2,75,0,1
7370,-100,4,2,1,75,0,1
7715,-100,4,2,2,75,0,1
8060,-100,4,2,1,75,0,1
8404,-100,4,2,2,75,0,1
8749,-100,4,2,1,75,0,1
9094,-100,4,2,2,75,0,1
9439,-100,4,2,1,75,0,1
9784,-100,4,2,2,75,0,1
10129,-100,4,2,1,75,0,1
10474,-100,4,2,2,75,0,1
10818,-100,4,2,1,75,0,1
11163,-100,4,2,2,75,0,1
11336,-100,4,2,3,75,0,1
11508,-100,4,2,1,75,0,1
11853,-100,4,2,3,75,0,1
12198,-100,4,2,1,75,0,1
12542,-100,4,2,2,75,0,1
12887,-100,4,2,1,75,0,1
13232,-100,4,2,2,75,0,1
13577,-100,4,2,1,75,0,1
13921,-100,4,2,2,75,0,1
14266,-100,4,2,1,75,0,1
14611,-100,4,2,2,75,0,1
14956,-100,4,2,1,75,0,1
15301,-100,4,2,2,75,0,1
15646,-100,4,2,1,75,0,1
15991,-100,4,2,2,75,0,1
16335,-100,4,2,1,75,0,1
16680,-100,4,2,2,75,0,1
17025,-100,4,2,1,75,0,1
17370,-100,4,2,2,75,0,1
17887,-100,4,2,1,75,0,1
18060,-100,4,2,2,75,0,1
18577,-100,4,2,1,75,0,1
18922,-100,4,2,2,75,0,1
19094,-100,4,2,1,75,0,1
19440,-100,4,2,2,75,0,1
19611,-100,4,2,1,75,0,1
19957,-100,4,2,2,75,0,1
20129,-100,4,2,1,75,0,1
20474,-100,4,2,2,75,0,1
20646,-100,4,2,1,75,0,1
20818,-100,4,2,2,75,0,1
21163,-100,4,2,1,75,0,1
21508,-100,4,2,2,75,0,1
21853,-100,4,2,1,75,0,1
22198,-100,4,2,2,75,0,1
22542,-100,4,2,1,75,0,1
22887,-100,4,2,2,75,0,1
23232,-100,4,2,1,75,0,1
23577,-100,4,2,2,75,0,1
24094,-100,4,2,1,75,0,1
24267,-100,4,2,2,75,0,1
24439,-100,4,2,1,75,0,1
24611,-100,4,2,2,75,0,1
24784,-100,4,2,1,75,0,1
24870,-100,4,2,2,75,0,0
25129,-100,4,2,1,75,0,0
25991,-100,4,2,1,35,0,0
26680,-100,4,2,1,50,0,0
27025,-100,4,2,2,50,0,0
27370,-100,4,2,1,50,0,0
27715,-100,4,2,2,50,0,0
28060,-100,4,2,1,50,0,0
28405,-100,4,2,2,50,0,0
28749,-100,4,2,1,50,0,0
29094,-100,4,2,2,50,0,0
29439,-100,4,2,1,50,0,0
29784,-100,4,2,2,50,0,0
30129,-100,4,2,1,50,0,0
30474,-100,4,2,2,50,0,0
30818,-100,4,2,1,50,0,0
31164,-100,4,2,2,50,0,0
31508,-100,4,2,1,50,0,0
31853,-100,4,2,2,50,0,0
32198,-100,4,2,1,50,0,0
32543,-100,4,2,2,50,0,0
32887,-100,4,2,1,50,0,0
33232,-100,4,2,2,50,0,0
33577,-100,4,2,1,50,0,0
33922,-100,4,2,2,50,0,0
34267,-100,4,2,1,50,0,0
34612,-100,4,2,2,50,0,0
34956,-100,4,2,1,50,0,0
35301,-100,4,2,2,50,0,0
35646,-100,4,2,1,50,0,0
35991,-100,4,2,2,50,0,0
36336,-100,4,2,1,50,0,0
36680,-100,4,2,2,50,0,0
37715,-100,4,2,1,50,0,0
38060,-100,4,2,2,50,0,0
38405,-100,4,2,1,50,0,0
38750,-100,4,2,2,50,0,0
39094,-100,4,2,1,50,0,0
39439,-100,4,2,2,50,0,0
39784,-100,4,2,1,50,0,0
40129,-100,4,2,2,50,0,0
40474,-100,4,2,1,50,0,0
40818,-100,4,2,2,50,0,0
41163,-100,4,2,1,50,0,0
41508,-100,4,2,2,50,0,0
41852,-100,4,2,1,50,0,0
42197,-100,4,2,2,50,0,0
42542,-100,4,2,1,50,0,0
42887,-100,4,2,2,50,0,0
43232,-100,4,2,1,50,0,0
43577,-100,4,2,2,50,0,0
43922,-100,4,2,1,50,0,0
44267,-100,4,2,2,50,0,0
44611,-100,4,2,1,50,0,0
44956,-100,4,2,2,50,0,0
45301,-100,4,2,1,50,0,0
45646,-100,4,2,2,50,0,0
46163,-100,4,2,1,50,0,0
46508,-100,4,2,2,50,0,0
46680,-100,4,2,1,50,0,0
47025,-100,4,2,2,50,0,0
47198,-100,4,2,1,50,0,0
47542,-100,4,2,2,50,0,0
47715,-100,4,2,1,50,0,0
48060,-100,4,2,2,50,0,0
48146,-100,4,2,1,50,0,0
48318,-100,4,2,2,50,0,0
48749,-100,4,2,4,60,0,0
57025,-100,4,2,1,60,0,0
57370,-100,4,2,2,60,0,0
57542,-100,4,2,1,60,0,0
57715,-100,4,2,2,60,0,0
58232,-100,4,2,1,60,0,0
58405,-100,4,2,1,70,0,0
59042,370.37037037037,4,2,1,75,1,1
59042,-100,4,2,1,40,0,0
59784,344.827586206897,4,2,1,75,1,1
59784,-100,4,2,1,75,0,1
60129,-100,4,2,2,75,0,1
60473,-100,4,2,1,75,0,1
60818,-100,4,2,2,75,0,1
61163,-100,4,2,1,75,0,1
61508,-100,4,2,2,75,0,1
61853,-100,4,2,1,75,0,1
62198,-100,4,2,2,75,0,1
62542,-100,4,2,1,75,0,1
62887,-100,4,2,2,75,0,1
63231,-100,4,2,1,75,0,1
63576,-100,4,2,2,75,0,1
63921,-100,4,2,1,75,0,1
64267,-100,4,2,2,75,0,1
64611,-100,4,2,1,75,0,1
64956,-100,4,2,2,75,0,1
65301,-100,4,2,1,75,0,1
65646,-100,4,2,2,75,0,1
65991,-100,4,2,1,75,0,1
66335,-100,4,2,2,75,0,1
66680,-100,4,2,1,75,0,1
67025,-100,4,2,2,75,0,1
67370,-100,4,2,1,75,0,1
67715,-100,4,2,2,75,0,1
68060,-100,4,2,1,75,0,1
68405,-100,4,2,2,75,0,1
68749,-100,4,2,1,75,0,1
69094,-100,4,2,2,75,0,1
69267,-100,4,2,3,75,0,1
69439,-100,4,2,1,75,0,1
69784,-100,4,2,3,75,0,1
70129,-100,4,2,1,75,0,1
70473,-100,4,2,2,75,0,1
70818,-100,4,2,1,75,0,1
71163,-100,4,2,2,75,0,1
71508,-100,4,2,1,75,0,1
71852,-100,4,2,2,75,0,1
72197,-100,4,2,1,75,0,1
72542,-100,4,2,2,75,0,1
72887,-100,4,2,1,75,0,1
73232,-100,4,2,2,75,0,1
73577,-100,4,2,1,75,0,1
73922,-100,4,2,2,75,0,1
74266,-100,4,2,1,75,0,1
74611,-100,4,2,2,75,0,1
74956,-100,4,2,1,75,0,1
75301,-100,4,2,2,75,0,1
75473,-100,4,2,1,75,0,1
75646,-100,4,2,2,75,0,1
75818,-100,4,2,1,75,0,1
75991,-100,4,2,2,75,0,1
76508,-100,4,2,1,75,0,1
76853,-100,4,2,2,75,0,1
77025,-100,4,2,1,75,0,1
77371,-100,4,2,2,75,0,1
77542,-100,4,2,1,75,0,1
77888,-100,4,2,2,75,0,1
78060,-100,4,2,1,75,0,1
78405,-100,4,2,2,75,0,1
78577,-100,4,2,1,75,0,1
78749,-100,4,2,2,75,0,1
79094,-100,4,2,1,75,0,1
79439,-100,4,2,2,75,0,1
79784,-100,4,2,1,75,0,1
80129,-100,4,2,2,75,0,1
80473,-100,4,2,1,75,0,1
80818,-100,4,2,2,75,0,1
81163,-100,4,2,1,75,0,1
81508,-100,4,2,2,75,0,1
82025,-100,4,2,1,75,0,1
82198,-100,4,2,2,75,0,1
82370,-100,4,2,1,75,0,1
82542,-100,4,2,2,75,0,1
82715,-100,4,2,1,75,0,1
82801,-100,4,2,2,75,0,1
83060,-100,4,2,1,75,0,1
83577,-100,4,2,1,75,0,0
84611,-100,4,2,1,55,0,0
84956,-100,4,2,2,55,0,0
85300,-100,4,2,1,55,0,0
85645,-100,4,2,2,55,0,0
85990,-100,4,2,1,55,0,0
86335,-100,4,2,2,55,0,0
86680,-100,4,2,1,55,0,0
87025,-100,4,2,2,55,0,0
87370,-100,4,2,1,55,0,0
87715,-100,4,2,2,55,0,0
88059,-100,4,2,1,55,0,0
88404,-100,4,2,2,55,0,0
88749,-100,4,2,1,55,0,0
89094,-100,4,2,2,55,0,0
89439,-100,4,2,1,55,0,0
89784,-100,4,2,2,55,0,0
90129,-100,4,2,1,55,0,0
90474,-100,4,2,2,55,0,0
90818,-100,4,2,1,55,0,0
91163,-100,4,2,2,55,0,0
91508,-100,4,2,1,55,0,0
91853,-100,4,2,2,55,0,0
92198,-100,4,2,1,55,0,0
92543,-100,4,2,2,55,0,0
92887,-100,4,2,1,55,0,0
93232,-100,4,2,2,55,0,0
93576,-100,4,2,1,55,0,0
93921,-100,4,2,2,55,0,0
94266,-100,4,2,1,55,0,0
94611,-100,4,2,2,55,0,0
94784,-100,4,2,1,55,0,0
94956,-100,4,2,2,55,0,0
95646,-100,4,2,1,55,0,0
95991,-100,4,2,2,55,0,0
96335,-100,4,2,1,55,0,0
96680,-100,4,2,2,55,0,0
97025,-100,4,2,1,55,0,0
97370,-100,4,2,2,55,0,0
97715,-100,4,2,1,55,0,0
98060,-100,4,2,2,55,0,0
98405,-100,4,2,1,55,0,0
98750,-100,4,2,2,55,0,0
99094,-100,4,2,1,55,0,0
99439,-100,4,2,2,55,0,0
99784,-100,4,2,1,55,0,0
100129,-100,4,2,2,55,0,0
100474,-100,4,2,1,55,0,0
100819,-100,4,2,2,55,0,0
101164,-100,4,2,1,55,0,0
101509,-100,4,2,2,55,0,0
101853,-100,4,2,1,55,0,0
102198,-100,4,2,2,55,0,0
102543,-100,4,2,1,55,0,0
102888,-100,4,2,2,55,0,0
103233,-100,4,2,1,55,0,0
103578,-100,4,2,2,55,0,0
103922,-100,4,2,1,55,0,0
104439,-100,4,2,2,55,0,0
104611,-100,4,2,1,55,0,0
104956,-100,4,2,2,55,0,0
105129,-100,4,2,1,55,0,0
105474,-100,4,2,2,55,0,0
105646,-100,4,2,1,55,0,0
105991,-100,4,2,2,55,0,0
106077,-100,4,2,1,55,0,0
106249,-100,4,2,2,55,0,0
106680,-100,4,2,4,60,0,0
114956,-100,4,2,1,50,0,0
115301,-100,4,2,2,50,0,0
115473,-100,4,2,1,50,0,0
115646,-100,4,2,2,50,0,0
116163,-100,4,2,1,50,0,0
116336,-100,4,2,1,60,0,0
118749,-100,4,2,2,50,0,0
119094,-100,4,2,1,75,0,1
119439,-100,4,2,2,75,0,1
119783,-100,4,2,1,75,0,1
120128,-100,4,2,2,75,0,1
120473,-100,4,2,1,75,0,1
120818,-100,4,2,2,75,0,1
121163,-100,4,2,1,75,0,1
121508,-100,4,2,2,75,0,1
121852,-100,4,2,1,75,0,1
122197,-100,4,2,2,75,0,1
122541,-100,4,2,1,75,0,1
122886,-100,4,2,2,75,0,1
123231,-100,4,2,1,75,0,1
123577,-100,4,2,2,75,0,1
123921,-100,4,2,1,75,0,1
124266,-100,4,2,2,75,0,1
124611,-100,4,2,1,75,0,1
124956,-100,4,2,2,75,0,1
125301,-100,4,2,1,75,0,1
125645,-100,4,2,2,75,0,1
125990,-100,4,2,1,75,0,1
126335,-100,4,2,2,75,0,1
126680,-100,4,2,1,75,0,1
127025,-100,4,2,2,75,0,1
127370,-100,4,2,1,75,0,1
127715,-100,4,2,2,75,0,1
128059,-100,4,2,1,75,0,1
128404,-100,4,2,2,75,0,1
128577,-100,4,2,3,75,0,1
128749,-100,4,2,1,75,0,1
129094,-100,4,2,3,75,0,1
129439,-100,4,2,1,75,0,1
129783,-100,4,2,2,75,0,1
130128,-100,4,2,1,75,0,1
130473,-100,4,2,2,75,0,1
130818,-100,4,2,1,75,0,1
131162,-100,4,2,2,75,0,1
131507,-100,4,2,1,75,0,1
131852,-100,4,2,2,75,0,1
132197,-100,4,2,1,75,0,1
132542,-100,4,2,2,75,0,1
132887,-100,4,2,1,75,0,1
133232,-100,4,2,2,75,0,1
133576,-100,4,2,1,75,0,1
133921,-100,4,2,2,75,0,1
134266,-100,4,2,1,75,0,1
134611,-100,4,2,2,75,0,1
135128,-100,4,2,1,75,0,1
135301,-100,4,2,2,75,0,1
135818,-100,4,2,1,75,0,1
136163,-100,4,2,2,75,0,1
136335,-100,4,2,1,75,0,1
136681,-100,4,2,2,75,0,1
136852,-100,4,2,1,75,0,1
137198,-100,4,2,2,75,0,1
137370,-100,4,2,1,75,0,1
137715,-100,4,2,2,75,0,1
137887,-100,4,2,1,75,0,1
138059,-100,4,2,2,75,0,1
138404,-100,4,2,1,75,0,1
138749,-100,4,2,2,75,0,1
139094,-100,4,2,1,75,0,1
139439,-100,4,2,2,75,0,1
139783,-100,4,2,1,75,0,1
140128,-100,4,2,2,75,0,1
140473,-100,4,2,1,75,0,1
140818,-100,4,2,2,75,0,1
141335,-100,4,2,1,75,0,1
141508,-100,4,2,2,75,0,1
141680,-100,4,2,1,75,0,1
141852,-100,4,2,2,75,0,1
142025,-100,4,2,1,75,0,1
142111,-100,4,2,2,75,0,1
142542,-100,4,2,1,75,0,1
143749,-100,4,2,2,75,0,0

[Colours]
Combo1 : 219,155,247
Combo2 : 185,248,255
Combo3 : 150,253,138
Combo4 : 176,184,253

[HitObjects]
55,72,474,5,2,2:3:0:0:
149,57,818,1,2,2:3:0:0:
253,51,1163,1,2,2:3:0:0:
253,51,1336,1,8,2:2:0:0:
253,51,1508,2,0,P|261:91|265:139,1,60,8|0,2:2|0:0,0:0:0:0:
290,149,1853,6,0,P|372:129|396:58,1,120,14|8,2:2|2:2,0:0:0:0:
480,71,2542,2,0,P|495:127|469:180,1,120,10|8,2:2|2:2,0:0:0:0:
436,215,3060,2,0,P|445:271|462:340,1,120,2|8,2:2|2:2,0:0:0:0:
434,373,3577,1,8,2:2:0:0:
355,317,3922,2,0,P|351:283|341:235,2,60,8|8|8,2:2|2:2|2:2,0:0:0:0:
261,294,4611,6,0,P|184:273|144:222,1,120,14|10,2:2|2:2,0:0:0:0:
149,198,5129,2,0,P|154:173|175:73,1,120,2|10,2:2|2:2,0:0:0:0:
109,8,5818,1,2,2:2:0:0:
41,75,6163,1,10,2:2:0:0:
41,75,6336,1,10,2:2:0:0:
59,168,6680,2,0,P|52:197|44:226,2,60,10|10|10,2:2|2:2|2:2,0:0:0:0:
149,198,7370,6,0,B|274:194|199:160|332:150,1,180,14|0,2:2|0:0,0:0:0:0:
360,176,8060,2,0,P|386:105|367:68,1,120,10|8,2:2|2:2,0:0:0:0:
397,30,8577,2,0,B|470:25|449:59|514:68,1,120,2|8,2:2|2:2,0:0:0:0:
490,111,9094,1,8,2:2:0:0:
465,203,9439,2,0,P|471:232|479:261,2,60,8|8|8,2:2|2:2|2:2,0:0:0:0:
387,260,10129,6,0,P|336:273|252:288,1,120,14|10,2:2|2:2,0:0:0:0:
224,270,10646,2,0,P|206:323|126:350,1,120,2|10,2:2|2:2,0:0:0:0:
85,281,11336,1,2,2:2:0:0:
150,209,11680,1,10,2:2:0:0:
150,209,11853,2,0,P|113:173|123:104,1,120,10|10,2:2|2:2,0:0:0:0:
42,51,12542,1,10,2:2:0:0:
131,16,12887,6,0,B|174:26|174:26|211:99|310:89,1,180,14|0,2:2|0:0,0:0:0:0:
324,62,13577,2,0,P|375:22|455:32,1,120,10|8,2:2|2:2,0:0:0:0:
428,68,14094,2,0,P|399:155|383:228,1,120,2|8,2:2|2:2,0:0:0:0:
425,218,14611,1,8,2:2:0:0:
465,304,14956,2,0,P|475:332|484:360,2,60,8|8|8,2:2|2:2|2:2,0:0:0:0:
369,290,15646,6,0,P|305:272|218:237,1,120,14|10,2:2|2:2,0:0:0:0:
208,241,16163,2,0,P|169:264|141:348,1,120,2|10,2:2|2:2,0:0:0:0:
50,293,16853,1,2,2:2:0:0:
37,203,17198,1,10,2:2:0:0:
38,203,17370,2,0,P|95:187|152:167,1,120,10|10,2:2|2:2,0:0:0:0:
243,136,18060,1,10,2:2:0:0:
198,50,18405,6,0,B|274:28|274:28|358:84,1,180,10|10,2:2|2:2,0:0:0:0:
351,228,19439,2,0,B|427:250|427:250|511:194,1,180,10|10,2:2|2:2,0:0:0:0:
449,63,20474,1,10,2:2:0:0:
360,98,20818,1,10,2:2:0:0:
274,141,21163,1,14,2:2:0:0:
256,192,21249,12,4,25129,2:1:0:0:
256,192,26680,6,0,P|257:228|260:273,1,60,8|0,2:2|0:0,0:0:0:0:
227,288,27025,2,0,P|280:326|343:320,1,120,8|8,2:2|2:2,0:0:0:0:
364,288,27542,1,8,2:2:0:0:
460,259,27887,2,0,P|456:318|480:372,2,120,2|10|2,2:2|2:2|2:2,0:0:0:0:
499,231,28749,1,10,2:2:0:0:
467,140,29094,2,0,P|400:126|375:122,1,60,10|0,2:2|0:0,0:0:0:0:
369,98,29439,5,8,2:2:0:0:
272,105,29784,2,0,P|250:74|257:29,2,60,8|0|8,2:2|0:0|2:2,0:0:0:0:
276,152,30301,2,0,P|298:183|291:228,1,60,8|8,2:2|2:2,0:0:0:0:
256,244,30646,1,2,2:2:0:0:
191,172,30991,1,10,2:2:0:0:
191,172,31163,2,0,P|146:161|86:145,1,60,10|0,2:2|0:0,0:0:0:0:
113,113,31508,2,0,P|68:102|8:86,1,60,10|10,2:2|2:2,0:0:0:0:
4,106,31853,1,10,2:2:0:0:
4,106,32025,1,2,2:2:0:0:
57,185,32370,5,0,0:0:0:0:
57,185,32542,2,0,P|56:243|20:290,1,120,8|8,2:2|2:2,0:0:0:0:
45,331,33060,1,8,2:2:0:0:
134,366,33405,2,0,P|192:353|266:329,2,120,0|8|0,0:0|2:2|0:0,0:0:0:0:
140,318,34267,1,8,2:2:0:0:
155,223,34611,1,8,2:2:0:0:
248,246,34956,6,0,B|310:234|332:307|370:294,1,120,10|10,2:2|2:2,0:0:0:0:
362,340,35474,2,0,B|422:355|436:235|543:256,1,180,2|10,2:2|2:2,0:0:0:0:
461,172,36336,2,0,P|453:146|443:90,2,60,10|10|10,2:2|2:2|2:2,0:0:0:0:
414,185,36853,2,0,B|372:194|372:194|311:141|321:56|382:3,1,240,2|8,2:2|2:2,0:0:0:0:
318,19,37715,5,12,2:2:0:0:
232,63,38060,2,0,L|246:162,2,60,8|0|8,2:2|0:0|2:2,0:0:0:0:
199,27,38577,1,8,2:2:0:0:
121,83,38922,2,0,P|66:107|-6:128,2,120,2|10|2,0:0|2:2|0:0,0:0:0:0:
146,124,39784,1,8,2:2:0:0:
239,146,40129,1,8,2:2:0:0:
192,280,40646,6,0,B|175:310|191:307|178:338,2,60,0|8|0,0:0|2:2|0:0,0:0:0:0:
223,244,41163,1,8,2:2:0:0:
223,244,41336,1,8,2:2:0:0:
292,178,41680,2,0,B|294:108|270:138|272:31,2,120,2|10|2,2:2|2:2|2:2,0:0:0:0:
338,191,42542,2,0,P|359:221|354:259,1,60,10|8,2:2|2:2,0:0:0:0:
330,281,42887,2,0,P|275:313|237:341,1,60,10|0,2:2|0:0,0:0:0:0:
311,345,43232,5,8,2:2:0:0:
411,339,43577,1,8,2:2:0:0:
411,339,43749,2,0,P|465:257|441:163,1,180,0|8,0:0|2:2,0:0:0:0:
465,134,44439,2,0,P|412:92|332:83,1,120,0|8,0:0|2:2,0:0:0:0:
340,37,44956,1,8,2:2:0:0:
244,36,45301,1,8,2:2:0:0:
144,44,45646,5,8,2:2:0:0:
144,44,45818,1,0,0:0:0:0:
144,44,45991,2,0,P|54:120|42:253,1,240,10|10,2:2|2:2,0:0:0:0:
204,329,47370,2,0,P|294:253|306:120,1,240,10|10,2:2|2:2,0:0:0:0:
150,243,48749,6,0,P|119:247|83:248,2,60,4|4|4,2:3|2:3|2:3,0:0:0:0:
341,234,49784,1,4,2:3:0:0:
341,234,49956,2,0,P|410:227|493:217,1,120,4|4,2:3|2:3,0:0:0:0:
491,184,50474,1,4,2:3:0:0:
408,135,50818,2,0,P|384:97|392:59,2,60,4|4|4,2:3|2:3|2:3,0:0:0:0:
473,64,51508,6,0,P|497:26|489:-12,2,60,4|4|4,2:3|2:3|2:3,0:0:0:0:
487,202,52370,1,4,2:3:0:0:
511,294,52715,2,0,P|497:344|411:373,1,120,4|4,2:3|2:3,0:0:0:0:
404,343,53232,1,4,2:3:0:0:
345,266,53577,2,0,P|315:245|268:248,2,60,4|4|4,2:3|2:3|2:3,0:0:0:0:
280,337,54267,6,0,P|241:355|207:346,1,60,4|4,2:3|2:3,0:0:0:0:
196,323,54612,1,4,2:3:0:0:
196,323,54784,2,0,P|180:266|163:167,1,120,0|4,0:0|2:3,0:0:0:0:
82,249,55474,2,0,P|32:187|43:112,1,120,4|4,2:3|2:3,0:0:0:0:
77,151,55991,2,0,P|127:89|116:14,1,120,4|4,2:3|2:3,0:0:0:0:
100,21,56508,1,4,2:3:0:0:
100,21,56680,1,4,2:3:0:0:
202,6,57025,5,10,2:2:0:0:
243,92,57370,1,10,2:2:0:0:
205,180,57715,1,8,2:2:0:0:
271,249,58060,1,10,2:2:0:0:
210,313,58405,2,0,P|218:337|226:380,2,60,8|8|8,2:2|2:2|2:2,0:0:0:0:
280,45,59784,6,0,P|265:133|244:221,1,180,14|0,2:2|0:0,0:0:0:0:
276,257,60474,2,0,P|332:272|385:246,1,120,10|8,2:2|2:2,0:0:0:0:
430,258,60990,2,0,P|445:200|397:128,1,120,2|8,2:2|2:2,0:0:0:0:
456,117,61509,1,8,2:2:0:0:
377,61,61852,2,0,P|381:27|391:-19,2,60,8|8|8,2:2|2:2|2:2,0:0:0:0:
281,56,62543,6,0,P|204:40|140:22,1,120,14|10,2:2|2:2,0:0:0:0:
123,3,63059,2,0,P|95:31|103:121,1,120,2|10,2:2|2:2,0:0:0:0:
173,161,63749,1,2,2:2:0:0:
165,261,64095,1,10,2:2:0:0:
165,261,64266,1,10,2:2:0:0:
77,221,64612,2,0,P|44:231|15:234,2,60,10|10|10,2:2|2:2|2:2,0:0:0:0:
165,261,65302,6,0,P|247:256|308:184,1,180,14|0,2:2|0:0,0:0:0:0:
332,226,65990,2,0,L|301:360,1,120,10|8,2:2|2:2,0:0:0:0:
351,353,66508,2,0,P|426:348|470:303,1,120,2|8,2:2|2:2,0:0:0:0:
500,295,67026,1,8,2:2:0:0:
431,227,67371,2,0,P|461:209|485:192,2,60,8|8|8,2:2|2:2|2:2,0:0:0:0:
338,211,68059,6,0,P|351:160|366:76,1,120,14|10,2:2|2:2,0:0:0:0:
410,103,68578,2,0,P|452:67|453:1,1,120,2|10,2:2|2:2,0:0:0:0:
358,1,69267,1,2,2:2:0:0:
281,57,69611,1,10,2:2:0:0:
281,57,69785,2,0,P|224:37|166:19,1,120,10|10,2:2|2:2,0:0:0:0:
132,109,70474,1,10,2:2:0:0:
65,43,70819,6,0,B|13:98|43:171|43:171|32:221,1,180,14|0,2:2|0:0,0:0:0:0:
82,214,71509,2,0,P|132:251|126:349,1,120,10|8,2:2|2:2,0:0:0:0:
116,344,72026,2,0,P|181:332|276:299,1,120,2|8,2:2|2:2,0:0:0:0:
276,335,72543,1,8,2:2:0:0:
366,303,72888,2,0,P|364:272|346:246,2,60,8|8|8,2:2|2:2|2:2,0:0:0:0:
451,347,73577,6,0,P|474:286|447:200,1,120,14|10,2:2|2:2,0:0:0:0:
443,190,74094,2,0,P|391:173|314:143,1,120,2|10,2:2|2:2,0:0:0:0:
233,153,74784,1,2,2:2:0:0:
161,90,75129,2,0,B|129:49|147:10|147:10|179:1,1,120,10|8,2:2|2:2,0:0:0:0:
237,12,75646,1,10,2:2:0:0:
325,49,75990,1,10,2:2:0:0:
413,86,76335,6,0,P|393:182|381:278,1,180,10|10,2:2|2:2,0:0:0:0:
239,249,77370,2,0,P|163:297|91:352,1,180,10|10,2:2|2:2,0:0:0:0:
115,209,78404,1,10,2:2:0:0:
21,190,78750,1,10,2:2:0:0:
8,94,79095,1,14,2:2:0:0:
256,192,79266,12,4,83059,2:1:0:0:
316,49,95646,6,0,B|406:38|406:38|425:128,1,180,12|0,2:2|0:0,0:0:0:0:
379,141,96336,2,0,L|296:154,1,60,8|8,2:2|2:2,0:0:0:0:
277,163,96680,1,8,2:2:0:0:
277,163,96853,2,0,B|295:250|295:250|385:239,1,180,0|8,0:0|2:2,0:0:0:0:
480,227,97715,1,8,2:2:0:0:
497,321,98060,1,8,2:2:0:0:
401,335,98405,6,0,B|341:355|341:355|285:337|285:337|231:358|231:358,1,180,8|0,2:2|0:0,0:0:0:0:
188,278,99267,1,8,2:2:0:0:
188,278,99439,2,0,B|137:250|137:250|81:268|81:268|24:230,1,180,8|8,2:2|2:2,0:0:0:0:
97,165,100301,2,0,B|158:36|158:36|62:1|62:1|27:72|27:72,1,300,0|8,0:0|2:2,0:0:0:0:
256,192,101336,12,8,103232,2:2:0:0:
256,192,103922,12,8,105991,2:2:0:0:
254,192,106680,6,0,L|244:124,2,60,4|4|4,2:3|2:3|2:3,0:0:0:0:
450,167,107715,1,4,2:3:0:0:
450,167,107887,2,0,B|442:82|428:114|422:30,1,120,4|4,2:3|2:3,0:0:0:0:
386,20,108405,1,4,2:3:0:0:
298,57,108749,2,0,P|289:25|285:-1,2,60,4|4|4,2:3|2:3|2:3,0:0:0:0:
208,93,109439,6,0,P|203:122|194:151,2,60,4|4|4,2:3|2:3|2:3,0:0:0:0:
90,26,110301,1,4,2:3:0:0:
29,100,110646,2,0,P|55:152|111:170,1,120,4|4,2:3|2:3,0:0:0:0:
132,126,111163,1,4,2:3:0:0:
205,189,111508,2,0,P|226:219|223:266,2,60,4|4|4,2:3|2:3|2:3,0:0:0:0:
139,259,112198,6,0,P|120:282|114:311,1,60,4|4,2:3|2:3,0:0:0:0:
151,336,112542,1,4,2:3:0:0:
151,336,112715,2,0,P|207:357|265:376,1,120,0|4,0:0|2:3,0:0:0:0:
305,293,113405,2,0,P|367:243|442:254,1,120,4|4,2:3|2:3,0:0:0:0:
452,241,113922,2,0,P|494:282|504:340,1,120,4|4,2:3|2:3,0:0:0:0:
469,371,114439,1,4,2:3:0:0:
469,371,114611,1,4,2:3:0:0:
372,372,114956,5,10,2:2:0:0:
304,303,115301,1,10,2:2:0:0:
348,217,115646,1,8,2:2:0:0:
267,163,115991,1,10,2:2:0:0:
307,75,116336,6,0,L|481:44,2,120,8|2|8,2:1|2:1|2:1,0:0:0:0:
266,48,117198,1,8,2:1:0:0:
266,48,117370,1,2,2:1:0:0:
175,79,117715,2,0,L|87:63,2,60,8|8|2,2:1|2:1|2:1,0:0:0:0:
230,361,119094,6,0,B|264:250|229:294|260:179,1,180,14|0,2:2|0:0,0:0:0:0:
211,176,119784,2,0,P|125:174|64:160,1,120,10|8,2:2|2:2,0:0:0:0:
45,181,120302,2,0,P|32:237|69:299,1,120,2|8,2:2|2:2,0:0:0:0:
106,280,120819,1,8,2:2:0:0:
170,352,121164,2,0,P|204:356|252:366,2,60,8|8|8,2:2|2:2|2:2,0:0:0:0:
213,266,121853,6,0,P|288:283|323:325,1,120,14|10,2:2|2:2,0:0:0:0:
361,332,122371,2,0,P|420:327|479:317,1,120,2|10,2:2|2:2,0:0:0:0:
443,227,123060,1,2,2:2:0:0:
487,142,123405,1,10,2:2:0:0:
487,142,123578,1,10,2:2:0:0:
421,62,123922,2,0,P|438:29|433:1,2,60,10|10|10,2:2|2:2|2:2,0:0:0:0:
388,150,124612,6,0,P|330:110|356:-21,1,180,14|0,2:2|0:0,0:0:0:0:
280,13,125302,2,0,P|220:10|160:4,1,120,10|8,2:2|2:2,0:0:0:0:
112,0,125818,2,0,P|64:34|57:92,1,120,2|8,2:2|2:2,0:0:0:0:
95,122,126336,1,8,2:2:0:0:
179,166,126681,2,0,P|186:137|193:107,2,60,8|8|8,2:2|2:2|2:2,0:0:0:0:
95,214,127371,6,0,P|105:272|120:331,1,120,14|10,2:2|2:2,0:0:0:0:
161,356,127888,2,0,P|228:361|275:317,1,120,2|10,2:2|2:2,0:0:0:0:
361,309,128577,1,2,2:2:0:0:
340,220,128922,1,10,2:2:0:0:
340,220,129094,2,0,P|281:233|222:245,1,120,10|10,2:2|2:2,0:0:0:0:
270,329,129784,1,10,2:2:0:0:
364,312,130129,6,0,B|457:290|457:290|513:209,1,180,14|0,2:2|0:0,0:0:0:0:
473,185,130819,2,0,B|473:122|473:122|438:72,1,120,10|8,2:2|2:2,0:0:0:0:
392,71,131336,2,0,P|334:87|275:98,1,120,2|8,2:2|2:2,0:0:0:0:
233,73,131853,1,8,2:2:0:0:
144,36,132198,2,0,L|87:16,2,60,8|8|8,2:2|2:2|2:2,0:0:0:0:
144,128,132887,6,0,P|167:189|125:263,1,120,14|10,2:2|2:2,0:0:0:0:
103,247,133405,2,0,P|86:303|109:357,1,120,2|10,2:2|2:2,0:0:0:0:
198,322,134094,1,2,2:2:0:0:
287,363,134439,1,10,2:2:0:0:
287,363,134611,2,0,L|352:373,1,60,10|0,2:2|0:0,0:0:0:0:
391,378,134956,1,10,2:2:0:0:
379,282,135302,1,10,2:2:0:0:
468,317,135647,6,0,P|487:211|439:162,1,180,10|10,2:2|2:2,0:0:0:0:
299,151,136680,2,0,P|247:80|273:-2,1,180,10|10,2:2|2:2,0:0:0:0:
380,94,137716,5,10,2:2:0:0:
419,181,138060,1,10,2:2:0:0:
342,239,138405,1,14,2:2:0:0:
256,192,138491,12,8,141853,2:2:0:0:
224,19,142542,6,0,P|229:48|239:89,1,60,8|8,2:2|2:2,0:0:0:0:
269,112,142887,2,0,P|264:141|254:182,1,60,8|8,2:2|2:2,0:0:0:0:
223,204,143232,1,2,2:3:0:0:
257,299,143577,5,8,2:2:0:0:
257,299,143749,1,12,2:2:0:0:
