osu file format v14

[General]
AudioFilename: audio.ogg
AudioLeadIn: 2000
PreviewTime: 118308
Countdown: 0
SampleSet: Soft
StackLeniency: 0.7
Mode: 0
LetterboxInBreaks: 1
WidescreenStoryboard: 1

[Editor]
DistanceSpacing: 1.6
BeatDivisor: 4
GridSize: 16
TimelineZoom: 1.4

[Metadata]
Title:Yuujou Pop
TitleUnicode:友情ぽっぷ
Artist:Chata
ArtistUnicode:茶太
Creator:bakery
Version:HinaMommy's Extra
Source:太鼓の達人12 ド~ン!と増量版
Tags:Taiko no Tatsujin ポップ asapbakery laplus mirawi みらゐ Gin ginn Sato satou 在藤 銀 Yasunori Matsuya video rhythm game japanese pop arcade jpop female djulus hinamommy -mikanmymommy
BeatmapID:3972882
BeatmapSetID:1922564

[Difficulty]
HPDrainRate:6
CircleSize:4
OverallDifficulty:8
ApproachRate:8.5
SliderMultiplier:1.6
SliderTickRate:1

[Events]
//Background and Video events
0,0,"pop.png",0,0
//Break Periods
//Storyboard Layer 0 (Background)
//Storyboard Layer 1 (Fail)
//Storyboard Layer 2 (Pass)
//Storyboard Layer 3 (Foreground)
//Storyboard Layer 4 (Overlay)
//Storyboard Sound Samples

[TimingPoints]
474,344.827586206897,4,2,0,60,1,0
1853,-83.3333333333333,4,2,0,70,0,0
12198,-133.333333333333,4,2,0,70,0,0
12887,-83.3333333333333,4,2,0,70,0,0
25991,-83.3333333333333,4,2,0,45,0,0
26680,-111.111111111111,4,2,0,50,0,0
37370,-74.0740740740741,4,2,0,50,0,0
37715,-95.2380952380952,4,2,0,50,0,0
48749,-95.2380952380952,4,2,0,50,0,0
57025,-95.2380952380952,4,2,0,60,0,0
58405,-55.5555555555556,4,2,0,65,0,0
59042,370.37037037037,4,2,0,60,1,0
59784,344.827586206897,4,2,0,70,1,0
59784,-83.3333333333333,4,2,0,70,0,0
76336,-133.333333333333,4,2,0,70,0,0
79094,-83.3333333333333,4,2,0,70,0,0
84267,-48.780487804878,4,2,0,60,0,0
84611,-86.9565217391304,4,2,0,60,0,0
101163,-76.9230769230769,4,2,0,60,0,0
105301,-66.6666666666667,4,2,0,60,0,0
106680,-95.2380952380951,4,2,0,50,0,0
114956,-95.2380952380951,4,2,0,60,0,0
116336,-100,4,2,0,65,0,0
117715,-80,4,2,0,65,0,0
119094,-76.9230769230769,4,2,0,70,0,0
129439,-133.333333333333,4,2,0,70,0,0
130129,-76.9230769230769,4,2,0,70,0,0
149267,-76.9230769230769,4,2,0,30,0,0

[Colours]
Combo1 : 255,174,215
Combo2 : 128,255,0
Combo3 : 74,189,251
Combo4 : 151,255,151

[HitObjects]
216,344,474,6,0,P|160:356|52:348,2,160,2|2|2,0:3|0:3|0:3,0:0:0:0:
272,276,1336,1,0,1:0:0:0:
360,292,1508,1,8,0:1:0:0:
228,204,1680,1,2,0:0:0:0:
148,260,1853,6,0,P|140:204|156:140,1,95.9999970703126,4|0,0:1|0:0,0:0:0:0:
216,344,2198,2,0,P|160:352|96:336,1,95.9999970703126,8|2,0:0|0:3,0:0:0:0:
100,336,2456,1,2,0:3:0:0:
76,324,2542,2,0,P|168:316|272:376,1,191.999994140625,0|8,1:0|0:0,0:0:0:0:
356,348,3060,1,2,0:3:0:0:
408,264,3232,1,0,1:0:0:0:
408,264,3577,2,0,L|420:372,1,95.9999970703126,8|0,0:0|0:0,0:0:0:0:
444,180,3922,2,0,P|444:228|484:292,1,95.9999970703126,0|0,1:0|1:0,1:0:0:0:
380,96,4267,1,8,0:0:0:0:
312,180,4439,1,2,0:3:0:0:
240,116,4611,6,0,P|184:100|68:120,1,143.999995605469,4|0,0:0|0:0,0:0:0:0:
76,128,4956,1,8,0:0:0:0:
180,188,5129,1,2,0:3:0:0:
180,188,5215,1,2,0:3:0:0:
180,188,5301,2,0,L|52:208,1,95.9999970703126,0|0,1:0|1:0,0:0:0:0:
148,296,5646,1,8,0:0:0:0:
244,316,5818,1,2,0:3:0:0:
324,240,5991,5,0,1:0:0:0:
252,268,6163,1,0,0:0:0:0:
328,280,6336,2,0,P|364:224|364:172,1,95.9999970703126,8|0,0:0|0:0,0:0:0:0:
244,316,6680,1,0,1:0:0:0:
140,260,6853,1,0,1:0:0:0:
156,132,7025,1,8,0:0:0:0:
260,184,7198,1,2,0:3:0:0:
260,184,7284,1,2,0:3:0:0:
260,184,7370,6,0,P|276:256|232:376,2,191.999994140625,4|8|0,0:0|0:0|1:0,0:0:0:0:
144,240,8232,1,0,1:0:0:0:
88,180,8405,2,0,L|200:192,1,95.9999970703126,8|2,0:0|0:3,0:0:0:0:
300,140,8749,1,0,1:0:0:0:
208,104,8922,1,0,1:0:0:0:
280,56,9094,1,8,0:0:0:0:
183,190,9267,1,2,0:3:0:0:
364,208,9439,1,0,1:0:0:0:
264,256,9611,5,0,1:0:0:0:
308,332,9784,1,8,0:0:0:0:
304,343,9870,1,2,0:3:0:0:
300,354,9956,1,2,0:3:0:0:
296,366,10042,1,2,0:3:0:0:
292,377,10129,2,0,B|280:276|280:276|300:252|288:205,1,143.999995605469,4|0,0:0|0:0,0:0:0:0:
276,212,10474,1,8,0:0:0:0:
156,288,10646,2,0,P|176:340|168:400,1,95.9999970703126,2|0,0:3|1:0,0:0:0:0:
188,204,10991,2,0,P|168:152|176:92,1,95.9999970703126,0|8,1:0|0:0,0:0:0:0:
252,84,11336,1,2,0:3:0:0:
252,84,11422,1,2,0:3:0:0:
252,84,11508,5,0,1:0:0:0:
296,172,11680,1,0,0:0:0:0:
132,112,11853,1,8,0:0:0:0:
320,44,12025,1,0,0:0:0:0:
388,208,12198,2,0,L|464:220,3,60.0000022888184,0|0|8|2,1:0|1:0|0:0|0:3,0:0:0:0:
464,240,12801,1,2,0:3:0:0:
480,264,12887,6,0,L|304:236,1,143.999995605469,4|0,0:1|0:0,0:0:0:0:
356,280,13232,2,0,P|320:308|300:372,1,95.9999970703126,8|2,0:0|3:0,0:0:0:0:
176,324,13577,1,0,1:0:0:0:
252,264,13749,1,0,1:0:0:0:
140,244,13922,1,8,0:0:0:0:
208,284,14094,1,2,0:3:0:0:
208,204,14267,2,0,L|88:212,1,95.9999970703126,0|0,1:0|1:0,0:0:0:0:
268,148,14611,2,0,P|200:128|136:148,1,95.9999970703126,8|2,0:0|0:3,0:0:0:0:
340,236,14956,2,0,P|368:176|484:116,1,191.999994140625,0|8,1:0|0:0,0:0:0:0:
508,188,15474,1,2,0:3:0:0:
508,188,15646,1,0,1:0:0:0:
380,332,15991,5,8,0:0:0:0:
456,356,16163,2,0,P|468:308|444:220,1,95.9999970703126,2|0,0:3|1:0,0:0:0:0:
286,324,16508,2,0,P|333:319|379:331,1,95.9999970703126,0|8,0:1|0:0,0:0:0:0:
340,236,16853,1,2,0:3:0:0:
340,236,16939,1,2,0:3:0:0:
340,236,17025,2,0,L|356:108,1,95.9999970703126,4|0,0:0|1:0,0:0:0:0:
220,208,17370,2,0,P|212:132|276:32,1,191.999994140625,8|8,0:0|0:0,0:0:0:0:
132,168,17887,1,2,0:3:0:0:
132,168,17974,1,2,0:3:0:0:
132,168,18060,1,8,0:0:0:0:
176,324,18232,1,8,0:0:0:0:
360,360,18405,6,0,P|416:360|468:332,2,95.9999970703126,4|0|0,0:0|1:0|1:0,0:0:0:0:
268,308,18922,2,0,P|212:308|160:336,2,95.9999970703126,4|0|0,0:0|1:0|1:0,0:0:0:0:
344,260,19439,1,4,0:0:0:0:
372,168,19611,1,0,1:0:0:0:
276,148,19784,1,0,1:0:0:0:
320,80,19956,1,4,0:0:0:0:
308,244,20129,1,0,1:0:0:0:
184,152,20301,1,0,1:0:0:0:
392,120,20474,5,8,0:0:0:0:
476,176,20646,1,2,0:3:0:0:
476,176,20732,1,8,0:0:0:0:
476,176,20818,1,8,0:0:0:0:
400,232,20991,1,8,0:0:0:0:
216,188,21163,6,0,P|192:200|148:208,3,47.9999985351563,4|0|0|0,0:0|0:0|3:0|0:0,0:0:0:0:
120,264,21508,2,0,P|132:288|140:332,3,47.9999985351563,8|0|0|0,0:0|0:0|3:0|0:0,0:0:0:0:
196,360,21853,2,0,P|220:344|264:340,3,47.9999985351563,0|0|0|0,1:0|0:0|1:0|0:0,0:0:0:0:
292,284,22198,2,0,P|276:256|272:216,3,47.9999985351563,8|0|0|0,0:0|0:0|3:0|0:0,0:0:0:0:
320,176,22542,2,0,P|348:192|388:196,1,47.9999985351563,0|0,1:0|0:0,0:0:0:0:
452,212,22715,1,0,3:0:0:0:
476,220,22801,1,0,0:0:0:0:
496,228,22887,2,0,P|492:268|480:292,1,47.9999985351563,8|0,0:0|0:0,0:0:0:0:
404,320,23060,1,0,3:0:0:0:
376,324,23146,1,0,0:0:0:0:
352,351,23232,5,0,1:0:0:0:
310,328,23318,1,0,0:0:0:0:
292,284,23404,1,0,1:0:0:0:
305,239,23490,1,0,0:0:0:0:
343,211,23576,1,8,0:0:0:0:
381,183,23663,1,0,0:0:0:0:
394,138,23749,1,0,3:0:0:0:
376,94,23835,1,0,0:0:0:0:
335,72,23921,5,4,0:1:0:0:
333,87,24008,1,0,0:0:0:0:
331,103,24094,1,0,1:0:0:0:
329,119,24180,1,0,0:0:0:0:
288,128,24267,5,8,0:0:0:0:
286,143,24354,1,0,0:0:0:0:
284,159,24440,1,0,1:0:0:0:
282,175,24526,1,0,0:0:0:0:
241,184,24611,5,8,0:0:0:0:
239,199,24698,1,0,0:0:0:0:
237,215,24784,1,0,1:0:0:0:
235,231,24870,1,0,0:0:0:0:
212,252,24956,2,0,L|160:260,2,47.9999985351563,8|8|8,0:0|0:0|0:1,0:0:0:0:
310,328,25474,5,8,0:1:0:0:
212,156,25646,1,8,0:1:0:0:
336,300,25991,5,2,0:0:0:0:
236,268,26163,1,2,0:0:0:0:
356,332,26680,6,0,P|404:312|504:320,1,143.999995605469,2|8,0:1|0:0,0:0:0:0:
408,268,27198,1,0,0:0:0:0:
372,184,27370,2,0,L|380:88,1,71.9999978027344,0|0,3:0|3:0,0:0:0:0:
264,88,27715,2,0,L|288:216,1,107.999996704102,8|0,0:0|0:0,0:0:0:0:
288,212,28060,2,0,P|248:200|216:152,1,71.9999978027344,0|0,3:0|3:0,3:0:0:0:
152,300,28405,2,0,P|120:232|136:140,1,143.999995605469,8|0,0:0|3:0,0:0:0:0:
188,96,28922,1,0,3:0:0:0:
76,44,29094,1,8,0:0:0:0:
200,128,29439,5,2,0:1:0:0:
200,128,29784,2,0,L|288:112,1,71.9999978027344,8|0,0:0|0:0,0:0:0:0:
356,136,30129,1,0,3:0:0:0:
332,220,30301,1,0,3:0:0:0:
420,192,30474,2,0,P|420:136|356:56,1,143.999995605469,8|0,0:0|3:0,0:0:0:0:
296,76,30991,1,0,3:0:0:0:
244,220,31163,2,0,L|268:312,1,71.9999978027344,8|0,0:0|0:0,0:0:0:0:
172,268,31508,5,0,3:0:0:0:
320,204,31680,1,0,3:0:0:0:
280,368,31853,1,8,0:0:0:0:
262,289,32025,1,2,0:0:0:0:
280,368,32198,2,0,P|336:372|380:356,1,71.9999978027344,2|0,0:1|0:0,0:0:0:0:
176,304,32542,2,0,L|80:316,1,71.9999978027344,8|0,0:0|0:0,0:0:0:0:
216,196,32887,1,0,3:0:0:0:
140,180,33060,2,0,L|108:92,2,71.9999978027344,0|8|0,3:0|0:0|0:0,0:0:0:0:
240,224,33577,5,0,3:0:0:0:
312,176,33749,1,0,3:0:0:0:
368,240,33922,2,0,P|372:176|320:100,1,143.999995605469,8|0,0:0|3:0,0:0:0:0:
240,92,34439,1,0,3:0:0:0:
196,16,34611,1,8,0:0:0:0:
60,180,34956,5,2,0:1:0:0:
136,216,35129,1,2,0:0:0:0:
216,196,35301,1,8,0:0:0:0:
296,228,35474,1,2,0:0:0:0:
328,304,35646,2,0,L|416:324,1,71.9999978027344,0|0,3:0|3:0,3:0:0:0:
252,240,35991,2,0,L|190:306,1,71.9999978027344,8|0,0:0|0:0,0:0:0:0:
344,208,36336,2,0,P|344:168|317:121,1,71.9999978027344,0|0,3:0|3:0,3:0:0:0:
240,84,36680,1,8,0:0:0:0:
404,112,36853,1,2,0:0:0:0:
216,196,37025,1,8,0:1:0:0:
216,196,37284,1,8,0:1:0:0:
216,196,37370,2,8,L|96:184,1,108.000000411987,8|8,0:1|0:1,0:0:0:0:
173,358,37715,6,0,B|228:352|253:318|253:318|353:298,1,167.999994873047,4|8,0:1|0:0,0:0:0:0:
408,332,38232,1,2,0:0:0:0:
476,264,38405,2,0,L|464:176,1,83.9999974365235,0|0,3:0|3:0,3:0:0:0:
368,128,38749,2,0,P|356:176|376:228,1,83.9999974365235,8|0,0:0|0:0,0:0:0:0:
268,164,39094,1,0,3:0:0:0:
192,208,39267,1,0,3:0:0:0:
136,144,39439,2,0,P|76:156|0:244,1,167.999994873047,8|0,0:0|3:0,0:0:0:0:
56,300,39956,2,0,L|48:192,1,83.9999974365235,0|8,3:0|0:0,0:0:0:0:
246,321,40474,6,0,P|210:349|138:349,1,83.9999974365235,2|0,0:1|0:0,0:0:0:0:
124,280,40818,1,8,0:0:0:0:
176,208,40991,1,2,0:0:0:0:
272,228,41163,1,0,3:0:0:0:
144,180,41336,1,0,3:0:0:0:
196,312,41508,2,0,L|348:296,1,125.999996154785,8|0,0:0|0:0,0:0:0:0:
336,328,41853,2,0,L|396:252,1,83.9999974365235,0|0,3:0|3:0,3:0:0:0:
348,64,42198,2,0,P|304:136|316:232,1,167.999994873047,8|0,0:0|3:0,0:0:0:0:
376,256,42715,1,0,3:0:0:0:
488,168,42887,1,8,0:0:0:0:
420,124,43060,1,2,0:0:0:0:
456,196,43232,5,2,0:1:0:0:
309,216,43405,1,2,0:0:0:0:
224,112,43577,1,8,0:0:0:0:
200,188,43749,1,2,0:0:0:0:
336,180,43922,1,0,3:0:0:0:
192,88,44094,1,0,3:0:0:0:
139,254,44267,2,0,L|163:366,1,83.9999974365235,8|2,0:0|0:1,0:0:0:0:
56,288,44611,6,0,B|96:252|100:200|100:200|72:172|72:112,2,167.999994873047,0|8|0,3:0|0:0|3:0,0:0:0:0:
116,360,45474,1,0,3:0:0:0:
116,360,45646,2,0,L|232:344,1,83.9999974365235,8|2,0:0|0:1,0:0:0:0:
348,251,45991,5,8,0:0:0:0:
372,352,46163,1,0,1:0:0:0:
376,216,46336,1,0,1:0:0:0:
272,304,46508,1,8,0:0:0:0:
420,332,46680,1,0,1:0:0:0:
288,176,46853,1,0,1:0:0:0:
199,348,47025,1,8,0:0:0:0:
199,348,47370,6,0,P|172:312|168:248,1,83.9999974365235,0|8,3:0|0:0,0:0:0:0:
52,288,47715,2,0,P|53:242|92:190,1,83.9999974365235,0|0,3:0|3:0,3:0:0:0:
144,152,48060,1,8,0:0:0:0:
164,153,48146,1,0,3:0:0:0:
185,155,48232,1,0,3:0:0:0:
206,156,48318,1,0,3:0:0:0:
227,158,48404,1,8,0:0:0:0:
72,104,48577,5,8,0:0:0:0:
72,104,48663,1,8,0:0:0:0:
72,104,48749,2,0,L|64:8,1,83.9999974365235,8|8,0:1|0:1,0:0:0:0:
164,153,49094,1,8,0:1:0:0:
163,153,49784,2,0,L|80:188,1,83.9999974365235,8|8,0:1|0:1,0:0:0:0:
252,68,50301,1,8,0:1:0:0:
312,120,50474,2,0,P|336:176|332:288,1,167.999994873047,8|8,0:1|0:1,0:0:0:0:
288,340,50991,2,0,P|284:288|312:232,1,83.9999974365235,8|8,0:1|0:1,0:0:0:0:
428,120,51508,5,8,0:1:0:0:
252,176,51680,1,8,0:1:0:0:
120,72,51853,1,8,0:1:0:0:
228,216,52370,5,8,0:1:0:0:
228,216,52715,2,0,P|168:256|56:248,1,167.999994873047,8|8,0:1|0:1,0:0:0:0:
116,365,53232,1,8,0:1:0:0:
116,365,53577,2,0,L|232:341,2,83.9999974365235,8|8|8,0:1|0:1|0:1,0:0:0:0:
306,258,54267,6,0,P|312:304|282:366,1,83.9999974365235,8|8,0:1|0:1,0:0:0:0:
364,188,54611,1,8,0:1:0:0:
208,136,55129,1,8,0:1:0:0:
208,136,55474,1,8,0:1:0:0:
208,136,55818,2,0,L|304:128,1,83.9999974365235,8|8,0:1|0:1,0:0:0:0:
96,180,56336,2,0,L|116:72,2,83.9999974365235,8|8|8,0:1|0:1|0:1,0:0:0:0:
64,344,57025,5,0,1:0:0:0:
20,204,57198,1,0,1:0:0:0:
104,320,57370,1,8,0:0:0:0:
172,156,57542,1,0,1:0:0:0:
48,240,57715,1,8,0:0:0:0:
16,104,57887,1,8,0:0:0:0:
30,119,57973,1,8,0:0:0:0:
44,134,58059,1,8,0:0:0:0:
59,149,58145,1,8,0:0:0:0:
72,164,58232,2,0,L|128:152,1,41.9999987182618,0|0,3:0|3:0,3:0:0:0:
192,232,58405,2,4,P|200:176|132:76,2,143.999995605469,4|4|4,3:0|3:0|3:0,3:0:0:0:
256,192,58836,12,4,59784,0:0:0:0:
424,288,60129,5,8,0:0:0:0:
340,332,60301,1,2,0:3:0:0:
292,256,60474,1,0,1:0:0:0:
360,300,60646,1,0,1:0:0:0:
192,260,60818,1,8,0:0:0:0:
320,152,60991,1,2,0:3:0:0:
304,68,61163,2,0,P|264:48|180:60,1,95.9999970703126,0|0,1:0|1:0,0:0:0:0:
136,152,61508,2,0,L|252:136,1,95.9999970703126,8|2,0:0|3:0,0:0:0:0:
224,156,61767,1,2,3:0:0:0:
220,180,61853,2,0,L|124:193,1,95.9999970703126,0|0,1:0|1:0,0:0:0:0:
68,310,62198,2,0,P|148:302|200:242,1,143.999995605469,8|0,0:0|0:0,0:0:0:0:
164,236,62542,5,4,0:0:0:0:
357,283,62887,1,8,0:0:0:0:
301,339,63060,1,2,0:1:0:0:
347,91,63405,1,2,0:1:0:0:
403,147,63577,2,0,P|424:192|424:256,1,95.9999970703126,8|2,0:0|0:3,0:0:0:0:
332,232,63922,2,0,P|304:184|320:20,1,191.999994140625,0|8,1:0|0:0,0:0:0:0:
208,128,64439,5,2,3:0:0:0:
208,128,64525,1,2,3:0:0:0:
208,128,64611,1,0,1:0:0:0:
72,84,64784,1,0,1:0:0:0:
20,216,64956,1,8,0:0:0:0:
152,184,65129,1,2,0:3:0:0:
108,272,65301,5,4,0:0:0:0:
176,332,65474,1,2,3:0:0:0:
206,339,65560,1,2,3:0:0:0:
238,337,65646,1,8,0:0:0:0:
324,300,65818,1,2,0:3:0:0:
224,116,65991,5,0,1:0:0:0:
244,216,66163,1,2,3:0:0:0:
244,216,66249,1,2,3:0:0:0:
244,216,66336,1,8,0:0:0:0:
152,184,66508,1,2,0:3:0:0:
256,120,66680,6,0,L|360:132,1,95.9999970703126,0|0,1:0|1:0,0:0:0:0:
238,337,67025,2,0,L|134:325,1,95.9999970703126,8|2,0:0|0:3,0:0:0:0:
338,207,67370,2,0,P|322:255|326:311,1,95.9999970703126,0|0,1:0|1:0,0:0:0:0:
152,236,67715,2,0,P|168:188|164:132,1,95.9999970703126,8|2,0:0|3:0,0:0:0:0:
148,116,67974,1,2,3:0:0:0:
120,104,68060,5,4,0:0:0:0:
240,148,68232,1,2,3:0:0:0:
256,120,68318,1,2,3:0:0:0:
252,88,68405,2,0,P|224:180|248:252,1,143.999995605469,8|0,0:0|0:0,0:0:0:0:
252,248,68749,2,0,L|360:264,1,95.9999970703126,0|0,1:0|1:0,0:0:0:0:
156,336,69094,2,0,P|208:328|264:352,1,95.9999970703126,8|2,0:0|0:3,0:0:0:0:
384,344,69439,1,0,1:0:0:0:
328,220,69611,1,0,1:0:0:0:
472,136,69784,5,8,0:0:0:0:
416,240,69956,1,2,0:3:0:0:
360,136,70129,1,8,0:0:0:0:
375,139,70215,1,8,0:0:0:0:
391,143,70301,1,8,0:0:0:0:
406,146,70387,1,8,0:0:0:0:
424,152,70474,2,8,P|440:104|432:44,1,95.9999970703126
239,154,70818,6,0,B|224:232|261:304|261:304|239:330|251:383,2,191.999994140625,4|8|0,0:0|0:0|1:0,0:0:0:0:
176,100,71680,1,0,1:0:0:0:
284,148,71853,1,8,0:0:0:0:
180,208,72025,1,2,0:3:0:0:
72,168,72198,1,0,1:0:0:0:
48,256,72370,1,0,1:0:0:0:
48,256,72456,1,2,3:0:0:0:
48,256,72542,2,0,L|72:356,1,95.9999970703126,8|2,0:0|3:0,0:0:0:0:
136,276,72887,2,0,P|168:316|176:376,1,95.9999970703126,0|0,1:0|1:0,0:0:0:0:
372,296,73232,2,0,P|308:300|212:248,1,143.999995605469,8|0,0:0|0:0,0:0:0:0:
212,248,73577,6,0,L|320:240,1,95.9999970703126,4|0,0:0|0:0,0:0:0:0:
112,176,73922,1,8,0:0:0:0:
112,176,74094,2,0,P|84:136|80:68,2,95.9999970703126,2|0|2,0:1|1:0|1:0,0:0:0:0:
220,208,74611,1,8,0:0:0:0:
328,152,74784,1,2,0:3:0:0:
436,200,74956,5,0,1:0:0:0:
344,228,75129,1,0,1:0:0:0:
360,136,75301,2,0,P|408:112|472:120,1,95.9999970703126,8|2,0:0|3:0,0:0:0:0:
476,128,75560,1,2,3:0:0:0:
496,160,75646,1,0,1:0:0:0:
392,64,75818,1,0,1:0:0:0:
440,232,75991,1,8,0:0:0:0:
500,36,76163,1,2,0:3:0:0:
248,116,76336,6,0,L|120:104,1,120.000004577637,4|0,0:0|1:0,0:0:0:0:
224,292,76853,2,0,P|288:288|344:236,1,120.000004577637,4|0,0:0|1:0,0:0:0:0:
168,140,77370,1,4,0:0:0:0:
136,228,77542,1,0,1:0:0:0:
232,196,77715,1,0,1:0:0:0:
56,144,77887,2,0,P|40:196|60:280,1,120.000004577637,4|0,0:0|1:0,0:0:0:0:
100,352,78405,5,8,0:0:0:0:
304,328,78577,1,2,0:3:0:0:
304,328,78663,1,8,0:0:0:0:
304,328,78749,1,8,0:0:0:0:
180,376,78922,1,8,0:0:0:0:
224,292,79094,6,0,P|216:264|204:240,3,47.9999985351563,4|0|0|0,0:0|0:0|3:0|0:0,0:0:0:0:
144,204,79439,2,0,P|160:179|170:155,3,47.9999985351563,8|0|0|0,0:0|0:0|3:0|0:0,0:0:0:0:
148,88,79784,2,0,P|176:82|201:72,3,47.9999985351563,0|0|0|0,1:0|0:0|1:0|0:0,0:0:0:0:
264,40,80129,2,0,P|288:56|312:66,3,47.9999985351563,8|0|0|0,0:0|0:0|3:0|0:0,0:0:0:0:
364,116,80474,1,0,1:0:0:0:
361,131,80560,1,0,0:0:0:0:
358,147,80646,1,0,3:0:0:0:
355,163,80732,1,0,0:0:0:0:
352,180,80818,6,0,P|308:200|244:192,1,95.9999970703126,8|0,0:0|3:0,0:0:0:0:
228,184,81077,1,0,3:0:0:0:
204,216,81163,2,0,P|246:239|310:237,1,95.9999970703126,0|0,1:0|1:0,0:0:0:0:
324,264,81422,1,2,0:3:0:0:
336,300,81508,1,8,0:0:0:0:
256,372,81680,1,0,3:0:0:0:
112,320,81853,5,4,0:1:0:0:
82,345,81939,1,0,0:0:0:0:
43,343,82025,1,0,1:0:0:0:
16,315,82111,1,0,0:0:0:0:
16,276,82197,1,8,0:0:0:0:
43,247,82284,1,0,0:0:0:0:
82,246,82370,1,0,1:0:0:0:
122,220,82456,1,0,0:0:0:0:
140,176,82542,1,8,0:0:0:0:
132,129,82628,1,0,0:0:0:0:
99,95,82714,1,0,1:0:0:0:
75,99,82801,1,0,0:0:0:0:
48,102,82887,2,8,L|-8:78,2,47.9999985351563,8|8|8,0:0|0:0|0:1,0:0:0:0:
256,208,83232,5,8,0:1:0:0:
400,180,83405,1,8,0:1:0:0:
212,76,83577,1,8,0:1:0:0:
255,332,84267,6,2,B|264:339|264:339|263:331|263:331|272:338|272:338|271:330|271:330|280:337|280:337|279:329|279:329|288:337|288:337|287:329|287:329|296:336|296:336|295:328|295:328|304:335|304:335|303:327|303:327|312:335|312:335|311:327|311:327|320:334|320:334|319:326|319:326|328:333|328:333|327:325|327:325|336:332|336:332|335:325|335:325|344:332|344:332|343:324|343:324|351:327|351:327|403:323,1,246.000003753662,2|0,0:1|0:1,0:1:0:0:
448,352,84611,6,0,P|452:284|384:172,2,184.000003509522,2|8|0,1:0|0:0|1:0,0:0:0:0:
340,304,85474,1,0,1:0:0:0:
340,304,85646,2,0,L|240:296,1,92.0000017547608,8|2,0:0|0:1,0:0:0:0:
104,216,85991,2,0,B|124:256|158:265|158:265|195:370,1,184.000003509522,0|8,1:0|0:0,0:0:0:0:
248,296,86508,1,2,0:0:0:0:
216,216,86680,2,0,P|216:176|248:120,1,92.0000017547608,2|0,1:0|1:0,0:0:0:0:
362,217,87025,2,0,P|362:257|330:313,1,92.0000017547608,8|2,0:0|0:0,0:0:0:0:
380,132,87370,6,2,B|398:109|398:109|421:119|421:119|438:101|438:101|464:112|464:112|488:89,1,138.000002632141,2|2,1:0|0:0,0:0:0:0:
428,72,87715,1,8,0:0:0:0:
292,192,87887,2,0,L|201:176,1,92.0000017547608,2|0,0:1|1:0,0:0:0:0:
124,156,88232,1,0,1:0:0:0:
196,88,88405,1,8,0:0:0:0:
208,224,88577,1,2,0:1:0:0:
84,148,88749,2,2,B|80:164|80:164|69:170|69:170|74:187|74:187|61:193|61:193|67:206|67:206|53:216|53:216|58:229|58:229|45:239|45:239|50:252|50:252|40:264|40:264|44:280|44:280|36:288|36:288|31:310,1,184.000003509522,2|10,1:0|0:0,0:0:0:0:
35,289,89267,1,2,0:1:0:0:
286,322,89439,5,2,3:0:0:0:
166,289,89611,1,0,1:0:0:0:
256,208,89784,1,8,0:0:0:0:
240,121,89956,1,2,3:0:0:0:
240,121,90042,1,2,3:0:0:0:
240,121,90129,6,0,P|280:72|408:64,2,184.000003509522,2|8|0,1:0|0:0|1:0,0:0:0:0:
312,188,90991,1,0,1:0:0:0:
404,164,91163,2,0,L|336:240,1,92.0000017547608,8|2,0:0|0:1,0:0:0:0:
476,292,91508,2,0,L|268:324,1,184.000003509522,0|8,1:0|0:0,0:0:0:0:
216,332,92025,1,2,0:0:0:0:
120,232,92198,2,0,P|104:288|120:344,1,92.0000017547608,0|0,1:0|1:0,0:0:0:0:
212,192,92542,2,2,B|187:167|187:167|198:132|198:132|170:107|170:107|180:68,1,138.000002632141,8|0,0:0|0:0,0:1:0:0:
152,144,92887,5,0,1:0:0:0:
152,144,93232,2,0,P|80:120|52:72,1,92.0000017547608,8|2,0:0|0:0,0:0:0:0:
312,180,93577,1,0,1:0:0:0:
232,256,93749,1,0,1:0:0:0:
120,232,93922,1,8,0:0:0:0:
168,328,94094,1,2,3:0:0:0:
168,328,94180,1,2,3:0:0:0:
168,328,94267,6,0,L|280:316,1,92.0000017547608,2|0,1:0|1:0,0:0:0:0:
440,240,94611,6,0,L|320:256,1,92.0000017547608,8|2,0:0|3:0,0:0:0:0:
332,228,94870,1,0,3:0:0:0:
312,208,94956,1,8,0:0:0:0:
356,344,95129,1,2,3:0:0:0:
356,344,95215,1,8,0:0:0:0:
356,344,95301,1,8,0:0:0:0:
216,256,95474,1,8,0:0:0:0:
204,224,95560,1,8,0:0:0:0:
212,192,95646,6,0,P|296:172|352:88,1,184.000003509522,6|8,0:1|0:0,0:0:0:0:
208,88,96163,1,2,0:0:0:0:
148,144,96336,2,0,L|120:252,1,92.0000017547608,0|0,1:0|1:0,0:0:0:0:
168,356,96680,2,0,L|278:374,1,92.0000017547608,8|2,0:0|0:1,0:0:0:0:
424,296,97025,1,0,1:0:0:0:
336,304,97198,1,0,1:0:0:0:
304,224,97370,1,8,0:0:0:0:
376,288,97542,5,2,3:0:0:0:
376,288,97629,1,2,3:0:0:0:
376,288,97715,1,0,1:0:0:0:
432,192,97887,1,0,1:0:0:0:
336,304,98060,1,8,0:0:0:0:
360,140,98232,1,2,0:0:0:0:
136,80,98405,5,0,1:0:0:0:
92,168,98577,1,2,0:1:0:0:
192,152,98749,1,8,0:0:0:0:
124,96,98922,2,0,P|80:92|16:136,2,92.0000017547608,2|0|0,0:1|1:0|1:0,0:0:0:0:
212,168,99439,2,0,P|232:124|220:52,1,92.0000017547608,8|2,0:0|0:1,0:0:0:0:
132,208,99784,1,0,1:0:0:0:
192,277,99956,2,0,L|380:245,1,184.000003509522,2|2,1:0|0:1,0:1:0:0:
464,284,100474,1,0,1:0:0:0:
376,336,100646,1,0,1:0:0:0:
468,240,100818,1,8,0:0:0:0:
468,240,100905,1,8,0:0:0:0:
468,240,100991,1,8,0:0:0:0:
468,240,101077,1,8,0:0:0:0:
468,240,101163,6,0,L|460:172,1,51.999997619629,0|0,1:0|0:0,0:0:0:0:
320,164,101336,2,0,L|328:232,1,51.999997619629,2|2,0:0|0:0,0:0:0:0:
400,308,101508,2,0,L|392:240,1,51.999997619629,8|0,0:0|0:0,0:0:0:0:
252,232,101680,2,0,L|260:300,1,51.999997619629,2|2,0:0|0:0,0:0:0:0:
332,372,101853,2,0,L|324:304,1,51.999997619629,0|0,1:0|0:0,0:0:0:0:
184,296,102026,2,0,L|192:364,1,51.999997619629,0|0,1:0|0:0,0:0:0:0:
100,288,102198,1,8,0:0:0:0:
110,280,102284,1,2,0:0:0:0:
120,272,102370,1,2,0:0:0:0:
130,264,102456,1,2,0:0:0:0:
140,256,102542,6,0,L|68:248,1,51.999997619629,0|0,1:0|0:0,0:0:0:0:
200,180,102715,2,0,L|148:174,1,51.999997619629,0|0,1:0|0:0,0:0:0:0:
259,318,102887,2,0,L|187:310,1,51.999997619629,8|0,0:0|0:0,0:0:0:0:
316,236,103060,2,0,L|264:230,1,51.999997619629,2|2,0:0|0:0,0:0:0:0:
280,152,103232,1,0,1:0:0:0:
271,141,103318,1,0,0:0:0:0:
263,130,103404,1,0,1:0:0:0:
255,121,103490,1,0,0:0:0:0:
248,112,103577,2,8,L|256:48,3,51.999997619629
139,30,103922,5,4,0:1:0:0:
126,52,104008,1,0,0:0:0:0:
119,77,104094,1,0,1:0:0:0:
118,103,104180,1,0,0:0:0:0:
123,128,104266,1,0,1:0:0:0:
133,152,104353,1,0,0:0:0:0:
148,176,104439,2,0,P|188:168|228:176,1,51.999997619629,0|2,3:0|3:0,3:0:0:0:
240,233,104611,5,8,0:0:0:0:
278,240,104697,1,0,0:0:0:0:
316,236,104783,1,0,1:0:0:0:
352,221,104869,1,0,0:0:0:0:
382,197,104956,2,0,P|383:148|355:104,1,51.999997619629,8|0,0:0|0:0,0:0:0:0:
332,84,105129,1,2,0:0:0:0:
308,80,105215,1,2,0:0:0:0:
288,76,105301,6,0,L|276:168,1,60.0000022888184,0|0,1:0|0:0,0:0:0:0:
224,192,105474,2,0,L|164:184,1,60.0000022888184,8|0,0:0|0:0,0:0:0:0:
112,128,105646,2,0,L|171:135,1,60.0000022888184,0|0,1:0|0:0,0:0:0:0:
224,192,105818,2,0,L|216:251,1,60.0000022888184,0|0,1:0|1:0,0:0:0:0:
148,288,105991,2,0,L|88:280,1,60.0000022888184,8|0,0:0|1:0,0:0:0:0:
64,200,106163,1,0,1:0:0:0:
64,200,106249,1,8,0:0:0:0:
64,200,106336,2,0,L|204:220,1,120.000004577637,8|8,0:0|0:0,0:0:0:0:
436,308,106680,5,8,0:1:0:0:
340,332,106853,1,8,0:1:0:0:
316,236,107025,1,8,0:1:0:0:
408,336,107715,5,8,0:1:0:0:
308,304,107887,2,0,P|296:236|364:128,1,167.999994873047,8|8,0:1|0:1,0:0:0:0:
284,92,108405,1,8,0:1:0:0:
284,92,108749,2,0,L|176:104,1,83.9999974365235,8|8,0:1|0:1,0:0:0:0:
64,200,109094,1,8,0:1:0:0:
64,200,109439,5,8,0:1:0:0:
176,168,109611,1,8,0:1:0:0:
140,40,109784,1,8,0:1:0:0:
64,156,110301,6,0,P|132:196|232:184,1,167.999994873047,8|8,0:1|0:1,0:0:0:0:
364,208,110991,1,8,0:1:0:0:
320,144,111163,2,0,P|252:104|152:116,1,167.999994873047,8|8,0:1|0:1,0:0:0:0:
112,252,111680,2,0,L|228:236,1,83.9999974365235,8|8,0:1|0:1,0:0:0:0:
368,320,112198,6,0,P|412:368|420:412,2,83.9999974365235,8|8|8,0:1|0:1|0:1,0:0:0:0:
284,320,113060,2,0,P|241:294|190:170,1,167.999994873047,8|8,0:1|0:1,0:0:0:0:
272,116,113749,2,0,P|284:164|260:228,1,83.9999974365235,8|8,0:1|0:1,0:0:0:0:
80,256,114267,2,0,L|88:152,1,83.9999974365235,8|8,0:1|0:1,0:0:0:0:
88,92,114611,1,8,0:1:0:0:
256,56,114956,5,0,1:0:0:0:
272,208,115129,1,0,1:0:0:0:
224,84,115301,1,8,0:0:0:0:
304,176,115474,1,0,1:0:0:0:
224,168,115646,1,8,0:0:0:0:
336,100,115818,1,8,0:0:0:0:
336,100,115905,1,8,0:0:0:0:
336,100,115991,2,0,L|424:120,1,83.9999974365235,8|0,0:0|3:0,0:0:0:0:
336,320,116336,6,4,P|276:336|169:300,1,160,4|4,3:0|3:0,3:0:0:0:
224,168,117025,2,4,P|244:213|286:241,2,80,4|4|4,3:0|3:0|3:0,3:0:0:0:
140,128,117715,2,4,P|116:176|128:248,2,100,4|4|4,3:0|3:0|3:0,3:0:0:0:
304,64,118405,5,2,3:0:0:0:
224,168,118577,1,2,0:0:0:0:
283,37,118749,5,8,0:0:0:0:
328,200,118922,1,2,0:0:0:0:
272,16,119094,5,4,0:0:0:0:
272,16,119439,2,0,L|288:136,1,103.999995239258,8|2,0:0|3:0,0:0:0:0:
316,128,119698,1,2,3:0:0:0:
344,136,119784,2,0,P|332:88|280:48,1,103.999995239258,0|0,1:0|1:0,0:0:0:0:
267,232,120129,2,0,P|279:280|331:320,1,103.999995239258,8|2,0:0|0:3,0:0:0:0:
408,332,120474,1,0,1:0:0:0:
476,264,120646,1,0,1:0:0:0:
392,288,120818,5,8,0:0:0:0:
340,216,120991,1,2,0:3:0:0:
384,136,121163,1,0,1:0:0:0:
200,88,121336,1,2,3:0:0:0:
200,88,121422,1,2,3:0:0:0:
200,88,121508,2,0,L|76:116,1,103.999995239258,8|2,0:0|0:1,0:0:0:0:
200,184,121853,2,0,B|136:208|116:288|116:288|36:320,1,207.999990478516,4|8,0:0|0:0,0:0:0:0:
176,360,122370,1,2,0:3:0:0:
200,352,122456,1,2,0:3:0:0:
224,344,122542,2,0,L|340:364,1,103.999995239258,0|0,1:0|1:0,0:0:0:0:
468,320,122887,1,8,0:0:0:0:
344,192,123232,5,0,1:0:0:0:
352,276,123405,1,0,1:0:0:0:
428,232,123577,2,0,P|420:152|344:88,1,155.999992858887,8|0,0:0|0:0,0:0:0:0:
336,92,123922,1,0,1:0:0:0:
136,124,124094,1,0,1:0:0:0:
260,60,124267,1,8,0:0:0:0:
240,160,124439,1,2,3:0:0:0:
240,160,124525,1,2,3:0:0:0:
240,160,124611,6,0,P|224:220|284:368,2,207.999990478516,4|8|0,0:0|0:0|1:0,0:0:0:0:
108,272,125474,1,0,1:0:0:0:
116,192,125646,2,0,L|128:80,1,103.999995239258,8|2,0:0|0:3,0:0:0:0:
228,72,125991,1,0,1:0:0:0:
80,124,126163,1,0,1:0:0:0:
220,180,126336,1,8,0:0:0:0:
304,140,126508,1,2,0:3:0:0:
224,100,126680,1,0,1:0:0:0:
304,240,126853,5,0,1:0:0:0:
388,192,127025,1,8,0:0:0:0:
400,194,127111,1,2,3:0:0:0:
413,197,127197,1,2,3:0:0:0:
426,200,127283,1,2,3:0:0:0:
438,203,127370,2,0,B|436:152|470:103|470:103|430:47,1,155.999992858887,4|0,0:0|0:0,0:0:0:0:
420,40,127715,1,8,0:0:0:0:
272,160,127887,2,0,L|300:268,1,103.999995239258,2|0,0:3|1:0,0:0:0:0:
216,104,128232,2,0,P|216:164|172:224,1,103.999995239258,0|8,1:0|0:0,0:0:0:0:
128,248,128577,1,2,0:3:0:0:
128,248,128663,1,2,0:3:0:0:
128,248,128749,5,0,1:0:0:0:
52,180,128922,1,0,1:0:0:0:
216,240,129094,1,8,0:0:0:0:
52,320,129267,1,2,0:3:0:0:
136,160,129439,2,0,L|112:80,3,60.0000022888184,0|0|8|2,1:0|1:0|0:0|3:0,0:0:0:0:
136,80,130042,1,2,3:0:0:0:
152,60,130129,5,4,0:0:0:0:
220,184,130301,1,2,0:3:0:0:
244,76,130474,5,8,0:0:0:0:
192,256,130646,1,2,0:3:0:0:
308,152,130818,5,0,1:0:0:0:
120,296,130991,1,0,1:0:0:0:
264,344,131163,1,8,0:0:0:0:
220,268,131336,1,2,3:0:0:0:
220,268,131422,1,2,3:0:0:0:
220,268,131508,2,0,P|200:328|208:384,1,103.999995239258,0|0,1:0|1:0,0:0:0:0:
312,228,131853,2,0,L|172:236,1,103.999995239258,8|2,0:0|3:0,0:0:0:0:
192,212,132111,1,2,3:0:0:0:
176,188,132198,2,0,L|279:182,1,103.999995239258,0|0,1:0|1:0,0:0:0:0:
456,112,132542,2,0,P|372:120|316:76,1,155.999992858887,8|0,0:0|0:0,0:0:0:0:
300,48,132887,5,4,0:0:0:0:
64,160,133232,1,8,0:0:0:0:
32,88,133405,1,2,0:1:0:0:
280,300,133749,1,2,0:1:0:0:
312,228,133922,2,0,P|248:256|212:320,1,103.999995239258,8|2,0:0|0:3,0:0:0:0:
64,276,134267,2,0,P|188:308|232:384,1,207.999990478516,4|8,0:0|0:0,0:0:0:0:
320,320,134784,1,2,0:3:0:0:
336,216,134956,1,8,0:0:0:0:
448,288,135129,5,2,0:3:0:0:
448,288,135215,1,2,3:0:0:0:
448,288,135301,1,8,0:0:0:0:
396,140,135474,1,8,0:0:0:0:
236,112,135646,2,0,P|236:168|272:224,2,103.999995239258,4|0|0,0:0|1:0|1:0,0:0:0:0:
140,160,136163,2,0,P|87:179|47:232,2,103.999995239258,4|0|0,0:0|1:0|1:0,0:0:0:0:
344,132,136680,6,0,P|352:80|320:16,1,103.999995239258,4|0,0:0|1:0,0:0:0:0:
252,12,137025,1,0,1:0:0:0:
167,247,137198,2,0,P|217:232|261:176,1,103.999995239258,4|0,0:0|1:0,0:0:0:0:
236,108,137543,1,0,1:0:0:0:
44,76,137715,1,8,0:0:0:0:
24,204,137887,1,2,0:3:0:0:
24,204,137974,1,8,0:0:0:0:
24,204,138060,1,8,0:0:0:0:
144,156,138232,1,8,0:0:0:0:
344,200,138405,5,4,0:0:0:0:
369,195,138491,1,0,0:0:0:0:
395,190,138577,1,0,3:0:0:0:
420,185,138663,1,0,0:0:0:0:
452,148,138749,5,8,0:0:0:0:
427,153,138835,1,0,0:0:0:0:
401,158,138921,1,0,3:0:0:0:
376,163,139007,1,0,0:0:0:0:
344,132,139094,5,0,1:0:0:0:
318,166,139180,1,0,0:0:0:0:
304,207,139266,1,0,1:0:0:0:
303,250,139352,1,0,0:0:0:0:
315,292,139438,1,8,0:0:0:0:
339,328,139525,1,0,0:0:0:0:
372,355,139611,2,0,L|432:356,1,51.999997619629,0|0,3:0|0:0,0:0:0:0:
256,352,139784,6,0,P|268:320|260:272,3,51.999997619629,0|0|0|0,1:0|0:0|3:0|0:0,0:0:0:0:
156,204,140129,2,0,P|144:236|152:284,3,51.999997619629,8|0|0|0,0:0|0:0|3:0|0:0,0:0:0:0:
288,216,140474,2,0,P|256:204|208:212,3,51.999997619629,0|0|0|0,1:0|0:0|1:0|0:0,0:0:0:0:
116,336,140818,2,0,P|148:348|196:340,3,51.999997619629,8|0|0|0,0:0|0:0|3:0|0:0,0:0:0:0:
220,292,141163,5,4,0:1:0:0:
217,279,141249,1,0,0:0:0:0:
215,266,141335,1,0,1:0:0:0:
213,253,141421,1,0,0:0:0:0:
184,240,141508,5,8,0:0:0:0:
186,201,141594,1,0,0:0:0:0:
209,171,141680,1,0,1:0:0:0:
246,159,141766,1,0,0:0:0:0:
280,192,141853,5,8,0:0:0:0:
317,180,141939,1,0,0:0:0:0:
340,150,142025,1,0,1:0:0:0:
343,112,142111,1,0,0:0:0:0:
320,80,142198,2,8,L|256:72,2,51.999997619629,8|8|8,0:0|0:0|0:1,0:0:0:0:
440,192,142542,5,8,0:1:0:0:
348,360,142715,1,8,0:1:0:0:
222,233,142887,1,8,0:1:0:0:
320,80,143060,1,8,0:1:0:0:
356,212,143232,1,2,3:0:0:0:
347,221,143318,1,2,3:0:0:0:
338,231,143404,1,2,3:0:0:0:
329,240,143490,1,2,3:0:0:0:
320,248,143577,2,0,P|263:254|215:226,1,103.999995239258,8|4,0:0|0:1,0:0:0:0:
256,192,143836,12,0,149267,0:0:0:0:
