osu file format v14

[General]
AudioFilename: audio.ogg
AudioLeadIn: 2000
PreviewTime: 118308
Countdown: 0
SampleSet: Soft
StackLeniency: 0.5
Mode: 0
LetterboxInBreaks: 1
WidescreenStoryboard: 1

[Editor]
Bookmarks: 21584,22273,22963,23308,23653,24342,26157
DistanceSpacing: 1.3
BeatDivisor: 8
GridSize: 16
TimelineZoom: 1.4

[Metadata]
Title:Yuujou Pop
TitleUnicode:友情ぽっぷ
Artist:Chata
ArtistUnicode:茶太
Creator:bakery
Version:Hard
Source:太鼓の達人12 ド~ン!と増量版
Tags:Taiko no Tatsujin ポップ asapbakery laplus mirawi みらゐ Gin ginn Sato satou 在藤 銀 Yasunori Matsuya video rhythm game japanese pop arcade jpop female djulus hinamommy -mikanmymommy
BeatmapID:3971959
BeatmapSetID:1922564

[Difficulty]
HPDrainRate:4
CircleSize:3
OverallDifficulty:6
ApproachRate:7
SliderMultiplier:1.5
SliderTickRate:1

[Events]
//Background and Video events
0,0,"pop.png",0,0
//Break Periods
2,84611,94574
//Storyboard Layer 0 (Background)
//Storyboard Layer 1 (Fail)
//Storyboard Layer 2 (Pass)
//Storyboard Layer 3 (Foreground)
//Storyboard Layer 4 (Overlay)
//Storyboard Sound Samples

[TimingPoints]
474,344.827586206897,4,2,1,75,1,0
1508,-100,4,2,2,75,0,0
1853,-90.9090909090909,4,2,1,75,0,1
2198,-90.9090909090909,4,2,2,75,0,1
2542,-90.9090909090909,4,2,1,75,0,1
2887,-90.9090909090909,4,2,2,75,0,1
3232,-90.9090909090909,4,2,1,75,0,1
3577,-90.9090909090909,4,2,2,75,0,1
3922,-90.9090909090909,4,2,1,75,0,1
4267,-90.9090909090909,4,2,2,75,0,1
4611,-90.9090909090909,4,2,1,75,0,1
4956,-90.9090909090909,4,2,2,75,0,1
5300,-90.9090909090909,4,2,1,75,0,1
5645,-90.9090909090909,4,2,2,75,0,1
5990,-90.9090909090909,4,2,1,75,0,1
6336,-90.9090909090909,4,2,2,75,0,1
6680,-90.9090909090909,4,2,1,75,0,1
7025,-90.9090909090909,4,2,2,75,0,1
7370,-90.9090909090909,4,2,1,75,0,1
7715,-90.9090909090909,4,2,2,75,0,1
8060,-90.9090909090909,4,2,1,75,0,1
8404,-90.9090909090909,4,2,2,75,0,1
8749,-90.9090909090909,4,2,1,75,0,1
9094,-90.9090909090909,4,2,2,75,0,1
9439,-90.9090909090909,4,2,1,75,0,1
9784,-90.9090909090909,4,2,2,75,0,1
10129,-90.9090909090909,4,2,1,75,0,1
10474,-90.9090909090909,4,2,2,75,0,1
10818,-90.9090909090909,4,2,1,75,0,1
11163,-90.9090909090909,4,2,2,75,0,1
11336,-90.9090909090909,4,2,3,75,0,1
11508,-90.9090909090909,4,2,1,75,0,1
11853,-90.9090909090909,4,2,3,75,0,1
12198,-90.9090909090909,4,2,1,75,0,1
12542,-90.9090909090909,4,2,2,75,0,1
12887,-90.9090909090909,4,2,1,75,0,1
13232,-90.9090909090909,4,2,2,75,0,1
13577,-90.9090909090909,4,2,1,75,0,1
13921,-90.9090909090909,4,2,2,75,0,1
14266,-90.9090909090909,4,2,1,75,0,1
14611,-90.9090909090909,4,2,2,75,0,1
14956,-90.9090909090909,4,2,1,75,0,1
15301,-90.9090909090909,4,2,2,75,0,1
15646,-90.9090909090909,4,2,1,75,0,1
15991,-90.9090909090909,4,2,2,75,0,1
16335,-90.9090909090909,4,2,1,75,0,1
16680,-90.9090909090909,4,2,2,75,0,1
17025,-90.9090909090909,4,2,1,75,0,1
17370,-90.9090909090909,4,2,2,75,0,1
17887,-90.9090909090909,4,2,1,75,0,1
18060,-90.9090909090909,4,2,2,75,0,1
18577,-90.9090909090909,4,2,1,75,0,1
18922,-90.9090909090909,4,2,2,75,0,1
19094,-90.9090909090909,4,2,1,75,0,1
19440,-90.9090909090909,4,2,2,75,0,1
19611,-90.9090909090909,4,2,1,75,0,1
19957,-90.9090909090909,4,2,2,75,0,1
20129,-90.9090909090909,4,2,1,75,0,1
20474,-90.9090909090909,4,2,2,75,0,1
20646,-90.9090909090909,4,2,1,75,0,1
20818,-90.9090909090909,4,2,2,75,0,1
21163,-90.9090909090909,4,2,1,75,0,1
21508,-90.9090909090909,4,2,2,75,0,1
21853,-90.9090909090909,4,2,1,75,0,1
22198,-90.9090909090909,4,2,2,75,0,1
22542,-90.9090909090909,4,2,1,75,0,1
22887,-90.9090909090909,4,2,2,75,0,1
23232,-90.9090909090909,4,2,1,75,0,1
23577,-90.9090909090909,4,2,2,75,0,1
24094,-90.9090909090909,4,2,1,75,0,1
24267,-90.9090909090909,4,2,2,75,0,1
24439,-90.9090909090909,4,2,1,75,0,1
24611,-90.9090909090909,4,2,2,75,0,1
24784,-90.9090909090909,4,2,1,75,0,1
24870,-111.111111111111,4,2,2,75,0,0
25129,-111.111111111111,4,2,1,75,0,0
25991,-111.111111111111,4,2,1,35,0,0
26680,-111.111111111111,4,2,1,50,0,0
27025,-111.111111111111,4,2,2,50,0,0
27370,-111.111111111111,4,2,1,50,0,0
27715,-111.111111111111,4,2,2,50,0,0
28060,-111.111111111111,4,2,1,50,0,0
28405,-111.111111111111,4,2,2,50,0,0
28749,-111.111111111111,4,2,1,50,0,0
29094,-111.111111111111,4,2,2,50,0,0
29439,-111.111111111111,4,2,1,50,0,0
29784,-111.111111111111,4,2,2,50,0,0
30129,-111.111111111111,4,2,1,50,0,0
30474,-111.111111111111,4,2,2,50,0,0
30818,-111.111111111111,4,2,1,50,0,0
31164,-111.111111111111,4,2,2,50,0,0
31508,-111.111111111111,4,2,1,50,0,0
31853,-111.111111111111,4,2,2,50,0,0
32198,-111.111111111111,4,2,1,50,0,0
32543,-111.111111111111,4,2,2,50,0,0
32887,-111.111111111111,4,2,1,50,0,0
33232,-111.111111111111,4,2,2,50,0,0
33577,-111.111111111111,4,2,1,50,0,0
33922,-111.111111111111,4,2,2,50,0,0
34267,-111.111111111111,4,2,1,50,0,0
34612,-111.111111111111,4,2,2,50,0,0
34956,-111.111111111111,4,2,1,50,0,0
35301,-111.111111111111,4,2,2,50,0,0
35646,-111.111111111111,4,2,1,50,0,0
35991,-111.111111111111,4,2,2,50,0,0
36336,-111.111111111111,4,2,1,50,0,0
36680,-111.111111111111,4,2,2,50,0,0
37715,-111.111111111111,4,2,1,50,0,0
38060,-111.111111111111,4,2,2,50,0,0
38405,-111.111111111111,4,2,1,50,0,0
38750,-111.111111111111,4,2,2,50,0,0
39094,-111.111111111111,4,2,1,50,0,0
39439,-111.111111111111,4,2,2,50,0,0
39784,-111.111111111111,4,2,1,50,0,0
40129,-111.111111111111,4,2,2,50,0,0
40474,-111.111111111111,4,2,1,50,0,0
40818,-111.111111111111,4,2,2,50,0,0
41163,-111.111111111111,4,2,1,50,0,0
41508,-111.111111111111,4,2,2,50,0,0
41852,-111.111111111111,4,2,1,50,0,0
42197,-111.111111111111,4,2,2,50,0,0
42542,-111.111111111111,4,2,1,50,0,0
42887,-111.111111111111,4,2,2,50,0,0
43232,-111.111111111111,4,2,1,50,0,0
43577,-111.111111111111,4,2,2,50,0,0
43922,-111.111111111111,4,2,1,50,0,0
44267,-111.111111111111,4,2,2,50,0,0
44611,-111.111111111111,4,2,1,50,0,0
44956,-111.111111111111,4,2,2,50,0,0
45301,-111.111111111111,4,2,1,50,0,0
45646,-111.111111111111,4,2,2,50,0,0
46163,-111.111111111111,4,2,1,50,0,0
46508,-111.111111111111,4,2,2,50,0,0
46680,-111.111111111111,4,2,1,50,0,0
47025,-111.111111111111,4,2,2,50,0,0
47198,-111.111111111111,4,2,1,50,0,0
47542,-111.111111111111,4,2,2,50,0,0
47715,-111.111111111111,4,2,1,50,0,0
48060,-111.111111111111,4,2,2,50,0,0
48146,-111.111111111111,4,2,1,50,0,0
48318,-111.111111111111,4,2,2,50,0,0
48749,-111.111111111111,4,2,4,60,0,0
57025,-111.111111111111,4,2,1,60,0,0
57370,-111.111111111111,4,2,2,60,0,0
57542,-111.111111111111,4,2,1,60,0,0
57715,-111.111111111111,4,2,2,60,0,0
58232,-111.111111111111,4,2,1,60,0,0
58405,-111.111111111111,4,2,1,70,0,0
59042,370.37037037037,4,2,1,40,1,0
59042,-111.111111111111,4,2,1,40,0,0
59784,344.827586206897,4,2,1,75,1,1
59784,-90.9090909090909,4,2,1,75,0,1
60129,-90.9090909090909,4,2,2,75,0,1
60473,-90.9090909090909,4,2,1,75,0,1
60818,-90.9090909090909,4,2,2,75,0,1
61163,-90.9090909090909,4,2,1,75,0,1
61508,-90.9090909090909,4,2,2,75,0,1
61853,-90.9090909090909,4,2,1,75,0,1
62198,-90.9090909090909,4,2,2,75,0,1
62542,-90.9090909090909,4,2,1,75,0,1
62887,-90.9090909090909,4,2,2,75,0,1
63231,-90.9090909090909,4,2,1,75,0,1
63576,-90.9090909090909,4,2,2,75,0,1
63921,-90.9090909090909,4,2,1,75,0,1
64267,-90.9090909090909,4,2,2,75,0,1
64611,-90.9090909090909,4,2,1,75,0,1
64956,-90.9090909090909,4,2,2,75,0,1
65301,-90.9090909090909,4,2,1,75,0,1
65646,-90.9090909090909,4,2,2,75,0,1
65991,-90.9090909090909,4,2,1,75,0,1
66335,-90.9090909090909,4,2,2,75,0,1
66680,-90.9090909090909,4,2,1,75,0,1
67025,-90.9090909090909,4,2,2,75,0,1
67370,-90.9090909090909,4,2,1,75,0,1
67715,-90.9090909090909,4,2,2,75,0,1
68060,-90.9090909090909,4,2,1,75,0,1
68405,-90.9090909090909,4,2,2,75,0,1
68749,-90.9090909090909,4,2,1,75,0,1
69094,-90.9090909090909,4,2,2,75,0,1
69267,-90.9090909090909,4,2,3,75,0,1
69439,-90.9090909090909,4,2,1,75,0,1
69784,-90.9090909090909,4,2,3,75,0,1
70129,-90.9090909090909,4,2,1,75,0,1
70473,-90.9090909090909,4,2,2,75,0,1
70818,-90.9090909090909,4,2,1,75,0,1
71163,-90.9090909090909,4,2,2,75,0,1
71508,-90.9090909090909,4,2,1,75,0,1
71852,-90.9090909090909,4,2,2,75,0,1
72197,-90.9090909090909,4,2,1,75,0,1
72542,-90.9090909090909,4,2,2,75,0,1
72887,-90.9090909090909,4,2,1,75,0,1
73232,-90.9090909090909,4,2,2,75,0,1
73577,-90.9090909090909,4,2,1,75,0,1
73922,-90.9090909090909,4,2,2,75,0,1
74266,-90.9090909090909,4,2,1,75,0,1
74611,-90.9090909090909,4,2,2,75,0,1
74956,-90.9090909090909,4,2,1,75,0,1
75301,-90.9090909090909,4,2,2,75,0,1
75473,-90.9090909090909,4,2,1,75,0,1
75646,-90.9090909090909,4,2,2,75,0,1
75818,-90.9090909090909,4,2,1,75,0,1
75991,-90.9090909090909,4,2,2,75,0,1
76508,-90.9090909090909,4,2,1,75,0,1
76853,-90.9090909090909,4,2,2,75,0,1
77025,-90.9090909090909,4,2,1,75,0,1
77371,-90.9090909090909,4,2,2,75,0,1
77542,-90.9090909090909,4,2,1,75,0,1
77888,-90.9090909090909,4,2,2,75,0,1
78060,-90.9090909090909,4,2,1,75,0,1
78405,-90.9090909090909,4,2,2,75,0,1
78577,-90.9090909090909,4,2,1,75,0,1
78749,-90.9090909090909,4,2,2,75,0,1
79094,-90.9090909090909,4,2,1,75,0,1
79439,-90.9090909090909,4,2,2,75,0,1
79784,-90.9090909090909,4,2,1,75,0,1
80129,-90.9090909090909,4,2,2,75,0,1
80473,-90.9090909090909,4,2,1,75,0,1
80818,-90.9090909090909,4,2,2,75,0,1
81163,-90.9090909090909,4,2,1,75,0,1
81508,-90.9090909090909,4,2,2,75,0,1
82025,-90.9090909090909,4,2,1,75,0,1
82198,-90.9090909090909,4,2,2,75,0,1
82370,-90.9090909090909,4,2,1,75,0,1
82542,-90.9090909090909,4,2,2,75,0,1
82715,-90.9090909090909,4,2,1,75,0,1
82801,-90.9090909090909,4,2,2,75,0,1
83060,-90.9090909090909,4,2,1,75,0,1
83577,-111.111111111111,4,2,1,75,0,0
84611,-111.111111111111,4,2,1,55,0,0
84956,-111.111111111111,4,2,2,55,0,0
85300,-111.111111111111,4,2,1,55,0,0
85645,-111.111111111111,4,2,2,55,0,0
85990,-111.111111111111,4,2,1,55,0,0
86335,-111.111111111111,4,2,2,55,0,0
86680,-111.111111111111,4,2,1,55,0,0
87025,-111.111111111111,4,2,2,55,0,0
87370,-111.111111111111,4,2,1,55,0,0
87715,-111.111111111111,4,2,2,55,0,0
88059,-111.111111111111,4,2,1,55,0,0
88404,-111.111111111111,4,2,2,55,0,0
88749,-111.111111111111,4,2,1,55,0,0
89094,-111.111111111111,4,2,2,55,0,0
89439,-111.111111111111,4,2,1,55,0,0
89784,-111.111111111111,4,2,2,55,0,0
90129,-111.111111111111,4,2,1,55,0,0
90474,-111.111111111111,4,2,2,55,0,0
90818,-111.111111111111,4,2,1,55,0,0
91163,-111.111111111111,4,2,2,55,0,0
91508,-111.111111111111,4,2,1,55,0,0
91853,-111.111111111111,4,2,2,55,0,0
92198,-111.111111111111,4,2,1,55,0,0
92543,-111.111111111111,4,2,2,55,0,0
92887,-111.111111111111,4,2,1,55,0,0
93232,-111.111111111111,4,2,2,55,0,0
93576,-111.111111111111,4,2,1,55,0,0
93921,-111.111111111111,4,2,2,55,0,0
94266,-111.111111111111,4,2,1,55,0,0
94611,-111.111111111111,4,2,2,55,0,0
94784,-111.111111111111,4,2,1,55,0,0
94956,-111.111111111111,4,2,2,55,0,0
95646,-111.111111111111,4,2,1,55,0,0
95991,-111.111111111111,4,2,2,55,0,0
96335,-111.111111111111,4,2,1,55,0,0
96680,-111.111111111111,4,2,2,55,0,0
97025,-111.111111111111,4,2,1,55,0,0
97370,-111.111111111111,4,2,2,55,0,0
97715,-111.111111111111,4,2,1,55,0,0
98060,-111.111111111111,4,2,2,55,0,0
98405,-111.111111111111,4,2,1,55,0,0
98750,-111.111111111111,4,2,2,55,0,0
99094,-111.111111111111,4,2,1,55,0,0
99439,-111.111111111111,4,2,2,55,0,0
99784,-111.111111111111,4,2,1,55,0,0
100129,-111.111111111111,4,2,2,55,0,0
100474,-111.111111111111,4,2,1,55,0,0
100819,-111.111111111111,4,2,2,55,0,0
101164,-111.111111111111,4,2,1,55,0,0
101509,-111.111111111111,4,2,2,55,0,0
101853,-111.111111111111,4,2,1,55,0,0
102198,-111.111111111111,4,2,2,55,0,0
102543,-111.111111111111,4,2,1,55,0,0
102888,-111.111111111111,4,2,2,55,0,0
103233,-111.111111111111,4,2,1,55,0,0
103578,-111.111111111111,4,2,2,55,0,0
103922,-111.111111111111,4,2,1,55,0,0
104439,-111.111111111111,4,2,2,55,0,0
104611,-111.111111111111,4,2,1,55,0,0
104956,-111.111111111111,4,2,2,55,0,0
105129,-111.111111111111,4,2,1,55,0,0
105474,-111.111111111111,4,2,2,55,0,0
105646,-111.111111111111,4,2,1,55,0,0
105991,-111.111111111111,4,2,2,55,0,0
106077,-111.111111111111,4,2,1,55,0,0
106249,-111.111111111111,4,2,2,55,0,0
106680,-111.111111111111,4,2,4,60,0,0
114956,-111.111111111111,4,2,1,50,0,0
115301,-111.111111111111,4,2,2,50,0,0
115473,-111.111111111111,4,2,1,50,0,0
115646,-111.111111111111,4,2,2,50,0,0
116163,-111.111111111111,4,2,1,50,0,0
116336,-111.111111111111,4,2,1,60,0,0
118749,-111.111111111111,4,2,2,50,0,0
119094,-90.9090909090909,4,2,1,75,0,1
119439,-90.9090909090909,4,2,2,75,0,1
119783,-90.9090909090909,4,2,1,75,0,1
120128,-90.9090909090909,4,2,2,75,0,1
120473,-90.9090909090909,4,2,1,75,0,1
120818,-90.9090909090909,4,2,2,75,0,1
121163,-90.9090909090909,4,2,1,75,0,1
121508,-90.9090909090909,4,2,2,75,0,1
121852,-90.9090909090909,4,2,1,75,0,1
122197,-90.9090909090909,4,2,2,75,0,1
122541,-90.9090909090909,4,2,1,75,0,1
122886,-90.9090909090909,4,2,2,75,0,1
123231,-90.9090909090909,4,2,1,75,0,1
123577,-90.9090909090909,4,2,2,75,0,1
123921,-90.9090909090909,4,2,1,75,0,1
124266,-90.9090909090909,4,2,2,75,0,1
124611,-90.9090909090909,4,2,1,75,0,1
124956,-90.9090909090909,4,2,2,75,0,1
125301,-90.9090909090909,4,2,1,75,0,1
125645,-90.9090909090909,4,2,2,75,0,1
125990,-90.9090909090909,4,2,1,75,0,1
126335,-90.9090909090909,4,2,2,75,0,1
126680,-90.9090909090909,4,2,1,75,0,1
127025,-90.9090909090909,4,2,2,75,0,1
127370,-90.9090909090909,4,2,1,75,0,1
127715,-90.9090909090909,4,2,2,75,0,1
128059,-90.9090909090909,4,2,1,75,0,1
128404,-90.9090909090909,4,2,2,75,0,1
128577,-90.9090909090909,4,2,3,75,0,1
128749,-90.9090909090909,4,2,1,75,0,1
129094,-90.9090909090909,4,2,3,75,0,1
129439,-90.9090909090909,4,2,1,75,0,1
129783,-90.9090909090909,4,2,2,75,0,1
130128,-90.9090909090909,4,2,1,75,0,1
130473,-90.9090909090909,4,2,2,75,0,1
130818,-90.9090909090909,4,2,1,75,0,1
131162,-90.9090909090909,4,2,2,75,0,1
131507,-90.9090909090909,4,2,1,75,0,1
131852,-90.9090909090909,4,2,2,75,0,1
132197,-90.9090909090909,4,2,1,75,0,1
132542,-90.9090909090909,4,2,2,75,0,1
132887,-90.9090909090909,4,2,1,75,0,1
133232,-90.9090909090909,4,2,2,75,0,1
133576,-90.9090909090909,4,2,1,75,0,1
133921,-90.9090909090909,4,2,2,75,0,1
134266,-90.9090909090909,4,2,1,75,0,1
134611,-90.9090909090909,4,2,2,75,0,1
135128,-90.9090909090909,4,2,1,75,0,1
135301,-90.9090909090909,4,2,2,75,0,1
135818,-90.9090909090909,4,2,1,75,0,1
136163,-90.9090909090909,4,2,2,75,0,1
136335,-90.9090909090909,4,2,1,75,0,1
136681,-90.9090909090909,4,2,2,75,0,1
136852,-90.9090909090909,4,2,1,75,0,1
137198,-90.9090909090909,4,2,2,75,0,1
137370,-90.9090909090909,4,2,1,75,0,1
137715,-90.9090909090909,4,2,2,75,0,1
137887,-90.9090909090909,4,2,1,75,0,1
138059,-90.9090909090909,4,2,2,75,0,1
138404,-90.9090909090909,4,2,1,75,0,1
138749,-90.9090909090909,4,2,2,75,0,1
139094,-90.9090909090909,4,2,1,75,0,1
139439,-90.9090909090909,4,2,2,75,0,1
139783,-90.9090909090909,4,2,1,75,0,1
140128,-90.9090909090909,4,2,2,75,0,1
140473,-90.9090909090909,4,2,1,75,0,1
140818,-90.9090909090909,4,2,2,75,0,1
141335,-90.9090909090909,4,2,1,75,0,1
141508,-90.9090909090909,4,2,2,75,0,1
141680,-90.9090909090909,4,2,1,75,0,1
141852,-90.9090909090909,4,2,2,75,0,1
142025,-90.9090909090909,4,2,1,75,0,1
142111,-90.9090909090909,4,2,2,75,0,1
142542,-90.9090909090909,4,2,1,75,0,1
143749,-111.111111111111,4,2,2,75,0,0

[Colours]
Combo1 : 219,155,247
Combo2 : 185,248,255
Combo3 : 150,253,138
Combo4 : 176,184,253

[HitObjects]
506,117,474,5,2,2:3:0:0:
351,20,818,1,2,2:3:0:0:
340,192,1163,5,2,2:3:0:0:
423,153,1336,1,8,2:2:0:0:
348,106,1508,1,8,2:2:0:0:
348,106,1853,6,0,P|251:127|166:140,1,165.000005035401,14|8,2:2|2:2,0:0:0:0:
124,80,2370,1,0,0:0:0:0:
76,11,2542,2,0,P|47:34|33:157,1,165.000005035401,10|8,2:2|2:2,0:0:0:0:
116,184,3060,2,0,P|122:264|71:326,1,165.000005035401,2|8,2:2|2:2,0:0:0:0:
17,255,3577,1,8,2:2:0:0:
177,349,3922,6,0,P|220:337|274:334,1,82.5000025177003,8|8,2:2|2:2,0:0:0:0:
272,241,4267,2,0,P|310:262|351:298,1,82.5000025177003,8|2,2:2|2:2,0:0:0:0:
422,344,4611,2,0,P|426:303|452:185,1,123.75000377655,14|0,2:2|0:0,0:0:0:0:
455,222,4956,1,10,2:2:0:0:
358,183,5129,6,0,P|353:142|341:90,1,82.5000025177003,2|8,2:2|2:2,0:0:0:0:
432,51,5474,2,0,P|436:92|445:132,1,82.5000025177003,10|8,2:2|2:2,0:0:0:0:
326,105,5818,2,0,P|275:94|236:-24,1,165.000005035401,2|10,2:2|2:2,0:0:0:0:
320,15,6336,1,10,2:2:0:0:
228,164,6680,5,10,2:2:0:0:
163,107,6853,1,10,2:2:0:0:
86,142,7025,1,10,2:2:0:0:
15,92,7198,1,10,2:2:0:0:
15,92,7284,1,8,2:2:0:0:
15,92,7370,6,0,B|22:201|51:134|58:277,1,165.000005035401,14|8,2:2|2:2,0:0:0:0:
119,313,7887,1,0,0:0:0:0:
119,313,8060,2,0,B|152:286|120:266|176:216,2,82.5000025177003,10|8|8,2:2|2:2|2:2,0:0:0:0:
47,360,8577,2,0,P|87:355|249:332,1,165.000005035401,2|8,2:2|2:2,0:0:0:0:
245,256,9094,1,8,2:2:0:0:
403,337,9439,6,0,P|458:345|514:351,1,82.5000025177003,8|8,2:2|2:2,0:0:0:0:
457,258,9784,1,8,2:2:0:0:
360,260,9956,1,2,2:2:0:0:
360,260,10129,6,0,P|327:223|335:167,1,82.5000025177003,14|0,2:2|0:0,0:0:0:0:
413,183,10474,1,10,2:2:0:0:
501,173,10646,2,0,P|506:110|436:62,1,123.75000377655,2|0,2:2|0:0,0:0:0:0:
451,76,10991,1,10,2:2:0:0:
324,191,11336,6,0,B|225:190|263:235|152:234,1,165.000005035401,2|10,2:2|2:2,0:0:0:0:
80,179,11853,2,0,P|68:138|70:85,1,82.5000025177003,10|0,2:2|0:0,0:0:0:0:
95,13,12198,5,10,2:2:0:0:
182,32,12370,1,10,2:2:0:0:
167,118,12542,1,10,2:2:0:0:
85,106,12715,1,10,2:2:0:0:
85,106,12801,1,8,2:2:0:0:
85,106,12887,6,0,P|84:147|51:286,1,165.000005035401,14|8,2:2|2:2,0:0:0:0:
27,350,13405,1,0,0:0:0:0:
119,354,13577,2,0,P|191:313|254:260,1,165.000005035401,10|8,2:2|2:2,0:0:0:0:
285,354,14094,2,0,P|330:364|456:376,1,165.000005035401,2|8,2:2|2:2,0:0:0:0:
512,313,14611,1,8,2:2:0:0:
344,185,14956,6,0,P|336:242|360:267,1,82.5000025177003,8|8,2:2|2:2,0:0:0:0:
428,287,15301,2,0,P|436:230|412:205,1,82.5000025177003,8|2,2:2|2:2,0:0:0:0:
405,127,15646,6,0,P|356:57|367:9,1,123.75000377655,14|0,2:2|0:0,0:0:0:0:
374,21,15991,1,10,2:2:0:0:
464,9,16163,2,0,P|476:53|485:108,1,82.5000025177003,2|8,2:2|2:2,0:0:0:0:
502,171,16508,1,10,2:2:0:0:
341,186,16853,6,0,P|300:178|170:147,1,165.000005035401,2|10,2:2|2:2,0:0:0:0:
150,65,17370,1,10,2:2:0:0:
61,41,17542,2,0,L|53:-14,2,41.2500012588501,0|0|10,2:2|2:2|2:2,2:2:0:0:
0,113,17887,1,10,2:2:0:0:
0,113,17974,1,8,2:2:0:0:
0,113,18060,1,10,2:2:0:0:
26,195,18232,1,10,2:2:0:0:
116,207,18405,6,0,P|126:253|143:308,1,82.5000025177003,10|8,2:2|2:2,0:0:0:0:
169,370,18749,1,10,2:2:0:0:
169,370,18922,2,0,P|215:360|270:343,1,82.5000025177003,10|8,2:2|2:2,0:0:0:0:
329,321,19267,5,10,2:2:0:0:
329,321,19440,2,0,P|319:275|302:220,1,82.5000025177003,10|8,2:2|2:2,0:0:0:0:
280,163,19784,1,10,2:2:0:0:
280,163,19957,2,0,P|234:173|179:190,1,82.5000025177003,10|8,2:2|2:2,0:0:0:0:
116,207,20301,5,10,2:2:0:0:
116,207,20474,1,10,2:2:0:0:
143,297,20646,1,8,2:2:0:0:
143,297,20732,1,8,2:2:0:0:
143,297,20818,1,10,2:2:0:0:
225,268,20991,1,8,2:2:0:0:
314,242,21163,6,0,P|406:224|486:202,1,165.000005035401,14|8,2:2|2:2,0:0:0:0:
474,205,21853,1,8,2:2:0:0:
512,126,22025,1,8,2:2:0:0:
446,77,22198,1,8,2:2:0:0:
376,123,22370,5,0,0:0:0:0:
376,123,22456,1,0,0:0:0:0:
376,123,22542,2,0,P|334:74|340:21,1,82.5000025177003,8|0,2:2|0:0,0:0:0:0:
255,1,22887,1,8,2:2:0:0:
255,1,23060,2,0,P|239:77|272:164,1,165.000005035401,0|8,0:0|2:2,0:0:0:0:
194,205,23577,1,8,2:2:0:0:
132,7,23922,6,0,P|142:48|151:98,1,82.5000025177003,12|8,2:2|2:2,0:0:0:0:
64,125,24267,2,0,P|56:165|46:205,1,82.5000025177003,8|8,2:2|2:2,0:0:0:0:
119,256,24611,1,8,2:2:0:0:
44,300,24784,1,8,2:2:0:0:
44,300,24870,1,8,2:2:0:0:
44,300,24956,1,8,2:2:0:0:
119,350,25129,6,0,B|208:335|167:313|264:306,1,134.999995880127,4|0,2:1|0:0,0:0:0:0:
316,350,25646,2,0,B|364:353|339:366|394:376,1,67.4999979400635,4|0,2:1|0:0,0:0:0:0:
455,334,25991,1,2,2:3:0:0:
486,42,26853,1,0,2:2:0:0:
420,94,27025,2,0,P|367:88|302:77,1,101.249996910095,8|0,2:2|0:0,0:0:0:0:
313,68,27370,1,8,2:2:0:0:
236,10,27542,2,0,P|186:17|135:23,1,101.249996910095,8|0,2:2|0:0,0:0:0:0:
115,40,27887,6,0,P|114:76|149:112,1,67.4999979400635,2|8,2:2|2:2,0:0:0:0:
191,161,28232,2,0,P|227:161|263:126,1,67.4999979400635,10|8,2:2|2:2,0:0:0:0:
341,162,28577,1,2,2:2:0:0:
341,162,28749,2,0,P|333:211|329:252,1,67.4999979400635,10|8,2:2|2:2,0:0:0:0:
420,261,29094,2,0,P|460:313|467:380,1,134.999995880127,10|8,2:2|2:2,0:0:0:0:
380,345,29611,5,0,0:0:0:0:
300,309,29784,2,0,L|293:387,1,67.4999979400635,8|0,2:2|0:0,0:0:0:0:
211,353,30129,1,8,2:2:0:0:
227,272,30301,1,8,2:2:0:0:
64,359,30646,6,0,P|23:306|16:239,1,134.999995880127,2|10,2:2|2:2,0:0:0:0:
63,171,31163,1,10,2:2:0:0:
63,171,31336,1,0,0:0:0:0:
124,235,31508,2,0,P|137:271|117:318,2,67.4999979400635,10|10|10,2:2|2:2|2:2,0:0:0:0:
150,150,32025,1,2,2:2:0:0:
0,61,32370,5,0,0:0:0:0:
0,61,32542,2,0,P|53:55|96:48,1,67.4999979400635,8|0,2:2|0:0,0:0:0:0:
140,0,32887,1,8,2:2:0:0:
192,72,33060,2,0,P|239:81|344:94,2,134.999995880127,8|0|8,2:2|0:0|2:2,0:0:0:0:
338,9,34094,5,0,0:0:0:0:
457,21,34267,2,0,P|414:50|417:116,1,101.249996910095,8|0,2:2|0:0,0:0:0:0:
417,102,34611,1,8,2:2:0:0:
306,181,34956,6,0,P|264:172|219:168,2,67.4999979400635,10|2|10,2:2|2:2|2:2,0:0:0:0:
396,193,35474,2,0,P|407:257|371:312,1,134.999995880127,2|10,2:2|2:2,0:0:0:0:
297,268,35991,1,10,2:2:0:0:
297,268,36163,1,0,0:0:0:0:
297,268,36336,2,0,P|263:263|230:256,2,67.4999979400635,10|10|10,2:2|2:2|2:2,0:0:0:0:
291,352,36853,5,2,2:2:0:0:
205,333,37025,2,0,P|171:337|138:341,1,67.4999979400635,8|0,2:2|0:0,0:0:0:0:
132,347,37284,1,8,2:2:0:0:
125,353,37370,1,8,2:2:0:0:
34,351,37542,1,8,2:2:0:0:
8,271,37715,6,0,P|1:232|24:182,1,67.4999979400635,12|0,2:2|0:0,0:0:0:0:
96,240,38060,2,0,P|123:221|153:204,1,67.4999979400635,8|0,2:2|0:0,0:0:0:0:
83,144,38405,1,8,2:2:0:0:
17,88,38577,2,0,L|45:15,1,67.4999979400635,8|8,2:2|2:2,0:0:0:0:
132,24,38922,6,0,P|123:88|77:148,2,134.999995880127,2|10|2,0:0|2:2|0:0,0:0:0:0:
228,0,39784,2,0,P|223:32|213:88,1,67.4999979400635,8|8,2:2|2:2,0:0:0:0:
234,152,40129,2,0,P|297:166|366:177,1,134.999995880127,8|8,2:2|2:2,0:0:0:0:
436,231,40646,5,0,0:0:0:0:
450,145,40819,2,0,P|441:115|391:95,1,67.4999979400635,8|0,2:2|0:0,0:0:0:0:
328,78,41164,1,8,2:2:0:0:
328,78,41336,1,8,2:2:0:0:
357,277,41681,6,0,P|410:318|477:325,2,134.999995880127,2|10|2,2:2|2:2|2:2,0:0:0:0:
288,336,42542,2,0,P|254:339|228:359,1,67.4999979400635,10|8,2:2|2:2,0:0:0:0:
190,270,42887,2,0,P|156:266|130:246,1,67.4999979400635,10|0,2:2|0:0,0:0:0:0:
52,271,43232,5,8,2:2:0:0:
0,204,43405,1,0,0:0:0:0:
48,133,43577,1,8,2:2:0:0:
133,162,43749,2,0,P|199:150|265:136,1,134.999995880127,0|8,0:0|2:2,0:0:0:0:
251,42,44267,5,8,2:2:0:0:
330,77,44439,2,0,P|385:115|441:152,1,134.999995880127,0|8,0:0|2:2,0:0:0:0:
512,108,44956,6,0,P|489:77|442:70,1,67.4999979400635,8|0,2:2|0:0,0:0:0:0:
410,152,45301,2,0,P|379:175|372:222,1,67.4999979400635,8|8,2:2|2:2,0:0:0:0:
442,269,45646,1,8,2:2:0:0:
442,269,45818,1,0,0:0:0:0:
393,345,45991,2,0,P|356:357|307:367,2,67.4999979400635,10|8|8,2:2|2:2|2:2,0:0:0:0:
271,301,46508,2,0,P|238:293|206:282,2,67.4999979400635,8|10|8,2:2|2:2|2:2,0:0:0:0:
133,327,47025,1,8,2:2:0:0:
133,327,47198,1,8,2:2:0:0:
58,261,47370,6,0,P|46:224|36:175,1,67.4999979400635,10|8,2:2|2:2,0:0:0:0:
106,146,47715,2,0,P|118:109|128:60,1,67.4999979400635,8|8,2:2|2:2,0:0:0:0:
54,32,48060,2,0,P|46:7|39:-23,4,33.7499989700318,10|8|8|8|8,2:2|2:2|2:2|2:2|2:2,0:0:0:0:
146,73,48577,1,8,2:2:0:0:
146,73,48749,5,4,2:3:0:0:
239,58,48922,1,4,2:3:0:0:
328,45,49094,1,4,2:3:0:0:
480,144,49784,5,4,2:3:0:0:
480,144,49956,1,4,2:3:0:0:
475,0,50301,5,4,2:3:0:0:
475,0,50474,1,4,2:3:0:0:
328,45,50818,5,4,2:3:0:0:
343,138,50991,1,4,2:3:0:0:
356,227,51163,1,4,2:3:0:0:
444,337,51508,2,0,P|475:335|516:330,2,67.4999979400635,4|4|4,2:3|2:3|2:3,0:0:0:0:
261,216,52370,6,0,P|268:259|301:291,1,67.4999979400635,4|0,2:3|0:0,0:0:0:0:
366,313,52715,2,0,P|303:324|234:373,1,134.999995880127,4|4,2:3|2:3,0:0:0:0:
181,287,53232,2,0,P|133:282|93:253,1,67.4999979400635,4|0,2:3|0:0,0:0:0:0:
43,327,53577,5,4,2:3:0:0:
30,238,53749,1,4,2:3:0:0:
15,145,53922,1,4,2:3:0:0:
199,2,54267,5,4,2:3:0:0:
184,95,54440,1,4,2:3:0:0:
171,184,54612,1,4,2:3:0:0:
171,184,54784,2,0,P|114:152|108:63,2,134.999995880127,0|4|4,0:0|2:3|2:3,0:0:0:0:
269,66,55818,5,4,2:3:0:0:
269,66,55991,2,0,P|334:82|417:98,1,134.999995880127,4|4,2:3|2:3,0:0:0:0:
461,33,56508,5,4,2:3:0:0:
461,33,56680,1,4,2:3:0:0:
364,173,57025,5,10,2:2:0:0:
451,201,57198,1,10,2:2:0:0:
452,291,57370,1,10,2:2:0:0:
452,291,57542,2,0,P|419:285|387:275,1,67.4999979400635,10|8,2:2|2:2,0:0:0:0:
296,246,57887,1,10,2:2:0:0:
296,246,57974,1,8,2:2:0:0:
296,246,58060,1,10,2:2:0:0:
319,344,58232,5,10,2:2:0:0:
319,344,58405,6,0,P|356:354|383:366,2,67.4999979400635,8|8|8,2:2|2:2|2:2,0:0:0:0:
182,187,59042,2,0,P|148:192|116:201,3,67.4999979400635,2|2|2|2,2:2|2:2|2:2|2:2,0:0:0:0:
272,146,59784,6,0,B|266:262|251:196|240:307,1,165.000005035401,14|8,2:2|2:2,0:0:0:0:
161,345,60301,1,0,0:0:0:0:
88,303,60473,2,0,P|26:250|19:170,1,165.000005035401,10|8,2:2|2:2,0:0:0:0:
87,119,60991,2,0,P|154:80|161:0,1,165.000005035401,2|8,2:2|2:2,0:0:0:0:
250,66,61508,1,8,2:2:0:0:
342,51,61680,1,0,0:0:0:0:
342,51,61767,1,0,0:0:0:0:
342,51,61853,6,0,P|385:39|394:37,3,41.2500012588501,8|0|8|0,2:2|0:0|2:2|0:0,0:0:0:0:
395,59,62198,2,0,L|477:83,1,82.5000025177003,8|2,2:2|2:2,0:0:0:0:
411,148,62542,2,0,P|406:201|467:259,1,123.75000377655,14|0,2:2|0:0,0:0:0:0:
461,248,62887,1,10,2:2:0:0:
503,325,63060,6,0,P|462:333|421:338,1,82.5000025177003,2|8,2:2|2:2,0:0:0:0:
352,279,63405,2,0,P|311:269|270:265,1,82.5000025177003,10|8,2:2|2:2,0:0:0:0:
182,254,63749,2,0,P|205:330|280:360,1,165.000005035401,2|10,2:2|2:2,0:0:0:0:
270,265,64267,1,10,2:2:0:0:
100,213,64611,5,10,2:2:0:0:
20,158,64784,1,10,2:2:0:0:
64,79,64956,1,10,2:2:0:0:
150,132,65129,1,10,2:2:0:0:
150,132,65215,1,8,2:2:0:0:
150,132,65301,6,0,B|225:119|335:89,1,165.000005035401,14|8,2:2|2:2,0:0:0:0:
399,132,65818,1,0,0:0:0:0:
389,44,65991,2,0,B|353:23|320:0,2,82.5000025177003,10|8|8,2:2|2:2|2:2,0:0:0:0:
474,0,66508,2,0,P|477:49|502:202,1,165.000005035401,2|8,2:2|2:2,0:0:0:0:
417,215,67025,5,8,2:2:0:0:
325,192,67198,1,0,0:0:0:0:
325,192,67285,1,0,0:0:0:0:
325,192,67371,6,0,P|282:204|273:206,3,41.2500012588501,8|0|8|0,2:2|0:0|2:2|0:0,0:0:0:0:
264,222,67716,2,0,L|184:245,1,82.5000025177003,8|2,2:2|2:2,0:0:0:0:
106,290,68060,6,0,P|73:253|81:197,1,82.5000025177003,14|0,2:2|0:0,0:0:0:0:
177,159,68405,1,10,2:2:0:0:
177,159,68577,2,0,P|182:96|112:48,1,123.75000377655,2|0,2:2|0:0,0:0:0:0:
125,57,68922,1,10,2:2:0:0:
105,289,69267,6,0,P|78:200|62:117,1,165.000005035401,2|10,2:2|2:2,0:0:0:0:
39,47,69784,1,10,2:2:0:0:
275,51,70129,5,10,2:2:0:0:
292,49,70215,1,8,2:2:0:0:
310,47,70301,1,10,2:2:0:0:
325,46,70387,1,8,2:2:0:0:
342,45,70473,1,10,2:2:0:0:
447,40,70646,1,10,2:2:0:0:
447,40,70818,6,0,B|434:86|434:86|490:124|481:220,1,165.000005035401,14|8,2:2|2:2,0:0:0:0:
506,273,71336,1,0,0:0:0:0:
427,326,71508,6,0,P|400:237|384:154,1,165.000005035401,10|8,2:2|2:2,0:0:0:0:
298,146,72025,2,0,P|246:189|258:309,1,165.000005035401,2|8,2:2|2:2,0:0:0:0:
325,308,72542,1,8,2:2:0:0:
270,373,72714,1,0,0:0:0:0:
270,373,72801,1,0,0:0:0:0:
270,373,72887,6,0,P|227:385|218:387,4,41.2500012588501,8|0|8|0|8,2:2|0:0|2:2|0:0|2:2,0:0:0:0:
149,347,73405,1,2,2:2:0:0:
149,347,73577,6,0,P|100:277|101:225,1,123.75000377655,14|0,2:2|0:0,0:0:0:0:
105,226,73922,1,10,2:2:0:0:
81,142,74094,2,0,P|37:130|-18:121,1,82.5000025177003,2|8,2:2|2:2,0:0:0:0:
0,38,74439,1,10,2:2:0:0:
178,88,74784,6,0,P|184:130|163:171,1,82.5000025177003,2|8,2:2|2:2,0:0:0:0:
84,115,75129,2,0,P|78:73|99:32,1,82.5000025177003,10|10,2:2|2:2,0:0:0:0:
172,0,75473,1,8,2:2:0:0:
250,52,75646,1,10,2:2:0:0:
250,52,75818,1,10,2:2:0:0:
312,0,75991,1,10,2:2:0:0:
312,0,76163,1,10,2:2:0:0:
359,75,76336,6,0,P|405:85|460:102,1,82.5000025177003,10|8,2:2|2:2,0:0:0:0:
500,159,76680,1,10,2:2:0:0:
500,159,76853,2,0,P|504:205|505:263,1,82.5000025177003,10|8,2:2|2:2,0:0:0:0:
457,315,77198,5,10,2:2:0:0:
457,315,77371,2,0,P|413:333|359:352,1,82.5000025177003,10|8,2:2|2:2,0:0:0:0:
293,328,77715,5,10,2:2:0:0:
293,328,77888,2,0,P|261:292|227:246,1,82.5000025177003,10|8,2:2|2:2,0:0:0:0:
254,171,78232,5,10,2:2:0:0:
254,171,78405,1,10,2:2:0:0:
348,168,78577,1,8,2:2:0:0:
348,168,78663,1,8,2:2:0:0:
348,168,78749,1,10,2:2:0:0:
392,251,78922,1,8,2:2:0:0:
380,345,79094,6,0,P|368:388|366:397,4,41.2500012588501,14|0|0|0|8,2:2|0:0|0:0|0:0|2:2,0:0:0:0:
161,289,79784,1,8,2:2:0:0:
84,321,79956,1,8,2:2:0:0:
30,256,80129,2,0,L|39:160,1,82.5000025177003,8|0,2:2|0:0,0:0:0:0:
66,158,80387,1,0,0:0:0:0:
66,158,80473,2,0,P|109:189|111:231,2,82.5000025177003,8|0|8,2:2|0:0|2:2,0:0:0:0:
41,70,80991,6,0,B|138:66|115:100|211:98,1,165.000005035401,0|8,0:0|2:2,0:0:0:0:
185,15,81508,1,8,2:2:0:0:
406,0,81853,5,12,2:2:0:0:
406,0,81939,1,0,0:0:0:0:
406,0,82025,1,8,2:2:0:0:
346,65,82198,2,0,P|329:111|342:149,1,82.5000025177003,8|8,2:2|2:2,0:0:0:0:
431,155,82542,1,8,2:2:0:0:
431,155,82629,1,0,0:0:0:0:
431,154,82715,2,0,P|438:136|435:116,2,41.2500012588501,8|8|8,2:2|2:2|2:2,0:0:0:0:
377,218,83060,6,0,B|367:299,3,82.5000025177003,4|4|4|4,2:1|2:1|2:1|2:1,0:0:0:0:
36,78,95474,5,8,2:2:0:0:
36,78,95560,1,8,2:2:0:0:
36,78,95646,2,0,B|61:90|61:90|180:64,1,134.999995880127,12|8,2:2|2:2,0:0:0:0:
4,158,96336,2,0,B|-10:192|-10:192|6:230,1,67.4999979400635,8|8,2:2|2:2,0:0:0:0:
80,289,96680,1,8,2:2:0:0:
80,289,96853,2,0,B|117:234|117:234|89:166,1,134.999995880127,0|8,0:0|2:2,0:0:0:0:
181,151,97370,5,8,2:2:0:0:
176,303,97715,2,0,L|248:319,1,67.4999979400635,8|8,2:2|2:2,0:0:0:0:
326,333,98060,1,8,2:2:0:0:
463,354,98405,6,0,B|450:321|450:321|472:281,2,67.4999979400635,8|0|8,2:2|0:0|2:2,0:0:0:0:
380,259,98922,2,0,B|399:214|399:214|376:141,1,101.249996910095
367,160,99267,1,8,2:2:0:0:
314,93,99439,1,8,2:2:0:0:
359,22,99611,1,0,0:0:0:0:
441,43,99784,1,8,2:2:0:0:
458,125,99956,1,8,2:2:0:0:
258,231,100301,6,0,B|253:155|253:155|233:133|233:133|228:21,1,202.499993820191,0|8,0:0|2:2,0:0:0:0:
256,192,101163,12,8,103577,2:2:0:0:
302,164,103922,6,0,P|325:142|363:114,2,67.4999979400635,8|8|8,2:2|2:2|2:2,0:0:0:0:
208,166,104439,2,0,P|178:157|134:138,2,67.4999979400635,8|8|8,2:2|2:2|2:2,0:0:0:0:
257,245,104956,2,0,P|264:276|270:323,1,67.4999979400635,8|8,2:2|2:2,0:0:0:0:
214,371,105301,1,8,2:2:0:0:
159,303,105474,1,8,2:2:0:0:
74,299,105646,1,8,2:2:0:0:
31,229,105818,5,8,2:2:0:0:
31,229,105905,1,8,2:2:0:0:
31,229,105991,2,0,P|25:181|13:118,1,101.249996910095,8|8,2:2|2:2,0:0:0:0:
20,117,106336,2,0,P|46:90|95:93,1,67.4999979400635,8|8,2:2|2:2,0:0:0:0:
131,151,106680,5,4,2:3:0:0:
173,74,106853,1,4,2:3:0:0:
218,0,107025,1,4,2:3:0:0:
456,130,107715,5,4,2:3:0:0:
456,130,107887,1,4,2:3:0:0:
387,12,108232,5,4,2:3:0:0:
387,12,108405,1,4,2:3:0:0:
269,76,108749,5,4,2:3:0:0:
314,150,108922,1,4,2:3:0:0:
356,226,109094,1,4,2:3:0:0:
470,364,109439,6,0,P|487:334|476:296,2,67.4999979400635,4|4|4,2:3|2:3|2:3,0:0:0:0:
270,241,110301,6,0,P|287:269|286:302,1,67.4999979400635,4|0,2:3|0:0,0:0:0:0:
206,321,110646,2,0,P|133:331|62:345,1,134.999995880127,4|4,2:3|2:3,0:0:0:0:
20,273,111163,2,0,P|0:243|10:189,1,67.4999979400635,4|0,2:3|0:0,0:0:0:0:
93,224,111508,5,4,2:3:0:0:
180,225,111680,1,4,2:3:0:0:
267,224,111853,1,4,2:3:0:0:
362,60,112198,5,4,2:3:0:0:
362,60,112371,1,4,2:3:0:0:
328,147,112543,1,4,2:3:0:0:
328,147,112715,2,0,P|271:115|265:26,2,134.999995880127,0|4|4,0:0|2:3|2:3,0:0:0:0:
460,50,113749,5,4,2:3:0:0:
460,50,113922,2,0,P|444:115|428:198,1,134.999995880127,4|4,2:3|2:3,0:0:0:0:
376,248,114439,1,4,2:3:0:0:
376,248,114611,1,4,2:3:0:0:
246,358,114956,5,10,2:2:0:0:
161,336,115129,1,10,2:2:0:0:
77,316,115301,1,10,2:2:0:0:
77,316,115473,2,0,P|83:283|93:251,1,67.4999979400635,10|8,2:2|2:2,0:0:0:0:
115,170,115818,1,10,2:2:0:0:
115,170,115905,1,8,2:2:0:0:
115,170,115991,1,10,2:2:0:0:
25,125,116163,1,0,0:0:0:0:
34,40,116336,6,0,P|63:34|146:95,2,134.999995880127,8|2|8,2:1|2:1|2:1,0:0:0:0:
29,125,117198,1,8,2:1:0:0:
29,125,117370,1,2,2:1:0:0:
204,157,117715,5,8,2:1:0:0:
235,81,117887,1,8,2:1:0:0:
235,81,117974,1,8,2:1:0:0:
235,81,118060,1,2,2:1:0:0:
319,101,118232,1,2,2:1:0:0:
296,187,118405,1,8,2:1:0:0:
296,187,118577,1,2,2:1:0:0:
382,160,118749,6,0,P|431:153|463:115,1,101.249996910095,12|0,2:2|0:0,0:0:0:0:
482,104,119094,6,0,P|461:201|448:286,1,165.000005035401,14|8,2:2|2:2,0:0:0:0:
476,348,119611,1,0,0:0:0:0:
388,323,119784,2,0,P|340:256|296:187,1,165.000005035401,10|8,2:2|2:2,0:0:0:0:
254,276,120301,2,0,P|172:262|92:244,1,165.000005035401,2|8,2:2|2:2,0:0:0:0:
14,284,120818,1,8,2:2:0:0:
123,167,121163,6,0,P|131:125|110:80,1,82.5000025177003,8|8,2:2|2:2,0:0:0:0:
36,123,121508,2,0,P|22:84|31:45,1,82.5000025177003,8|2,2:2|2:2,0:0:0:0:
126,73,121852,6,0,P|201:62|279:42,1,123.75000377655,14|0,2:2|0:0,0:0:0:0:
255,34,122197,1,10,2:2:0:0:
314,104,122370,2,0,P|353:97|412:78,1,82.5000025177003,2|8,2:2|2:2,0:0:0:0:
466,28,122715,2,0,P|485:67|479:109,1,82.5000025177003,10|8,2:2|2:2,0:0:0:0:
483,202,123059,2,0,P|435:184|400:63,1,165.000005035401,2|10,2:2|2:2,0:0:0:0:
336,14,123577,1,10,2:2:0:0:
325,189,123921,5,10,2:2:0:0:
380,249,124094,1,10,2:2:0:0:
365,328,124266,1,10,2:2:0:0:
457,343,124439,1,10,2:2:0:0:
457,343,124525,1,8,2:2:0:0:
457,343,124611,6,0,B|348:350|415:379|272:386,1,165.000005035401,14|8,2:2|2:2,0:0:0:0:
242,316,125128,1,0,0:0:0:0:
242,316,125301,2,0,P|243:275|291:227,2,82.5000025177003,10|8|8,2:2|2:2|2:2,0:0:0:0:
161,355,125818,6,0,B|45:349|112:320|3:313,1,165.000005035401,2|8,2:2|2:2,0:0:0:0:
20,231,126335,1,8,2:2:0:0:
148,269,126680,6,0,P|157:215|161:173,1,82.5000025177003,8|8,2:2|2:2,0:0:0:0:
78,162,127025,1,8,2:2:0:0:
5,112,127197,1,2,2:2:0:0:
5,112,127370,6,0,P|42:79|98:87,1,82.5000025177003,14|0,2:2|0:0,0:0:0:0:
156,70,127715,1,10,2:2:0:0:
156,70,127887,2,0,P|200:110|260:104,1,123.75000377655,2|0,2:2|0:0,0:0:0:0:
265,87,128232,1,10,2:2:0:0:
512,140,128577,6,0,P|427:133|328:119,1,165.000005035401,2|10,2:2|2:2,0:0:0:0:
400,42,129094,2,0,P|435:48|487:52,1,82.5000025177003,10|0,2:2|0:0,0:0:0:0:
512,140,129439,5,10,2:2:0:0:
508,229,129611,1,10,2:2:0:0:
430,273,129783,1,10,2:2:0:0:
359,217,129956,1,10,2:2:0:0:
359,217,130042,1,8,2:2:0:0:
359,217,130129,6,0,P|318:216|230:304,1,165.000005035401,14|8,2:2|2:2,0:0:0:0:
307,347,130647,1,0,0:0:0:0:
214,384,130818,6,0,P|149:336|136:257,1,165.000005035401,10|8,2:2|2:2,0:0:0:0:
38,282,131336,2,0,P|44:199|60:119,1,165.000005035401,2|8,2:2|2:2,0:0:0:0:
139,88,131853,1,8,2:2:0:0:
227,62,132025,1,0,0:0:0:0:
227,62,132112,1,0,0:0:0:0:
227,62,132198,2,0,P|261:54|279:48,4,41.2500012588501,8|0|8|0|8,2:2|0:0|2:2|0:0|2:2,0:0:0:0:
356,0,132716,5,2,2:2:0:0:
356,0,132888,2,0,P|354:64|345:131,1,123.75000377655,14|0,2:2|0:0,0:0:0:0:
364,145,133233,1,10,2:2:0:0:
448,121,133405,2,0,P|485:93|495:48,1,82.5000025177003,2|8,2:2|2:2,0:0:0:0:
435,0,133750,1,10,2:2:0:0:
512,191,134095,6,0,P|476:208|434:236,1,82.5000025177003,2|8,2:2|2:2,0:0:0:0:
443,321,134439,1,10,2:2:0:0:
443,321,134611,2,0,P|403:312|362:312,1,82.5000025177003,10|0,2:2|0:0,0:0:0:0:
282,349,134957,1,10,2:2:0:0:
267,266,135129,1,10,2:2:0:0:
267,266,135215,1,8,2:2:0:0:
267,266,135302,1,10,2:2:0:0:
190,301,135474,5,10,2:2:0:0:
190,301,135647,2,0,P|145:295|84:282,1,82.5000025177003,10|8,2:2|2:2,0:0:0:0:
42,230,135991,5,10,2:2:0:0:
42,230,136164,2,0,P|24:188|5:128,1,82.5000025177003,10|8,2:2|2:2,0:0:0:0:
55,72,136508,5,10,2:2:0:0:
55,72,136681,2,0,P|82:36|124:-10,1,82.5000025177003,10|8,2:2|2:2,0:0:0:0:
196,13,137025,5,10,2:2:0:0:
196,13,137198,2,0,P|241:19|302:32,1,82.5000025177003,10|8,2:2|2:2,0:0:0:0:
338,101,137543,5,10,2:2:0:0:
338,101,137716,1,10,2:2:0:0:
266,157,137888,1,8,2:2:0:0:
266,157,137974,1,8,2:2:0:0:
266,157,138060,1,10,2:2:0:0:
347,216,138233,1,8,2:2:0:0:
347,216,138404,6,0,P|426:202|519:176,1,165.000005035401,14|8,2:2|2:2,0:0:0:0:
507,179,139094,1,8,2:2:0:0:
512,274,139266,1,8,2:2:0:0:
441,328,139439,1,8,2:2:0:0:
351,295,139611,5,0,0:0:0:0:
351,295,139697,1,0,0:0:0:0:
351,295,139784,2,0,P|321:306|297:308,3,41.2500012588501,8|0|0|0,2:2|0:0|0:0|0:0,0:0:0:0:
276,290,140129,2,0,P|255:285|236:277,3,41.2500012588501,8|0|0|0,2:2|0:0|0:0|0:0,0:0:0:0:
211,303,140474,2,0,P|158:312|119:314,1,82.5000025177003,8|8,2:2|2:2,0:0:0:0:
41,273,140818,2,0,P|33:252|37:227,3,41.2500012588501,8|0|0|0,2:2|0:0|0:0|0:0,0:0:0:0:
25,223,141163,6,0,P|40:186|81:166,1,82.5000025177003,12|8,2:2|2:2,0:0:0:0:
141,226,141508,2,0,P|178:210|197:174,1,82.5000025177003,8|8,2:2|2:2,0:0:0:0:
143,102,141852,1,8,2:2:0:0:
68,57,142025,1,8,2:2:0:0:
68,57,142111,1,8,2:2:0:0:
68,57,142197,1,8,2:2:0:0:
146,14,142370,1,8,2:2:0:0:
223,66,142542,6,0,L|305:80,3,82.5000025177003,8|8|8|8,2:2|2:2|2:2|2:2,0:0:0:0:
353,171,143232,1,2,2:3:0:0:
353,171,143318,1,2,2:3:0:0:
353,171,143405,1,2,2:3:0:0:
278,232,143577,1,8,2:2:0:0:
326,315,143749,1,12,2:2:0:0:
256,192,143836,12,0,149267,0:0:0:0:
