osu file format v14

[General]
AudioFilename: audio.ogg
AudioLeadIn: 2000
PreviewTime: 118308
Countdown: 0
SampleSet: Soft
StackLeniency: 0.5
Mode: 0
LetterboxInBreaks: 1
WidescreenStoryboard: 1

[Editor]
Bookmarks: 21584,22273,22963,23308,23653,24342,26157
DistanceSpacing: 0.8
BeatDivisor: 4
GridSize: 16
TimelineZoom: 1.4

[Metadata]
Title:Yuujou Pop
TitleUnicode:友情ぽっぷ
Artist:Chata
ArtistUnicode:茶太
Creator:bakery
Version:Djulus' Insane
Source:太鼓の達人12 ド~ン!と増量版
Tags:Taiko no Tatsujin ポップ asapbakery laplus mirawi みらゐ Gin ginn Sato satou 在藤 銀 Yasunori Matsuya video rhythm game japanese pop arcade jpop female djulus hinamommy -mikanmymommy
BeatmapID:3972881
BeatmapSetID:1922564

[Difficulty]
HPDrainRate:6
CircleSize:4
OverallDifficulty:8.5
ApproachRate:8
SliderMultiplier:1.6
SliderTickRate:1

[Events]
//Background and Video events
0,0,"pop.png",0,0
//Break Periods
//Storyboard Layer 0 (Background)
//Storyboard Layer 1 (Fail)
//Storyboard Layer 2 (Pass)
//Storyboard Layer 3 (Foreground)
//Storyboard Layer 4 (Overlay)
//Storyboard Sound Samples

[TimingPoints]
474,344.827586206897,4,2,0,60,1,0
1508,-181.818181818181,4,2,0,60,0,0
1853,-90.9090909090909,4,2,0,70,0,0
12198,-133.333333333333,4,2,0,70,0,0
12887,-90.9090909090909,4,2,0,70,0,0
25991,-90.9090909090909,4,2,0,45,0,0
26680,-125,4,2,0,50,0,0
37715,-100,4,2,0,50,0,0
48749,-95.2380952380952,4,2,0,50,0,0
57025,-95.2380952380952,4,2,0,60,0,0
58405,-55.5555555555556,4,2,0,65,0,0
59042,370.37037037037,4,2,0,60,1,0
59042,-133.333333333333,4,2,0,60,0,0
59784,344.827586206897,4,2,0,70,1,0
59784,-90.9090909090909,4,2,0,70,0,0
76336,-90.9090909090909,4,2,0,70,0,0
79094,-90.9090909090909,4,2,0,70,0,0
84267,-100,4,2,0,60,0,0
84611,-90.9090909090909,4,2,0,60,0,0
101163,-100,4,2,0,60,0,0
105301,-100,4,2,0,60,0,0
106680,-95.2380952380951,4,2,0,50,0,0
114956,-95.2380952380951,4,2,0,60,0,0
116338,-100,4,2,0,65,0,0
117715,-80,4,2,0,65,0,0
118405,-181.818181818181,4,2,0,65,0,0
119094,-90.9090909090909,4,2,0,70,0,0
129439,-133.333333333333,4,2,0,70,0,0
130129,-90.9090909090909,4,2,0,70,0,0
149267,-83.3333333333333,4,2,0,30,0,0

[Colours]
Combo1 : 255,174,215
Combo2 : 128,255,0
Combo3 : 74,189,251
Combo4 : 151,255,151

[HitObjects]
227,165,474,5,2,0:3:0:0:
227,165,818,1,2,0:3:0:0:
227,165,1163,1,2,0:3:0:0:
227,165,1336,1,0,3:0:0:0:
227,165,1508,2,0,L|243:83,1,66.0000020141602,4|0,0:0|0:0,0:0:0:0:
221,67,1853,6,0,P|145:82|116:185,1,176.000005371094,4|8,0:0|0:0,0:0:0:0:
57,303,2370,1,0,3:0:0:0:
57,303,2456,1,0,3:0:0:0:
57,303,2542,1,0,3:0:0:0:
146,281,2715,1,0,3:0:0:0:
204,342,2887,2,0,P|270:353|316:300,1,132.00000402832,8|0,0:0|0:0,0:0:0:0:
312,310,3232,6,0,L|415:320,1,88.000002685547,8|0,0:0|3:0,0:0:0:0:
468,232,3577,2,0,L|369:223,1,88.000002685547,8|0,0:0|3:0,0:0:0:0:
381,225,3836,1,0,3:0:0:0:
381,225,3922,1,0,3:0:0:0:
321,152,4094,1,0,3:0:0:0:
370,66,4267,6,0,L|473:73,1,88.000002685547,8|2,0:0|0:0,0:0:0:0:
321,152,4611,2,10,P|225:153|149:123,1,176.000005371094,8|8,0:0|0:0,0:1:0:0:
61,60,5129,1,0,3:0:0:0:
43,80,5215,1,0,3:0:0:0:
53,118,5301,1,0,3:0:0:0:
22,203,5474,1,0,3:0:0:0:
45,318,5646,2,0,P|36:268|42:227,1,88.000002685547,8|2,0:0|0:0,0:0:0:0:
192,215,5991,5,0,1:0:0:0:
129,298,6163,1,0,1:0:0:0:
207,362,6336,1,8,0:0:0:0:
129,298,6508,1,0,3:0:0:0:
281,191,6680,5,0,1:0:0:0:
254,277,6853,1,0,1:0:0:0:
321,337,7025,1,8,0:0:0:0:
355,253,7198,1,8,0:0:0:0:
355,253,7284,1,8,0:0:0:0:
355,253,7370,2,0,L|327:111,1,132.00000402832,0|0,3:0|0:0,0:0:0:0:
329,123,7715,2,0,L|419:140,1,88.000002685547,8|0,0:0|0:0,0:0:0:0:
485,200,8060,5,0,3:0:0:0:
464,296,8232,1,0,3:0:0:0:
333,358,8405,2,0,P|269:334|183:322,1,132.00000402832,8|0,0:0|0:0,0:0:0:0:
206,323,8749,2,0,L|116:344,1,88.000002685547,0|0,3:0|3:0,0:0:0:0:
74,262,9094,2,0,L|188:238,1,88.000002685547,8|0,0:0|3:0,0:0:0:0:
161,244,9353,1,0,3:0:0:0:
161,244,9439,1,0,3:0:0:0:
246,183,9611,1,0,3:0:0:0:
135,64,9784,2,0,L|158:166,1,88.000002685547,8|2,0:0|0:0,0:0:0:0:
246,183,10129,6,10,B|307:198|354:196|354:196|392:153|426:149,1,176.000005371094,8|8,0:0|0:0,0:1:0:0:
478,56,10646,1,0,3:0:0:0:
447,65,10732,1,0,3:0:0:0:
413,48,10818,1,0,3:0:0:0:
307,18,10991,1,0,3:0:0:0:
211,77,11163,2,0,B|161:88|161:88|152:72|124:58,1,88.000002685547,8|2,0:0|0:0,0:0:0:0:
8,53,11508,5,0,1:0:0:0:
70,127,11680,1,0,1:0:0:0:
16,206,11853,1,8,0:0:0:0:
16,206,12025,1,2,0:0:0:0:
150,337,12198,1,0,1:0:0:0:
200,263,12370,1,0,1:0:0:0:
121,221,12542,1,8,0:0:0:0:
70,296,12715,1,8,0:0:0:0:
70,296,12801,1,8,0:0:0:0:
70,296,12887,2,0,P|172:310|261:260,1,176.000005371094,4|8,0:0|0:0,0:0:0:0:
226,128,13405,5,0,3:0:0:0:
226,128,13491,1,0,3:0:0:0:
226,128,13577,2,0,P|274:178|273:219,1,88.000002685547,0|0,3:0|3:0,3:0:0:0:
325,372,13922,2,0,P|314:327|350:270,1,88.000002685547,8|2,0:0|0:0,0:0:0:0:
473,298,14267,5,0,3:0:0:0:
387,214,14439,1,0,3:0:0:0:
472,126,14611,2,0,B|494:162|494:162|466:236,1,88.000002685547,8|0,0:0|0:0,0:0:0:0:
323,148,14956,2,0,B|313:103|313:103|332:65,1,88.000002685547,0|0,3:0|3:0,3:0:0:0:
195,187,15301,2,0,L|56:210,1,132.00000402832,8|0,0:0|0:0,0:0:0:0:
65,209,15646,6,2,L|79:114,1,88.000002685547,8|0,0:0|0:0,0:1:0:0:
136,35,15991,1,8,0:0:0:0:
225,72,16163,1,0,3:0:0:0:
225,72,16249,1,0,3:0:0:0:
225,72,16336,2,0,P|277:93|321:80,1,88.000002685547,0|0,3:0|3:0,3:0:0:0:
439,41,16680,2,0,L|426:152,1,88.000002685547,8|2,0:0|0:0,0:0:0:0:
487,255,17025,5,0,1:0:0:0:
392,232,17198,1,0,1:0:0:0:
361,321,17370,1,8,0:0:0:0:
248,263,17542,1,0,3:0:0:0:
248,263,17629,1,0,3:0:0:0:
248,263,17715,2,0,L|152:282,1,88.000002685547,8|8,0:0|0:0,0:0:0:0:
162,281,17974,1,8,0:0:0:0:
162,281,18060,1,8,0:0:0:0:
93,243,18232,1,8,0:0:0:0:
0,305,18405,6,0,P|17:249|14:200,2,88.000002685547,4|0|0,0:0|1:0|1:0,0:0:0:0:
146,112,18922,2,0,B|162:145|183:152|183:152|163:221,2,88.000002685547,4|0|0,0:0|1:0|1:0,0:0:0:0:
242,322,19439,6,0,B|296:301|284:324|315:307|315:307|321:275,2,88.000002685547,4|0|0,0:0|1:0|1:0,0:0:0:0:
429,226,19956,2,0,B|394:197|394:197|376:206|335:205,2,88.000002685547,4|0|0,0:0|1:0|1:0,0:0:0:0:
499,160,20474,5,4,0:0:0:0:
494,142,20560,1,8,0:0:0:0:
429,88,20732,1,8,0:0:0:0:
432,74,20818,1,8,0:0:0:0:
341,125,20991,5,8,0:0:0:0:
341,125,21077,1,8,0:0:0:0:
341,125,21163,2,0,L|234:108,1,88.000002685547,4|2,0:0|0:1,0:0:0:0:
30,45,21508,2,0,P|94:82|91:196,1,176.000005371094,8|0,0:0|1:0,0:0:0:0:
45,230,22025,1,0,1:0:0:0:
82,297,22198,1,8,0:0:0:0:
30,355,22370,5,2,0:0:0:0:
30,355,22456,1,2,0:0:0:0:
30,355,22542,2,2,L|118:359,1,88.000002685547,2|2,1:0|0:0,0:0:0:0:
299,364,22887,2,0,P|293:264|296:163,1,176.000005371094,8|0,0:0|1:0,0:0:0:0:
353,133,23405,1,0,1:0:0:0:
338,58,23577,1,8,0:0:0:0:
265,44,23749,5,2,0:0:0:0:
265,44,23836,1,2,0:0:0:0:
265,44,23922,1,4,0:0:0:0:
180,100,24094,1,0,3:0:0:0:
165,194,24267,1,8,0:0:0:0:
227,251,24439,1,0,3:0:0:0:
188,333,24611,5,8,0:0:0:0:
18,207,24870,1,8,0:0:0:0:
18,207,24956,1,8,0:0:0:0:
75,135,25129,5,8,1:0:0:0:
398,226,25474,1,8,1:0:0:0:
353,297,25646,1,8,1:0:0:0:
353,297,26680,6,0,L|438:287,1,64,2|0,0:1|0:0,0:0:0:0:
493,267,27025,2,0,P|496:211|487:127,1,128,8|0,0:0|3:0,0:0:0:0:
489,139,27542,1,0,3:0:0:0:
440,81,27715,2,0,L|367:95,1,64,8|0,0:0|0:0,0:0:0:0:
296,84,28060,6,0,L|308:-6,1,64,0|0,3:0|0:0,0:0:0:0:
221,103,28405,2,0,P|234:166|239:235,1,128,8|0,0:0|3:0,0:0:0:0:
272,298,28922,1,0,3:0:0:0:
211,345,29094,2,0,L|294:360,1,64,8|0,0:0|0:0,0:0:0:0:
163,282,29439,5,2,0:1:0:0:
163,282,29784,1,8,0:0:0:0:
92,338,29956,1,0,0:0:0:0:
23,288,30129,1,0,3:0:0:0:
91,235,30301,1,0,3:0:0:0:
32,185,30474,2,0,L|23:248,1,64,8|0,0:0|0:0,0:0:0:0:
156,179,30818,6,0,P|185:114|173:45,1,128,0|8,3:0|0:0,0:0:0:0:
178,59,31336,1,0,0:0:0:0:
295,19,31508,1,0,3:0:0:0:
261,106,31680,1,0,3:0:0:0:
336,151,31853,2,0,L|412:130,1,64,8|0,0:0|0:0,0:0:0:0:
483,251,32198,5,2,0:1:0:0:
483,251,32542,2,0,L|476:332,1,64,8|0,0:0|0:0,0:0:0:0:
372,347,32887,1,0,3:0:0:0:
397,263,33060,1,0,3:0:0:0:
299,228,33232,2,0,L|294:291,1,64,8|0,0:0|0:0,0:0:0:0:
397,263,33577,6,0,L|380:176,1,64,0|0,3:0|0:0,0:0:0:0:
364,112,33922,2,0,P|421:133|505:140,1,128,8|0,0:0|3:0,0:0:0:0:
411,39,34439,1,0,3:0:0:0:
331,31,34611,2,0,L|258:44,1,64,8|0,0:0|0:0,0:0:0:0:
123,44,34956,5,2,0:1:0:0:
197,97,35129,1,0,0:0:0:0:
123,146,35301,1,8,0:0:0:0:
53,101,35474,2,0,P|16:145|45:227,1,128,2|2,0:1|0:0,0:0:0:0:
99,283,35991,2,0,L|114:212,1,64,8|0,0:0|0:0,0:0:0:0:
243,192,36336,5,0,3:0:0:0:
243,192,36508,1,0,3:0:0:0:
193,271,36680,1,8,0:0:0:0:
288,276,36853,1,0,0:0:0:0:
181,180,37025,1,8,0:0:0:0:
352,120,37198,1,8,0:0:0:0:
352,120,37284,1,8,0:0:0:0:
352,120,37370,2,8,P|410:140|433:142,1,64
464,76,37715,6,0,P|492:155|501:230,1,160,4|8,0:0|0:0,0:0:0:0:
431,307,38232,1,0,0:0:0:0:
339,313,38405,1,0,3:0:0:0:
431,307,38577,1,0,3:0:0:0:
321,339,38749,2,0,B|288:320|288:320|228:333,1,80,8|2,0:0|0:0,0:0:0:0:
185,263,39094,5,0,3:0:0:0:
151,348,39267,1,0,3:0:0:0:
81,269,39439,1,8,0:0:0:0:
164,314,39611,1,2,0:0:0:0:
164,314,39698,1,2,0:0:0:0:
164,314,39784,2,0,P|205:273|213:172,1,160,0|8,3:0|0:0,0:0:0:0:
214,175,40301,1,8,0:0:0:0:
280,98,40474,6,0,P|331:145|347:154,1,80,0|0,1:0|0:0,0:0:0:0:
205,43,40818,1,8,0:0:0:0:
140,93,40991,1,0,0:0:0:0:
49,56,41163,1,0,3:0:0:0:
131,83,41336,1,0,3:0:0:0:
62,175,41508,2,0,P|38:127|48:73,1,80,8|0,0:0|0:0,0:0:0:0:
139,188,41853,6,0,P|144:230|184:365,1,160,0|8,3:0|0:0,0:0:0:0:
279,332,42370,1,0,0:0:0:0:
365,370,42542,1,0,3:0:0:0:
437,327,42714,1,0,3:0:0:0:
511,380,42887,1,8,0:0:0:0:
437,327,43060,6,0,L|427:222,1,80,2|0,0:0|1:0,0:0:0:0:
305,149,43405,1,0,0:0:0:0:
408,131,43577,1,8,0:0:0:0:
360,217,43749,2,0,P|312:253|185:229,1,160,2|2,0:1|0:0,0:0:0:0:
131,224,44267,2,0,P|141:283|151:318,1,80,8|2,0:0|0:1,0:0:0:0:
206,172,44611,6,0,P|188:108|187:77,1,80,0|0,3:0|3:0,3:0:0:0:
253,30,44956,2,0,P|289:58|406:47,1,160,8|0,0:0|3:0,0:0:0:0:
398,52,45474,1,0,3:0:0:0:
493,118,45646,1,8,0:0:0:0:
399,182,45818,1,2,0:0:0:0:
477,320,45991,5,8,0:0:0:0:
489,215,46163,1,0,1:0:0:0:
482,204,46335,1,0,1:0:0:0:
335,137,46508,5,8,0:0:0:0:
369,256,46680,1,0,1:0:0:0:
367,267,46853,1,0,0:0:0:0:
231,366,47025,6,0,L|329:352,1,80,8|0,0:0|1:0,0:0:0:0:
147,233,47370,5,0,1:0:0:0:
223,185,47542,1,8,0:0:0:0:
221,278,47715,1,8,0:0:0:0:
121,219,47887,1,0,3:0:0:0:
121,219,47974,1,0,3:0:0:0:
121,219,48060,2,0,L|61:227,1,40,8|0,0:0|0:0,0:0:0:0:
22,171,48232,1,0,1:0:0:0:
22,171,48318,1,0,1:0:0:0:
22,171,48405,2,0,P|44:117|47:80,1,80,8|8,0:0|0:0,0:0:0:0:
46,95,48663,1,8,0:0:0:0:
46,95,48749,5,8,1:0:0:0:
170,79,48922,1,8,1:0:0:0:
291,49,49094,1,8,1:0:0:0:
291,49,49784,5,8,1:0:0:0:
226,107,49956,2,0,B|175:165|175:165|205:220,1,125.999996154785,8|0,1:0|0:0,0:0:0:0:
198,207,50301,1,8,1:0:0:0:
343,312,50474,1,8,1:0:0:0:
343,312,50818,5,8,1:0:0:0:
213,358,50991,1,8,1:0:0:0:
265,273,51163,1,8,1:0:0:0:
265,273,51508,5,8,1:0:0:0:
140,240,51680,1,8,1:0:0:0:
41,313,51853,1,8,1:0:0:0:
41,313,52370,6,0,P|57:262|50:195,1,83.9999974365235,8|0,1:0|0:0,0:0:0:0:
152,58,52715,2,0,P|149:121|166:206,1,125.999996154785,8|0,1:0|0:0,0:0:0:0:
158,182,53060,1,8,1:0:0:0:
324,207,53232,1,8,1:0:0:0:
324,207,53577,5,8,1:0:0:0:
425,234,53749,1,8,1:0:0:0:
234,263,53922,1,8,1:0:0:0:
234,263,54267,5,8,1:0:0:0:
345,326,54439,1,8,1:0:0:0:
425,234,54611,1,8,1:0:0:0:
425,234,55129,6,0,P|484:251|526:246,1,83.9999974365235,8|0,1:0|0:0,0:0:0:0:
445,96,55474,2,0,P|363:97|331:152,1,125.999996154785,8|0,1:0|0:0,0:0:0:0:
337,126,55818,1,8,1:0:0:0:
207,70,55991,1,8,1:0:0:0:
207,70,56336,5,8,1:0:0:0:
246,195,56508,1,8,1:0:0:0:
204,321,56680,1,8,1:0:0:0:
204,321,57025,5,0,1:0:0:0:
323,286,57198,1,0,1:0:0:0:
165,210,57370,1,8,0:0:0:0:
299,124,57542,1,0,3:0:0:0:
236,242,57715,5,8,0:0:0:0:
209,110,57887,1,8,0:0:0:0:
209,110,57974,1,8,0:0:0:0:
209,110,58060,2,8,L|191:66,3,41.9999987182618
248,60,58405,5,4,3:0:0:0:
248,60,58577,1,4,3:0:0:0:
248,60,58749,1,4,3:0:0:0:
248,60,59042,6,2,B|127:-12|59:115|59:115,1,210.000008010865,2|0,0:0|0:0,0:0:0:0:
71,183,59784,5,4,0:0:0:0:
71,183,60129,1,8,0:0:0:0:
23,295,60301,1,0,3:0:0:0:
23,295,60387,1,0,3:0:0:0:
23,295,60474,1,0,3:0:0:0:
155,339,60646,1,0,3:0:0:0:
98,257,60818,2,0,P|76:319|81:363,1,88.000002685547,8|2,0:0|0:0,0:0:0:0:
205,241,61163,6,0,P|202:188|190:145,1,88.000002685547,0|0,3:0|3:0,3:0:0:0:
260,312,61508,2,0,P|308:337|343:346,1,88.000002685547,8|2,0:0|0:0,0:0:0:0:
440,307,61853,1,0,3:0:0:0:
428,275,61939,1,0,3:0:0:0:
422,242,62025,1,0,3:0:0:0:
423,208,62111,1,0,3:0:0:0:
429,175,62197,1,8,0:0:0:0:
329,111,62370,1,8,0:0:0:0:
434,16,62542,6,0,P|414:67|409:105,1,88.000002685547,2|0,0:1|0:0,0:0:0:0:
261,195,62887,1,8,0:0:0:0:
197,120,63060,1,0,3:0:0:0:
197,120,63146,1,0,3:0:0:0:
197,120,63232,1,0,3:0:0:0:
299,154,63405,1,0,3:0:0:0:
171,219,63577,2,0,L|78:203,1,88.000002685547,8|2,0:0|0:0,0:0:0:0:
212,335,63922,5,0,3:0:0:0:
329,294,64094,1,0,3:0:0:0:
212,335,64267,1,8,0:0:0:0:
329,294,64439,1,2,0:0:0:0:
234,234,64611,5,0,1:0:0:0:
278,346,64784,1,0,1:0:0:0:
392,306,64956,1,8,0:0:0:0:
348,194,65129,1,2,0:0:0:0:
348,194,65215,1,2,0:0:0:0:
348,194,65301,2,2,P|331:137|329:32,1,132.00000402832,2|0,3:1|0:1,0:1:0:0:
325,64,65646,2,0,P|261:81|215:60,1,88.000002685547,8|2,0:0|0:0,0:0:0:0:
93,36,65991,5,0,3:0:0:0:
161,110,66163,1,0,3:0:0:0:
111,191,66336,2,0,P|49:174|16:142,1,88.000002685547,8|2,0:0|0:0,0:0:0:0:
162,278,66680,2,0,P|214:288|272:273,1,88.000002685547,0|0,3:0|3:0,3:0:0:0:
343,364,67025,2,8,P|374:301|310:221,1,176.000005371094,8|0,0:0|3:0,0:0:0:0:
250,138,67542,1,0,3:0:0:0:
278,149,67628,1,0,3:0:0:0:
309,151,67714,1,8,0:0:0:0:
339,145,67800,1,0,3:0:0:0:
366,130,67886,1,0,3:0:0:0:
438,58,68060,5,8,0:0:0:0:
438,58,68405,1,8,0:0:0:0:
488,140,68577,1,0,3:0:0:0:
488,140,68663,1,0,3:0:0:0:
488,140,68749,2,0,P|496:214|485:252,1,88.000002685547,0|0,3:0|3:0,3:0:0:0:
355,344,69094,1,8,0:0:0:0:
384,260,69267,1,2,0:0:0:0:
442,319,69439,5,0,1:0:0:0:
299,263,69612,1,0,1:0:0:0:
420,205,69784,1,8,0:0:0:0:
420,205,69956,1,2,0:0:0:0:
303,122,70129,5,8,0:0:0:0:
284,134,70215,1,8,0:0:0:0:
257,116,70301,1,8,0:0:0:0:
233,140,70387,1,8,0:0:0:0:
233,140,70474,2,8,L|138:150,1,88.000002685547
88,72,70818,2,0,P|46:109|63:227,2,176.000005371094,4|8|0,0:0|0:0|3:0,0:0:0:0:
134,237,71680,5,0,3:0:0:0:
97,313,71853,2,0,B|58:303|58:303|3:336,1,88.000002685547,8|2,0:0|0:0,0:0:0:0:
170,355,72198,2,0,L|275:338,1,88.000002685547,0|0,3:0|3:0,3:0:0:0:
322,278,72542,2,0,B|390:330|390:330|484:291,1,176.000005371094,8|0,0:0|3:0,0:0:0:0:
506,187,73060,1,0,3:0:0:0:
476,194,73146,1,0,3:0:0:0:
445,194,73232,1,8,0:0:0:0:
416,185,73318,1,0,3:0:0:0:
390,169,73404,1,0,3:0:0:0:
299,98,73577,6,0,B|335:66|388:66|388:66|436:92|472:128,1,176.000005371094,2|8,0:1|0:0,0:0:0:0:
276,175,74094,1,0,3:0:0:0:
276,175,74180,1,0,3:0:0:0:
276,175,74267,1,0,3:0:0:0:
196,121,74439,1,0,3:0:0:0:
186,202,74611,2,0,P|224:264|234:304,1,88.000002685547,8|2,0:0|0:0,0:0:0:0:
53,340,74956,5,0,3:0:0:0:
186,354,75129,1,0,3:0:0:0:
152,282,75301,1,8,0:0:0:0:
24,263,75473,1,2,0:0:0:0:
72,130,75646,5,0,1:0:0:0:
150,208,75818,1,0,1:0:0:0:
179,112,75991,1,8,0:0:0:0:
105,37,76163,1,8,0:0:0:0:
17,149,76336,6,0,L|120:160,2,88.000002685547,4|0|0,0:0|1:0|1:0,0:0:0:0:
198,80,76853,2,0,L|286:74,2,88.000002685547,4|0|0,0:0|1:0|1:0,0:0:0:0:
330,221,77370,6,0,L|243:212,2,88.000002685547,4|0|0,0:0|1:0|1:0,0:0:0:0:
480,104,77887,2,0,L|364:112,2,88.000002685547,4|0|0,0:0|1:0|1:0,0:0:0:0:
402,235,78405,5,4,0:0:0:0:
176,346,78663,1,8,0:0:0:0:
176,346,78749,1,8,0:0:0:0:
264,371,78922,1,8,0:0:0:0:
239,290,79094,6,0,L|218:229,3,44.0000013427735,4|0|2|0,0:0|0:0|0:1|0:0,0:0:0:0:
240,226,79439,2,0,L|257:163,3,44.0000013427735,8|0|2|0,0:0|0:0|0:1|0:0,0:0:0:0:
240,149,79784,2,0,P|220:76|219:55,1,88.000002685547,0|0,3:0|3:0,3:0:0:0:
102,20,80129,2,2,P|142:90|128:169,1,132.00000402832,8|0,0:0|0:0,0:1:0:0:
111,171,80474,6,0,L|82:217,3,44.0000013427735,0|0|2|0,3:0|0:0|0:1|0:0,0:0:0:0:
59,222,80818,2,0,L|82:279,3,44.0000013427735,8|0|2|0,0:0|0:0|0:1|0:0,0:0:0:0:
116,279,81163,1,0,3:0:0:0:
114,292,81249,1,2,0:0:0:0:
112,305,81335,1,0,3:0:0:0:
110,318,81421,1,2,0:0:0:0:
82,352,81508,2,0,P|137:348|190:358,1,88.000002685547,8|0,0:0|0:0,0:0:0:0:
309,246,81853,5,4,0:0:0:0:
303,360,82025,1,0,3:0:0:0:
226,215,82198,5,8,0:0:0:0:
249,340,82370,1,8,0:0:0:0:
383,230,82542,6,0,P|382:177|384:129,1,88.000002685547,8|2,0:0|3:0,0:0:0:0:
383,142,82801,1,2,3:0:0:0:
383,142,82887,1,8,0:0:0:0:
277,45,83060,1,8,1:0:0:0:
133,107,83232,1,8,1:0:0:0:
261,190,83405,1,8,1:0:0:0:
287,116,83577,6,0,L|273:36,1,44.0000013427735,8|0,1:0|0:0,0:0:0:0:
287,116,84267,6,2,B|188:124|183:230|183:230,1,160,2|4,0:1|0:0,0:1:0:0:
184,220,84956,6,0,P|174:131|165:112,1,88.000002685547,8|2,0:0|0:0,0:0:0:0:
271,239,85301,1,0,3:0:0:0:
230,321,85474,1,0,3:0:0:0:
311,362,85646,1,8,0:0:0:0:
278,308,85818,5,2,0:1:0:0:
170,363,85991,2,0,P|119:352|68:320,1,88.000002685547,0|0,3:0|3:0,3:0:0:0:
0,274,86336,2,2,P|57:232|101:124,1,176.000005371094,8|0,0:0|3:0,0:1:0:0:
76,70,86853,1,0,3:0:0:0:
249,108,87025,1,8,0:0:0:0:
249,108,87370,6,2,P|302:150|376:145,1,132.00000402832,0|0,3:0|0:1,0:1:0:0:
394,120,87715,1,8,0:0:0:0:
506,237,87887,2,0,P|422:257|390:243,1,88.000002685547,2|0,0:1|3:0,0:0:0:0:
491,152,88232,1,0,3:0:0:0:
455,57,88405,1,8,0:0:0:0:
509,121,88577,5,2,0:1:0:0:
383,48,88749,2,2,P|302:74|261:169,1,176.000005371094,0|8,3:0|0:0,0:1:0:0:
184,101,89267,2,2,P|228:167|238:236,1,132.00000402832,2|0,0:1|0:0,0:1:0:0:
235,249,89611,1,0,3:0:0:0:
301,357,89784,5,8,0:0:0:0:
330,269,89956,1,8,0:0:0:0:
330,269,90042,1,8,0:0:0:0:
330,269,90129,2,2,B|244:271|244:271|147:319,1,176.000005371094,0|8,3:0|0:0,0:1:0:0:
163,310,90818,5,0,3:0:0:0:
279,349,90991,1,0,3:0:0:0:
402,317,91163,1,8,0:0:0:0:
479,358,91336,2,2,P|460:269|461:168,1,176.000005371094,2|0,0:1|3:0,0:1:0:0:
393,156,91853,1,8,0:0:0:0:
236,187,92025,6,2,P|166:209|33:208,1,176.000005371094,2|0,0:1|3:0,0:1:0:0:
236,187,92542,2,0,L|321:220,1,88.000002685547,8|0,0:0|0:0,0:0:0:0:
142,341,92887,2,2,P|41:324|-6:242,1,176.000005371094,0|8,3:0|0:0,0:1:0:0:
192,276,93405,1,2,0:0:0:0:
236,342,93577,6,0,L|345:336,1,88.000002685547,0|0,3:0|3:0,3:0:0:0:
390,276,93922,5,8,0:0:0:0:
302,264,94094,1,2,0:1:0:0:
414,345,94267,1,0,3:0:0:0:
376,239,94439,1,0,3:0:0:0:
425,146,94611,6,0,B|458:179|458:179|455:232,1,88.000002685547,8|0,0:0|0:0,0:0:0:0:
455,220,94870,1,0,3:0:0:0:
455,220,94956,1,8,0:0:0:0:
260,132,95215,1,8,0:0:0:0:
260,132,95301,1,8,0:0:0:0:
320,45,95474,1,8,0:0:0:0:
320,45,95560,1,8,0:0:0:0:
320,45,95646,2,0,P|247:60|202:52,1,88.000002685547,4|0,0:0|0:0,0:0:0:0:
105,113,95991,6,2,P|190:144|209:236,1,176.000005371094,8|0,0:0|3:0,0:1:0:0:
210,311,96508,1,0,3:0:0:0:
292,346,96680,1,8,0:0:0:0:
296,260,96853,1,2,0:1:0:0:
156,284,97025,2,0,L|63:323,1,88.000002685547,0|0,3:0|3:0,3:0:0:0:
26,248,97370,6,2,P|45:191|40:112,1,132.00000402832,8|0,0:0|0:0,0:1:0:0:
42,119,97715,2,2,L|146:139,1,88.000002685547,0|0,3:0|3:0,3:1:0:0:
174,48,98060,2,2,L|276:71,1,88.000002685547,8|0,0:0|0:0,0:1:0:0:
277,173,98405,1,0,3:0:0:0:
364,206,98577,1,2,0:1:0:0:
403,119,98749,1,8,0:0:0:0:
490,152,98921,1,2,0:1:0:0:
455,245,99094,6,2,P|454:201|460:141,1,88.000002685547,0|0,3:0|3:0,3:1:0:0:
351,56,99439,1,8,0:0:0:0:
376,163,99611,1,2,0:1:0:0:
253,255,99784,5,0,3:0:0:0:
312,314,99956,2,2,P|373:343|505:314,1,176.000005371094,2|0,0:1|3:0,0:1:0:0:
253,255,100474,2,0,L|163:287,1,88.000002685547,0|0,3:0|3:0,3:0:0:0:
45,284,100818,6,0,L|55:222,1,44.0000013427735,8|0,0:0|0:0,0:0:0:0:
24,174,100991,1,8,0:0:0:0:
24,174,101077,1,8,0:0:0:0:
24,174,101163,2,0,L|21:117,3,40,0|0|2|0,3:0|0:0|0:1|0:0,0:0:0:0:
47,110,101508,2,0,L|54:54,3,40,8|0|2|2,0:0|0:0|0:1|0:1,0:0:0:0:
37,35,101853,6,0,L|135:65,1,80,0|0,3:0|3:0,3:0:0:0:
211,121,102198,6,0,L|249:103,3,40,8|0|2|0,0:0|0:0|0:1|0:0,0:0:0:0:
271,70,102542,1,0,3:0:0:0:
289,76,102628,1,0,0:0:0:0:
308,82,102714,1,0,3:0:0:0:
327,88,102800,1,0,0:0:0:0:
336,110,102887,1,8,0:0:0:0:
347,106,102973,1,0,0:0:0:0:
359,103,103059,1,2,0:1:0:0:
370,99,103145,1,2,0:1:0:0:
386,66,103232,2,0,L|444:77,3,40,0|0|2|0,3:0|0:0|0:1|0:0,0:0:0:0:
475,64,103577,5,8,0:0:0:0:
488,88,103663,1,8,0:0:0:0:
495,115,103749,1,8,0:0:0:0:
495,143,103835,1,8,0:0:0:0:
488,170,103921,1,8,0:0:0:0:
388,241,104094,1,0,1:0:0:0:
492,306,104267,1,0,1:0:0:0:
452,237,104439,6,2,P|394:274|273:293,1,160,8|0,0:0|3:0,0:1:0:0:
230,219,104956,1,8,0:0:0:0:
232,207,105042,1,2,0:0:0:0:
234,195,105128,1,2,0:0:0:0:
237,183,105214,1,2,0:0:0:0:
267,140,105301,6,0,L|179:123,1,80,0|8,3:0|0:0,0:0:0:0:
105,81,105646,1,0,3:0:0:0:
33,138,105818,1,0,1:0:0:0:
49,160,105904,1,0,1:0:0:0:
60,186,105990,1,8,0:0:0:0:
67,213,106076,1,8,0:0:0:0:
68,241,106163,2,8,L|11:261,2,40
137,322,106508,1,8,0:0:0:0:
254,354,106680,5,8,1:0:0:0:
258,228,106853,1,8,1:0:0:0:
261,108,107025,1,8,1:0:0:0:
261,108,107715,5,8,1:0:0:0:
340,164,107887,2,0,P|410:166|475:117,1,125.999996154785,8|0,1:0|0:0,0:0:0:0:
457,138,108232,1,8,1:0:0:0:
499,268,108405,1,8,1:0:0:0:
499,268,108749,5,8,1:0:0:0:
378,318,108922,1,8,1:0:0:0:
263,264,109094,1,8,1:0:0:0:
263,264,109439,5,8,1:0:0:0:
145,220,109611,1,8,1:0:0:0:
54,301,109784,1,8,1:0:0:0:
54,301,110301,6,0,P|124:304|165:302,1,83.9999974365235,8|0,1:0|0:0,0:0:0:0:
195,185,110646,2,0,P|131:180|89:114,1,125.999996154785,8|0,1:0|0:0,0:0:0:0:
93,135,110991,1,8,1:0:0:0:
253,100,111163,1,8,1:0:0:0:
253,100,111508,5,8,1:0:0:0:
381,145,111680,1,8,1:0:0:0:
366,22,111853,1,8,1:0:0:0:
366,22,112198,5,8,1:0:0:0:
309,147,112370,1,8,1:0:0:0:
338,274,112542,1,8,1:0:0:0:
338,274,113060,6,0,P|278:281|228:282,1,83.9999974365235,8|0,1:0|0:0,0:0:0:0:
420,354,113405,2,0,P|442:307|437:219,1,125.999996154785,8|0,1:0|0:0,0:0:0:0:
441,233,113749,1,8,1:0:0:0:
413,108,113922,1,8,1:0:0:0:
413,108,114267,5,8,1:0:0:0:
291,59,114439,1,8,1:0:0:0:
151,77,114611,1,8,1:0:0:0:
151,77,114956,5,0,1:0:0:0:
202,190,115129,1,0,1:0:0:0:
97,190,115301,1,8,0:0:0:0:
247,107,115474,1,0,3:0:0:0:
141,109,115646,5,8,0:0:0:0:
287,215,115818,1,8,0:0:0:0:
287,215,115905,1,8,0:0:0:0:
287,215,115991,2,8,L|339:207,3,41.9999987182618
373,202,116336,5,4,3:0:0:0:
373,202,116680,1,4,3:0:0:0:
373,202,117025,1,4,3:0:0:0:
373,202,117198,1,4,3:0:0:0:
373,202,117370,1,4,3:0:0:0:
373,202,117715,1,4,3:0:0:0:
373,202,117887,1,4,3:0:0:0:
373,202,118060,1,4,3:0:0:0:
201,309,118405,5,8,0:0:0:0:
201,309,118577,1,0,3:0:0:0:
201,309,118749,2,2,L|138:329,1,66.0000020141602,10|0,1:1|0:0,0:1:0:0:
98,357,119094,6,0,P|113:283|114:177,1,176.000005371094,4|8,0:0|0:0,0:0:0:0:
33,59,119611,1,0,3:0:0:0:
33,59,119698,1,0,3:0:0:0:
33,59,119784,2,0,P|70:93|119:96,1,88.000002685547,0|0,3:0|3:0,3:0:0:0:
236,188,120129,2,0,P|302:163|388:190,1,132.00000402832,8|0,0:0|0:0,0:0:0:0:
360,173,120474,6,0,L|360:66,1,88.000002685547,0|0,3:0|3:0,3:0:0:0:
455,189,120818,1,8,0:0:0:0:
377,256,120991,1,0,3:0:0:0:
377,256,121077,1,0,3:0:0:0:
377,256,121163,1,0,3:0:0:0:
469,313,121336,1,0,3:0:0:0:
337,335,121508,2,0,B|296:332|296:332|242:360,1,88.000002685547,8|2,0:0|0:0,0:0:0:0:
115,261,121853,5,2,0:1:0:0:
115,261,122198,1,8,0:0:0:0:
201,198,122370,1,0,3:0:0:0:
215,223,122456,1,0,3:0:0:0:
210,257,122542,1,0,3:0:0:0:
179,343,122715,1,0,3:0:0:0:
170,192,122887,2,0,P|178:145|191:82,1,88.000002685547,8|2,0:0|0:0,0:0:0:0:
70,22,123232,5,0,3:0:0:0:
9,139,123405,1,0,3:0:0:0:
98,208,123577,5,8,0:0:0:0:
80,101,123749,1,2,0:0:0:0:
0,252,123922,5,0,1:0:0:0:
121,371,124094,1,0,1:0:0:0:
12,344,124267,1,8,0:0:0:0:
121,280,124439,1,8,0:0:0:0:
121,280,124525,1,8,0:0:0:0:
121,280,124611,2,2,P|196:317|296:307,1,176.000005371094,0|8,3:0|0:0,0:1:0:0:
355,252,125129,1,0,3:0:0:0:
340,225,125215,1,0,3:0:0:0:
340,193,125301,1,0,3:0:0:0:
390,323,125474,1,0,3:0:0:0:
462,259,125646,2,0,P|470:200|446:111,1,132.00000402832,8|0,0:0|0:0,0:0:0:0:
455,129,125991,6,2,P|368:132|341:122,1,88.000002685547,0|0,3:0|3:0,3:1:0:0:
203,45,126336,2,0,P|263:74|272:185,1,176.000005371094,8|0,0:0|3:0,0:0:0:0:
182,196,126853,1,0,3:0:0:0:
227,288,127025,2,0,L|318:309,1,88.000002685547,8|8,0:0|0:0,0:0:0:0:
313,308,127284,1,8,0:0:0:0:
313,308,127370,6,2,P|235:354|138:341,1,176.000005371094,2|8,0:1|0:0,0:1:0:0:
72,302,127887,1,0,3:0:0:0:
87,278,127974,1,0,3:0:0:0:
81,243,128060,1,0,3:0:0:0:
23,172,128232,1,0,3:0:0:0:
172,139,128405,2,0,L|75:110,1,88.000002685547,8|2,0:0|0:0,0:0:0:0:
297,32,128749,5,0,3:0:0:0:
249,144,128922,1,0,3:0:0:0:
346,220,129094,1,8,0:0:0:0:
346,220,129267,1,2,0:0:0:0:
402,144,129439,5,0,1:0:0:0:
314,133,129611,1,0,1:0:0:0:
255,200,129784,1,8,0:0:0:0:
282,293,129956,1,8,0:0:0:0:
282,293,130042,1,8,0:0:0:0:
282,293,130129,2,0,P|354:325|436:283,1,176.000005371094,4|8,0:0|0:0,0:0:0:0:
501,192,130646,1,2,0:0:0:0:
501,192,130732,1,2,0:0:0:0:
501,192,130818,2,0,P|437:189|398:172,1,88.000002685547,0|0,3:0|3:0,3:0:0:0:
329,60,131163,2,0,P|262:73|203:115,1,132.00000402832,8|0,0:0|0:0,0:0:0:0:
209,107,131508,6,0,P|230:175|230:225,1,88.000002685547,0|0,3:0|3:0,3:0:0:0:
297,350,131853,2,2,P|294:291|299:256,1,88.000002685547,8|0,0:0|3:0,0:1:0:0:
297,262,132111,1,0,3:0:0:0:
297,262,132198,1,0,3:0:0:0:
199,282,132370,1,0,3:0:0:0:
140,355,132542,2,0,L|52:338,1,88.000002685547,8|2,0:0|0:0,0:0:0:0:
22,217,132887,5,2,0:1:0:0:
22,217,133232,1,8,0:0:0:0:
109,159,133405,1,0,3:0:0:0:
90,133,133491,1,0,3:0:0:0:
96,93,133577,1,0,3:0:0:0:
31,31,133749,1,0,3:0:0:0:
187,136,133922,2,0,P|255:144|291:121,1,88.000002685547,8|2,0:0|0:1,0:0:0:0:
364,53,134267,5,0,1:0:0:0:
351,182,134439,1,0,1:0:0:0:
431,103,134611,1,8,0:0:0:0:
429,215,134784,5,2,3:0:0:0:
429,215,134870,1,2,3:0:0:0:
429,215,134956,1,8,0:0:0:0:
336,303,135129,1,2,3:0:0:0:
336,303,135215,1,2,3:0:0:0:
336,303,135301,2,0,L|237:285,1,88.000002685547,8|8,0:0|0:0,0:0:0:0:
249,287,135560,1,8,0:0:0:0:
249,287,135646,6,0,B|254:239|254:239|232:186,2,88.000002685547,4|0|0,0:0|1:0|1:0,0:0:0:0:
319,76,136163,2,0,B|292:117|292:117|321:162,2,88.000002685547,4|0|0,0:0|1:0|1:0,0:0:0:0:
118,127,136680,6,0,B|164:131|164:131|192:96,2,88.000002685547,4|0|0,0:0|1:0|1:0,0:0:0:0:
81,283,137198,2,0,P|49:312|7:308,2,88.000002685547,4|0|0,0:0|1:0|1:0,0:0:0:0:
193,268,137715,5,4,0:0:0:0:
193,268,137801,1,8,0:0:0:0:
275,332,137974,1,8,0:0:0:0:
275,332,138060,1,8,0:0:0:0:
371,297,138232,5,8,0:0:0:0:
371,297,138318,1,8,0:0:0:0:
371,297,138405,2,0,P|429:306|456:328,1,88.000002685547,4|2,0:0|0:0,0:0:0:0:
506,258,138749,2,2,P|499:195|433:74,1,176.000005371094,8|0,0:0|3:0,0:1:0:0:
355,52,139267,1,0,3:0:0:0:
256,113,139439,1,8,0:0:0:0:
349,148,139611,1,2,0:1:0:0:
281,74,139784,6,0,L|165:112,1,88.000002685547,0|2,3:0|0:1,0:0:0:0:
95,198,140129,2,2,P|164:248|266:229,1,176.000005371094,8|0,0:0|3:0,0:1:0:0:
339,257,140646,1,0,3:0:0:0:
325,356,140818,1,8,0:0:0:0:
233,339,140991,1,8,0:0:0:0:
145,361,141163,5,4,0:0:0:0:
78,311,141336,1,0,1:0:0:0:
68,222,141508,1,8,0:0:0:0:
114,146,141680,1,0,1:0:0:0:
90,63,141853,5,8,0:0:0:0:
330,195,142111,1,8,0:0:0:0:
330,195,142198,2,8,L|400:177,1,44.0000013427735
446,133,142370,5,4,3:0:0:0:
446,133,142456,1,4,3:0:0:0:
446,133,142542,1,8,1:0:0:0:
270,111,142715,1,8,1:0:0:0:
175,238,142887,1,8,1:0:0:0:
349,289,143060,1,8,1:0:0:0:
265,256,143232,6,0,L|275:313,1,44.0000013427735,2|2,3:0|3:0,0:0:0:0:
199,362,143405,2,0,L|202:308,2,44.0000013427735,2|2|8,3:0|3:0|0:0,0:0:0:0:
256,192,143749,12,0,149267,0:0:0:0:
