osu file format v14

[General]
AudioFilename: audio.mp3
AudioLeadIn: 0
PreviewTime: 80310
Countdown: 0
SampleSet: Soft
StackLeniency: 0.2
Mode: 0
LetterboxInBreaks: 0
WidescreenStoryboard: 1

[Editor]
Bookmarks: 443
DistanceSpacing: 1.5
BeatDivisor: 6
GridSize: 4
TimelineZoom: 3.5

[Metadata]
Title:Wild-jiisan
TitleUnicode:ワイルドじいさん
Artist:Chata
ArtistUnicode:茶太
Creator:posydomojka
Version:misho15_701_4_0's Insane
Source:
Tags:misho15_701_4_0 misho1570140 misho miwo kuyusu Silent Rock Silent_Rock bermei bermei.inazawa TOx2RO ぱんださんようちえん Pandasan Youchien C62 comiket 62 doujin music japanese jpop j-pop
BeatmapID:3333240
BeatmapSetID:1631344

[Difficulty]
HPDrainRate:5
CircleSize:4.2
OverallDifficulty:8
ApproachRate:8
SliderMultiplier:2.1
SliderTickRate:1

[Events]
//Background and Video events
0,0,"20211126_135254.jpg",0,0
//Break Periods
2,59154,68194
2,80561,85727
2,86885,89331
2,147231,165376
//Storyboard Layer 0 (Background)
//Storyboard Layer 1 (Fail)
//Storyboard Layer 2 (Pass)
//Storyboard Layer 3 (Foreground)
//Storyboard Layer 4 (Overlay)
//Storyboard Sound Samples

[TimingPoints]
443,407.747196738022,4,2,1,45,1,0
6966,-90.9090909090909,4,2,1,60,0,0
13083,-500,4,2,1,60,0,0
13490,-83.3333333333333,4,2,1,60,0,0
14102,-200,4,2,1,60,0,0
15223,-200,4,2,2,60,0,0
15937,-86.9565217391304,4,2,1,60,0,0
16752,-86.9565217391304,4,2,1,55,0,0
27558,-285.714285714284,4,2,1,55,0,0
29800,-81.9672131147541,4,2,2,55,0,0
29902,-81.9672131147541,4,2,1,55,0,0
30004,-81.9672131147541,4,2,4,55,0,1
30106,-81.9672131147541,4,2,1,55,0,1
31024,-111.111111111111,4,2,1,55,0,1
31431,-125,4,2,1,65,0,0
43460,-111.111111111111,4,2,1,65,0,0
44479,-125,4,2,1,65,0,0
46518,-250,4,2,1,65,0,0
47741,-125,4,2,1,65,0,0
52226,-125,4,2,3,65,0,0
52532,-125,4,2,1,65,0,0
57527,-125,4,2,1,50,0,0
57731,-333.333333333333,4,2,1,50,0,0
68944,-333.333333333333,4,2,1,55,0,0
71594,-333.333333333333,4,2,2,55,0,0
72206,-333.333333333333,4,2,1,55,0,0
74041,-133.333333333333,4,2,1,55,0,0
74652,-133.333333333333,4,2,2,55,0,0
75468,-133.333333333333,4,2,1,55,0,0
78934,-68.4931506849315,4,2,2,55,0,1
79036,-68.4931506849315,4,2,1,55,0,1
79138,-68.4931506849315,4,2,4,55,0,1
79240,-68.4931506849315,4,2,1,55,0,1
79342,-68.4931506849315,4,2,2,55,0,1
79444,-68.4931506849315,4,2,1,55,0,1
79953,-133.333333333333,4,2,1,55,0,1
80361,-153.846153846154,4,2,1,50,0,0
93409,-100,4,2,1,55,0,0
95244,-100,4,2,1,60,0,0
95651,-100,4,2,1,70,0,0
96059,-100,4,2,1,80,0,0
96467,-100,4,2,1,90,0,0
96875,-100,4,2,1,100,0,0
97079,-100,4,2,1,60,0,0
99321,-153.846153846154,4,2,1,60,0,0
99933,-100,4,2,1,60,0,0
105437,-66.6666666666667,4,2,1,60,0,0
105845,-45.4545454545455,4,2,1,60,0,0
106457,-71.4285714285714,4,2,2,75,0,1
106661,-71.4285714285714,4,2,1,75,0,1
107068,-71.4285714285714,4,2,2,75,0,1
107272,-71.4285714285714,4,2,1,75,0,1
108088,-71.4285714285714,4,2,1,75,0,0
108292,-83.3333333333333,4,2,1,75,0,0
108699,-83.3333333333333,4,2,3,75,0,0
108903,-83.3333333333333,4,2,1,75,0,0
110330,-90.9090909090909,4,2,1,75,0,0
117262,-111.111111111111,4,2,1,75,0,0
120116,-111.111111111111,4,2,2,75,0,0
120524,-111.111111111111,4,2,1,75,0,0
121136,-111.111111111111,4,2,2,75,0,0
121340,-111.111111111111,4,2,1,75,0,0
121951,-111.111111111111,4,2,2,75,0,0
122155,-111.111111111111,4,2,1,75,0,0
122971,-111.111111111111,4,2,3,75,0,0
123174,-111.111111111111,4,2,1,75,0,0
123582,-111.111111111111,4,2,2,75,0,0
123786,-111.111111111111,4,2,1,75,0,0
126233,-333.333333333333,4,2,1,50,0,0
127048,-100,4,2,1,50,0,0
127252,-90.9090909090909,4,2,1,50,0,0
127660,-111.111111111111,4,2,1,80,0,0
128067,-76.9230769230769,4,2,1,80,0,0
128271,-111.111111111111,4,2,3,80,0,0
128475,-111.111111111111,4,2,1,80,0,0
129291,-111.111111111111,4,2,2,80,0,0
129494,-111.111111111111,4,2,1,80,0,0
129902,-111.111111111111,4,2,2,80,0,0
130310,-111.111111111111,4,2,1,80,0,0
130514,-111.111111111111,4,2,2,80,0,0
130922,-111.111111111111,4,2,1,80,0,0
131533,-111.111111111111,4,2,3,80,0,0
131737,-111.111111111111,4,2,1,80,0,0
132756,-111.111111111111,4,2,2,80,0,0
132960,-111.111111111111,4,2,1,80,0,0
133164,-111.111111111111,4,2,2,80,0,0
133368,-166.666666666666,4,2,2,80,0,0
134184,-111.111111111111,4,2,2,80,0,0
134387,-111.111111111111,4,2,1,80,0,0
134795,-111.111111111111,4,2,2,80,0,0
134999,-111.111111111111,4,2,1,80,0,0
135203,-111.111111111111,4,2,2,80,0,0
135814,-111.111111111111,4,2,1,80,0,0
136018,-111.111111111111,4,2,2,80,0,0
136222,-111.111111111111,4,2,1,80,0,0
136630,-111.111111111111,4,2,2,80,0,0
137649,-111.111111111111,4,2,1,80,0,0
138057,-111.111111111111,4,2,2,80,0,0
138873,-76.9230769230769,4,2,4,80,0,0
139077,-76.9230769230769,4,2,1,80,0,0
139280,-100,4,2,2,80,0,0
140096,-100,4,2,1,80,0,0
140300,-100,4,2,2,80,0,0
140708,-100,4,2,1,80,0,0
141523,-100,4,2,2,80,0,0
141727,-100,4,2,1,80,0,0
142135,-100,4,2,2,80,0,0
142339,-100,4,2,1,80,0,0
142746,-100,4,2,2,80,0,0
144785,-100,4,2,1,80,0,0
144989,-100,4,2,2,100,0,0
145804,-100,4,2,1,50,0,0
147231,-100,4,2,1,65,0,0
154979,-100,4,2,3,65,0,0
155183,-100,4,2,1,65,0,0
158037,-100,4,2,3,65,0,0
158241,-100,4,2,1,65,0,0
164968,-100,4,2,3,65,0,0
165172,-100,4,2,1,65,0,0
166803,-125,4,2,1,55,0,0
167415,-200,4,2,1,55,0,0
168230,-181.818181818182,4,2,1,55,0,0
170677,-153.846153846154,4,2,1,55,0,0
171492,-181.818181818182,4,2,1,55,0,0
173327,-153.846153846154,4,2,1,55,0,0
174754,-181.818181818182,4,2,1,55,0,0
179851,-153.846153846154,4,2,1,55,0,0
183113,-153.846153846154,4,2,1,50,0,0

[Colours]
Combo1 : 108,255,108
Combo2 : 255,53,53
Combo3 : 235,130,90
Combo4 : 255,255,128

[HitObjects]
24,192,443,5,2,0:1:0:0:
488,192,1870,5,2,0:1:0:0:
488,192,3704,5,2,0:1:0:0:
24,192,5132,5,2,0:1:0:0:
20,360,6966,6,0,P|84:328|120:210,1,173.250005287171,6|0,1:0|0:0,0:0:0:0:
116,228,7374,2,0,L|24:202,1,57.7500017623902,2|0,0:0|0:0,0:0:0:0:
196,296,7578,2,0,L|211:351,1,57.7500017623902,0|0,1:0|0:0,0:0:0:0:
160,152,7782,5,10,0:0:0:0:
232,15,7986,1,2,0:0:0:0:
139,60,8190,1,10,0:3:0:0:
488,32,8394,6,0,B|344:64|428:104|288:136,1,231.000007049561,2|10,1:2|0:3,0:0:0:0:
268,164,8903,1,0,0:0:0:0:
292,188,9005,2,0,L|364:208,1,57.7500017623902
192,124,9209,2,0,L|172:36,1,57.7500017623902,10|0,0:3|0:0,0:0:0:0:
160,320,9413,6,0,B|153:343|153:343|156:342|156:342|148:372,2,57.7500017623902,8|8|2,0:0|0:3|1:2,0:0:0:0:
216,256,9821,1,8,0:3:0:0:
240,360,10025,5,0,1:0:0:0:
136,224,10228,2,0,P|68:196|8:148,1,115.50000352478,0|0,1:0|0:0,0:0:0:0:
232,284,10636,2,0,P|312:260|420:248,1,173.250005287171,2|0,0:0|0:0,0:0:0:0:
416,256,11044,1,10,0:0:0:0:
480,316,11248,1,2,0:0:0:0:
376,368,11452,1,10,0:3:0:0:
304,236,11656,6,0,P|284:172|216:72,1,173.250005287171,2|0,1:2|0:0,0:0:0:0:
216,92,12063,2,0,B|208:80|208:80|220:32,1,57.7500017623902,2|0,1:2|0:0,0:0:0:0:
336,304,12471,6,0,P|339:276|375:192,1,115.50000352478,10|0,0:3|0:0,0:0:0:0:
408,188,12777,1,8,0:3:0:0:
433,156,12879,2,0,P|429:123|418:89,1,57.7500017623902,10|0,0:0|0:0,0:0:0:0:
360,0,13083,2,0,L|354:20,1,21,8|0,0:3|1:0,0:0:0:0:
284,116,13490,6,0,L|31:161,1,251.999992309571,2|2,1:2|0:0,0:0:0:0:
260,208,14102,6,0,B|108:136|236:116|52:36,1,262.5,2|0,1:2|0:0,1:0:0:0:
36,160,15325,6,0,L|41:133,2,26.25,2|2|2,0:0|0:0|0:0,0:0:0:0:
80,36,15733,1,0,0:0:0:0:
244,80,15937,5,8,0:0:0:0:
188,96,16141,1,0,0:0:0:0:
132,112,16345,1,8,0:3:0:0:
216,188,16549,5,2,0:0:0:0:
32,348,16752,2,0,L|155:320,1,120.750002303124,0|2,1:0|0:0,1:0:0:0:
248,352,17160,5,2,0:0:0:0:
332,288,17364,2,0,L|440:308,1,60.3750011515618,2|0,0:0|0:0,0:0:0:0:
424,344,17568,2,0,P|436:272|352:188,1,181.125003454685,8|0,0:0|0:0,0:0:0:0:
360,184,17976,2,0,B|348:172|348:172|360:124,1,60.3750011515618,2|0,0:0|0:0,1:0:0:0:
384,8,18180,1,2,1:2:0:0:
444,52,18383,5,0,0:0:0:0:
292,88,18587,1,10,0:0:0:0:
280,92,18791,1,10,0:0:0:0:
204,56,19199,5,8,0:0:0:0:
192,28,19301,1,8,0:0:0:0:
56,80,19505,1,8,0:0:0:0:
28,92,19607,1,2,0:0:0:0:
92,4,19810,5,10,0:0:0:0:
128,108,20014,2,0,P|132:128|8:224,1,181.125003454685,0|0,1:0|0:0,1:0:0:0:
20,216,20422,2,0,L|8:172,2,30.1875005757809,2|0|0,0:1|0:0|0:0,0:0:0:0:
68,340,20626,1,0,1:0:0:0:
132,276,20830,2,0,L|264:244,1,120.750002303124,8|0,0:0|1:0,0:0:0:0:
316,196,21238,1,8,0:3:0:0:
476,268,21441,1,8,0:0:0:0:
468,300,21543,1,8,0:0:0:0:
460,332,21645,5,2,1:2:0:0:
356,380,21849,1,2,1:2:0:0:
272,304,22053,1,2,0:0:0:0:
376,252,22257,1,2,1:2:0:0:
168,144,22665,5,2,1:2:0:0:
300,228,22869,1,10,0:0:0:0:
216,208,23072,5,2,1:2:0:0:
260,148,23276,2,0,L|244:8,1,120.750002303124,2|2,0:0|1:2,0:0:0:0:
156,256,23684,2,0,L|92:268,1,60.3750011515618,2|0,0:0|0:0,0:0:0:0:
220,296,23888,2,0,B|336:324|272:348|384:376,1,181.125003454685,2|0,1:2|0:0,0:0:0:0:
456,344,24296,2,0,B|476:320|476:320|464:276,1,60.3750011515618,0|0,1:0|0:0,0:0:0:0:
416,228,24500,5,8,0:0:0:0:
32,164,24907,5,10,0:1:0:0:
104,188,25111,1,10,0:0:0:0:
172,124,25315,5,10,0:0:0:0:
254,202,25519,1,10,0:0:0:0:
476,164,25926,5,10,0:1:0:0:
404,188,26132,1,10,0:0:0:0:
336,124,26335,5,10,0:0:0:0:
254,202,26538,1,10,0:0:0:0:
254,202,26946,1,10,0:1:0:0:
220,132,27354,1,10,0:0:0:0:
288,88,27558,6,0,L|279:8,1,73.4999977569581,10|8,0:1|0:0,0:0:0:0:
368,0,28169,1,8,0:0:0:0:
441,56,28373,1,0,1:0:0:0:
440,64,28475,1,0,1:0:0:0:
438,71,28577,1,8,0:0:0:0:
404,160,28781,1,8,0:3:0:0:
292,216,28985,1,8,0:0:0:0:
285,214,29087,1,0,1:0:0:0:
277,212,29189,1,0,1:0:0:0:
176,172,29393,1,8,0:0:0:0:
60,196,29596,5,8,0:3:0:0:
0,296,29800,5,10,0:1:0:0:
56,384,30004,6,2,B|106:329|106:329|114:313|114:313|120:319|120:319|172:267|172:267|210:250|210:250|227:208|227:208|260:175|260:175|272:154|272:154|277:158|277:158|306:129|306:129|327:87|327:87|369:72|369:72|393:50|393:50|393:54|393:54|406:37|406:37|439:4,1,576.449976250993,10|0,0:1|1:0,0:1:0:0:
456,0,31024,2,0,B|438:18|438:18|437:21|437:21|414:44,1,47.2499985580445,8|0,0:0|0:0,0:0:0:0:
380,152,31227,2,0,B|385:176|385:176|384:179|384:179|391:211,1,47.2499985580445,0|0,1:0|0:0,0:0:0:0:
484,276,31431,6,0,B|380:300|448:336|332:368,1,168,2|0,1:0|0:0,1:0:0:0:
268,272,32043,1,0,1:0:0:0:
200,324,32247,5,10,0:0:0:0:
128,332,32451,1,2,0:0:0:0:
56,340,32655,1,2,0:0:0:0:
172,224,32858,2,0,L|188:108,1,84,2|0,1:0|0:0,0:0:0:0:
248,48,33266,5,8,0:0:0:0:
256,36,33368,1,8,0:0:0:0:
128,84,33572,1,8,0:0:0:0:
276,256,33878,5,10,0:0:0:0:
196,312,34082,2,0,L|136:328,1,42,10|0,0:0|0:0,0:0:0:0:
51,362,34286,5,8,0:0:0:0:
46,341,34388,1,10,0:0:0:0:
41,320,34490,1,8,0:3:0:0:
38,300,34591,1,2,0:0:0:0:
104,264,34693,2,0,P|91:210|-4:152,1,168,2|0,1:0|0:0,0:0:0:0:
224,192,35305,5,0,1:0:0:0:
88,136,35509,2,0,L|170:121,1,84,10|2,0:3|0:0,0:0:0:0:
336,84,35917,1,2,0:0:0:0:
240,32,36120,1,10,0:1:0:0:
244,44,36222,1,8,0:0:0:0:
316,176,36528,5,10,0:0:0:0:
312,188,36630,1,0,0:0:0:0:
308,200,36732,1,8,0:0:0:0:
248,272,36936,1,2,1:2:0:0:
464,336,37140,6,0,L|454:295,1,42,8|0,0:0|0:0,0:0:0:0:
378,311,37344,2,0,L|388:352,1,42,10|0,0:0|0:0,0:0:0:0:
308,348,37547,2,0,L|212:368,1,84,0|8,0:0|0:0,0:0:0:0:
52,368,37955,6,0,P|129:336|152:208,1,210,2|0,1:0|0:0,1:0:0:0:
88,192,38567,2,0,L|12:212,1,42,0|0,1:0|0:0,0:0:0:0:
216,160,38771,1,10,0:0:0:0:
288,140,38975,1,2,0:0:0:0:
340,196,39178,5,2,0:0:0:0:
168,100,39382,2,0,L|152:8,1,84,10|0,0:1|0:0,0:0:0:0:
144,4,39688,1,8,0:0:0:0:
140,16,39790,2,0,L|152:84,1,42,2|0,0:0|0:0,0:0:0:0:
180,220,39994,2,0,L|187:261,1,42,8|0,0:0|0:0,0:0:0:0:
173,341,40402,6,0,B|155:335|155:335|151:331|151:331|127:323,4,42,8|8|10|8|8,0:0|0:0|0:1|0:3|0:0,0:0:0:0:
15,192,41013,5,8,0:0:0:0:
23,168,41115,1,8,0:0:0:0:
31,144,41217,2,0,B|128:160|80:196|183:220,1,168,2|0,1:0|0:0,1:0:0:0:
248,184,41829,1,0,1:0:0:0:
288,252,42033,2,0,P|331:264|376:280,1,84,10|2,0:0|0:0,0:0:0:0:
436,328,42440,6,0,P|415:346|384:344,1,42,10|0,0:3|0:0,0:0:0:0:
320,152,42644,1,10,0:1:0:0:
316,136,42746,1,8,0:0:0:0:
448,28,42950,1,8,0:3:0:0:
452,12,43052,1,10,0:0:0:0:
468,108,43256,5,10,0:3:0:0:
348,40,43460,2,0,L|256:72,1,94.499997116089,10|0,0:0|1:0,0:0:0:0:
200,112,43766,1,8,0:0:0:0:
188,108,43868,1,10,0:0:0:0:
40,40,44071,1,8,0:0:0:0:
144,12,44275,5,0,0:0:0:0:
92,124,44479,2,0,B|72:172|72:172|152:316,1,210,2|0,1:0|0:0,1:0:0:0:
120,376,45091,1,10,0:1:0:0:
260,312,45295,1,8,0:0:0:0:
36,320,45499,5,10,0:3:0:0:
12,248,45702,1,2,0:0:0:0:
48,328,45906,1,2,1:0:0:0:
304,220,46518,6,0,B|308:248,8,21
464,348,47537,1,8,0:0:0:0:
464,348,47945,6,0,L|416:332,1,42,8|0,0:0|0:0,0:0:0:0:
468,340,48149,2,0,P|412:304|416:188,1,168,2|2,1:0|0:0,1:0:0:0:
464,152,48761,1,2,1:0:0:0:
364,72,48964,2,0,L|248:100,1,84,8|2,0:0|1:2,0:0:0:0:
224,140,49372,1,10,0:3:0:0:
420,20,49576,1,10,0:1:0:0:
432,12,49678,1,8,0:0:0:0:
296,168,49984,6,0,L|320:276,1,84,8|0,0:0|0:0,0:0:0:0:
308,264,50392,1,0,0:0:0:0:
280,356,50595,1,8,0:0:0:0:
380,304,50799,1,8,0:0:0:0:
236,224,51003,6,0,B|192:217|192:217|134:252,1,84,2|2,1:0|0:0,1:0:0:0:
112,296,51411,1,2,0:0:0:0:
16,312,51615,5,2,1:2:0:0:
88,376,51819,1,10,0:0:0:0:
188,352,52023,1,2,0:0:0:0:
84,224,52226,1,10,0:3:0:0:
80,384,52430,5,10,0:3:0:0:
172,216,52634,1,0,0:0:0:0:
179,202,52736,1,8,0:3:0:0:
186,190,52838,1,0,1:0:0:0:
268,196,53042,5,8,0:0:0:0:
132,124,53246,2,0,L|112:0,1,126,2|0,0:1|0:0,0:0:0:0:
104,12,53654,6,0,L|92:80,1,42,10|0,0:1|0:0,0:0:0:0:
24,92,53857,1,0,1:0:0:0:
464,192,54265,5,10,0:1:0:0:
396,228,54469,5,10,0:0:0:0:
344,132,54673,1,10,0:0:0:0:
300,200,54877,5,10,0:0:0:0:
48,192,55081,5,10,0:0:0:0:
116,228,55285,5,10,0:0:0:0:
168,132,55489,1,10,0:0:0:0:
212,200,55693,5,10,0:1:0:0:
256,92,56100,5,10,0:1:0:0:
256,0,56508,1,10,0:1:0:0:
256,384,56915,5,10,0:1:0:0:
256,384,57119,1,10,0:3:0:0:
256,384,57323,1,10,0:1:0:0:
256,280,57731,6,0,L|256:248,6,31.4999990386963
68,312,68944,5,2,0:1:0:0:
41,213,69148,1,2,0:0:0:0:
140,186,69352,1,2,0:0:0:0:
166,285,69556,1,2,0:1:0:0:
200,88,69963,5,2,0:0:0:0:
144,8,70167,1,2,0:0:0:0:
304,104,70371,1,2,0:1:0:0:
32,356,71594,5,2,0:0:0:0:
384,296,72206,5,2,0:1:0:0:
288,264,72410,1,2,0:0:0:0:
212,332,72614,1,2,0:0:0:0:
308,356,72818,1,2,0:1:0:0:
212,240,73225,5,2,0:0:0:0:
276,176,73429,1,2,0:0:0:0:
256,96,73633,2,0,L|244:52,1,31.4999990386963,2|0,0:0|0:0,0:0:0:0:
232,36,74041,6,0,P|340:16|456:300,1,472.500018024445,2|0,0:1|0:0,0:0:0:0:
376,344,75468,5,2,0:1:0:0:
316,284,75672,1,2,0:0:0:0:
240,320,75876,1,2,0:0:0:0:
192,252,76080,1,2,0:1:0:0:
60,176,76487,5,2,0:0:0:0:
40,180,76691,1,2,0:0:0:0:
19,184,76895,1,2,0:1:0:0:
124,216,77099,1,0,1:0:0:0:
192,132,77303,5,0,1:0:0:0:
212,136,77405,1,0,1:0:0:0:
233,140,77507,1,8,0:0:0:0:
320,160,77711,1,8,0:3:0:0:
112,315,77914,5,0,1:0:0:0:
101,318,78016,1,0,1:0:0:0:
90,322,78118,1,0,1:0:0:0:
56,187,78322,5,8,0:3:0:0:
127,70,78526,5,8,0:3:0:0:
288,20,78730,5,0,1:0:0:0:
288,20,78832,1,8,0:3:0:0:
288,20,78934,1,2,1:0:0:0:
460,40,79138,6,2,B|411:78|411:78|397:81|397:81|388:95|388:95|344:131|344:131|332:155|332:155|301:159|301:159|279:176|279:176|248:180|248:180|236:204|236:204|207:230|207:230|212:237|212:237|186:244|186:244|146:278|146:278|133:282|133:282|126:297|126:297|48:368,1,536.550014736786,10|0,0:1|1:0,0:1:0:0:
36,368,79953,2,0,B|69:317,1,39.3750015020371,8|0,0:3|0:0,0:0:0:0:
180,212,80157,2,0,B|155:156,1,39.3750015020371,0|0,1:0|0:0,0:0:0:0:
80,112,80361,5,0,1:0:0:0:
256,192,86477,5,0,1:0:0:0:
256,192,90147,5,0,1:0:0:0:
432,328,90759,5,0,1:0:0:0:
96,0,91370,5,8,0:3:0:0:
56,140,91574,1,8,0:3:0:0:
56,64,91880,5,8,0:3:0:0:
96,76,91982,1,0,1:0:0:0:
164,128,92186,2,0,L|236:112,1,68.2499968757631,8|0,0:3|0:0,0:0:0:0:
416,44,92593,6,0,B|424:64|424:64|448:76,1,34.1249984378815,0|8,1:0|0:0,0:0:0:0:
408,36,92797,2,0,B|422:19|422:19|420:-8,1,34.1249984378815,0|0,1:0|0:0,0:0:0:0:
400,48,93001,2,0,B|379:44|379:44|357:59,1,34.1249984378815,8|0,0:0|0:0,0:0:0:0:
384,128,93205,2,0,L|396:188,1,34.1249984378815,0|0,1:0|0:0,0:0:0:0:
480,208,93409,6,0,B|360:267|440:279|320:344,1,210,0|8,1:0|0:0,1:0:0:0:
288,308,93919,1,0,0:0:0:0:
244,324,94020,2,0,L|168:304,1,52.5,0|0,1:0|0:0,0:0:0:0:
464,376,94224,5,8,0:0:0:0:
424,284,94428,1,8,0:3:0:0:
352,208,94632,1,0,0:0:0:0:
256,168,94836,2,0,B|244:152|244:152|260:64,1,105,8|0,0:0|0:0,0:0:0:0:
312,8,95244,5,10,0:0:0:0:
312,8,95312,1,10,0:3:0:0:
188,248,95719,5,2,0:0:0:0:
188,248,95787,1,10,0:3:0:0:
96,96,96127,5,2,0:0:0:0:
96,96,96195,1,10,0:3:0:0:
12,180,96535,5,2,0:0:0:0:
12,180,96603,1,10,0:3:0:0:
226,132,96943,5,10,0:3:0:0:
226,132,97011,1,10,0:3:0:0:
226,132,97079,1,2,1:2:0:0:
226,132,97147,2,0,B|336:145|276:176|395:199,1,175,2|0,0:0|0:0,0:0:0:0:
484,148,97690,1,0,1:0:0:0:
452,48,97894,1,8,0:0:0:0:
380,184,98098,1,0,1:0:0:0:
348,80,98302,1,8,0:3:0:0:
472,288,98506,5,8,0:0:0:0:
472,288,98608,2,0,L|356:308,1,105,8|0,0:0|0:0,0:0:0:0:
288,344,98913,2,0,P|272:284|166:234,1,157.5,8|0,0:0|0:0,0:0:0:0:
64,160,99321,6,0,B|58:180|58:180|35:195,1,34.1249984378815,0|0,1:0|0:0,0:0:0:0:
71,151,99525,2,0,B|55:135|55:135|54:108,1,34.1249984378815,8|0,0:0|0:0,0:0:0:0:
80,162,99729,2,0,B|100:155|100:155|123:168,1,34.1249984378815,8|0,0:0|0:0,0:0:0:0:
208,160,99933,6,0,P|184:204|164:296,1,105,0|0,1:0|0:0,1:0:0:0:
99,299,100341,2,0,P|52:277|1:264,1,105,0|8,0:0|0:3,0:0:0:0:
172,340,100748,1,8,0:0:0:0:
292,263,100952,1,0,0:0:0:0:
288,372,101156,5,0,1:0:0:0:
152,232,101360,2,0,P|136:204|124:164,1,52.5,0|0,1:0|0:0,0:0:0:0:
128,148,101564,1,0,0:0:0:0:
104,116,101666,2,0,P|88:80|68:8,1,105,8|0,0:3|0:0,0:0:0:0:
56,172,101972,6,0,P|20:183|-26:197,1,52.5,8|0,0:0|0:0,0:0:0:0:
172,88,102175,2,0,P|208:99|254:113,3,52.5,2|2|10|2,0:0|0:0|0:0|0:0,0:0:0:0:
232,112,102583,5,10,0:0:0:0:
69,17,102787,1,2,1:2:0:0:
256,184,103195,5,10,0:1:0:0:
256,184,103398,5,10,0:0:0:0:
256,184,103602,5,10,0:0:0:0:
256,184,103806,5,10,0:0:0:0:
256,184,104010,5,10,0:0:0:0:
256,184,104826,5,0,1:0:0:0:
260,384,105030,6,0,P|244:320|216:284,1,105,10|0,0:1|0:0,0:0:0:0:
260,384,105437,6,0,P|268:312|316:224,1,157.5,10|0,0:1|0:0,0:0:0:0:
260,384,105845,6,0,P|244:248|192:156,1,231.000007049561,10|10,0:1|0:3,0:0:0:0:
256,68,106253,5,10,0:1:0:0:
32,380,106457,6,2,B|80:340|80:340|92:316|92:316|104:316|104:316|140:285|140:285|168:277|168:277|184:252|184:252|252:194|252:194|276:174|276:174|291:144|291:144|324:140|324:140|497:-6,2,587.999982055665,6|8|2,1:0|0:0|1:0,1:0:0:0:
48,232,108292,5,10,0:0:0:0:
72,140,108496,1,2,1:2:0:0:
100,48,108699,2,0,B|128:28|128:28|224:48,1,125.999996154785,10|0,0:3|3:0,0:0:0:0:
256,80,109005,1,8,0:3:0:0:
304,68,109107,2,0,L|380:84,1,62.9999980773926,10|0,0:0|0:0,0:0:0:0:
472,136,109311,5,8,0:3:0:0:
273,0,109515,1,10,0:1:0:0:
500,12,109719,6,0,P|392:96|384:224,1,251.999992309571,0|0,1:0|1:0,0:0:0:0:
404,248,110228,1,0,0:0:0:0:
384,296,110330,2,0,P|320:304|256:316,1,115.50000352478,8|0,0:3|3:0,0:0:0:0:
444,348,110738,6,0,B|472:360|472:360|504:336,1,57.7500017623902,8|0,0:0|0:0,0:0:0:0:
308,228,110942,2,0,P|297:159|288:68,1,115.50000352478,8|0,0:3|1:0,0:0:0:0:
148,12,111350,1,2,1:0:0:0:
4,104,111554,1,2,3:2:0:0:
52,28,111757,5,2,3:2:0:0:
100,92,111961,2,0,L|228:116,1,115.50000352478,10|0,0:1|3:0,0:0:0:0:
216,124,112267,1,8,0:3:0:0:
208,132,112369,2,0,L|356:156,1,115.50000352478,10|10,0:0|0:3,0:0:0:0:
140,184,112777,2,0,B|52:228|104:264|-4:316,1,173.250005287171,10|0,0:1|0:0,1:0:0:0:
12,292,113185,2,0,L|0:235,2,57.7500017623902,0|0|0,3:0|0:0|1:0,0:0:0:0:
128,324,113592,2,0,L|256:348,1,115.50000352478,0|0,0:3|3:0,0:0:0:0:
464,292,114000,5,8,0:0:0:0:
432,256,114102,1,8,0:0:0:0:
384,256,114204,2,0,P|308:308|292:392,1,173.250005287171,8|0,0:0|0:0,0:0:0:0:
280,372,114612,2,0,L|256:216,1,115.50000352478,2|2,1:0|3:2,0:0:0:0:
288,32,115019,5,2,3:2:0:0:
356,76,115223,2,0,B|380:60|380:60|488:84,1,115.50000352478,10|0,0:1|3:0,0:0:0:0:
372,280,115631,5,10,0:0:0:0:
220,200,115835,1,10,0:3:0:0:
280,148,116039,2,0,P|248:70|152:20,1,173.250005287171,2|0,1:0|0:0,0:0:0:0:
96,53,116447,1,0,3:0:0:0:
80,60,116549,1,0,0:0:0:0:
63,66,116650,5,0,3:0:0:0:
16,152,116854,1,8,0:0:0:0:
84,228,117058,1,8,0:0:0:0:
168,84,117262,5,8,0:3:0:0:
96,236,117466,1,8,0:0:0:0:
184,180,117670,1,0,1:0:0:0:
24,344,117874,6,0,B|48:320|48:320|176:344,1,141.749995674133,2|0,1:0|0:0,1:0:0:0:
168,352,118281,2,0,P|180:364|164:356,1,47.2499985580445,2|0,3:2|0:0,0:0:0:0:
168,328,118485,2,0,P|192:276|268:232,1,141.749995674133,10|8,0:1|0:3,0:0:0:0:
365,287,118893,2,0,L|320:276,1,47.2499985580445,2|0,1:2|0:0,0:0:0:0:
164,236,119097,1,10,0:0:0:0:
448,352,119301,6,0,L|424:180,1,141.749995674133,2|8,1:0|0:3,1:0:0:0:
352,64,119709,2,0,B|348:52|348:52|356:12,2,47.2499985580445,8|0|8,0:0|0:0|0:0,0:0:0:0:
460,140,120116,5,2,1:0:0:0:
464,40,120320,2,2,P|384:152|276:184,1,236.249992790222,10|0,0:1|0:0,0:1:0:0:
280,176,120932,2,0,L|336:164,1,47.2499985580445,8|0,0:3|0:0,0:0:0:0:
208,128,121136,6,2,L|192:4,1,94.499997116089,10|2,0:1|3:2,0:1:0:0:
184,20,121441,1,0,0:0:0:0:
180,36,121543,2,0,L|188:104,1,47.2499985580445,2|0,3:2|0:0,0:0:0:0:
136,191,121747,5,2,1:0:0:0:
244,308,121951,1,10,0:1:0:0:
216,216,122155,5,2,3:2:0:0:
168,276,122359,1,10,0:0:0:0:
296,236,122563,2,0,B|284:168,1,47.2499985580445,2|0,3:2|0:0,0:0:0:0:
480,260,122971,5,10,0:3:0:0:
480,260,123072,1,0,0:0:0:0:
480,260,123174,2,0,P|412:280|356:340,1,141.749995674133,0|0,3:0|0:0,0:0:0:0:
356,344,123582,2,2,P|312:356|276:324,1,94.499997116089,10|0,0:1|1:0,0:1:0:0:
316,244,123990,2,0,L|332:136,1,94.499997116089,8|0,0:3|1:0,1:0:0:0:
300,24,124398,5,2,1:0:0:0:
392,104,124602,1,2,1:2:0:0:
392,8,124805,5,2,1:2:0:0:
324,156,125009,1,10,0:1:0:0:
460,52,125213,5,0,3:0:0:0:
252,104,125417,1,10,0:3:0:0:
504,192,125825,1,2,1:0:0:0:
0,192,126233,6,0,L|0:163,7,15.7499995193482
76,160,127048,6,0,P|100:154|151:127,1,78.75,8|0,0:3|0:0,0:0:0:0:
121,184,127252,2,0,P|181:222|291:250,1,173.250005287171,8|0,0:0|0:0,0:0:0:0:
464,212,127660,6,0,P|448:190|447:157,1,47.2499985580445,6|0,1:0|0:0,1:0:0:0:
372,160,127863,2,0,P|371:133|388:105,1,47.2499985580445,2|0,1:2|0:0,0:0:0:0:
452,92,128067,2,0,L|432:-24,1,68.2499968757631,10|0,0:3|0:0,0:0:0:0:
440,288,128271,6,0,L|316:316,1,94.499997116089,10|8,0:3|0:0,0:0:0:0:
320,336,128577,1,0,0:0:0:0:
284,324,128679,2,0,B|236:332|236:332|184:300,1,94.499997116089,2|8,3:2|0:3,0:0:0:0:
100,204,129087,1,2,1:0:0:0:
168,164,129291,2,2,B|192:120|124:84|152:92|104:100|64:44|128:-12,1,188.999994232178,2|0,3:1|1:0,0:1:0:0:
124,0,129902,5,2,3:1:0:0:
88,104,130106,2,2,P|40:136|-20:144,1,94.499997116089,10|0,0:1|3:0,0:1:0:0:
168,72,130412,1,8,0:3:0:0:
168,72,130515,2,0,B|212:80|212:80|216:84|216:84|268:94,1,94.499997116089,2|2,3:2|3:2,1:0:0:0:
344,148,130922,5,2,1:0:0:0:
419,132,131126,1,2,3:2:0:0:
475,78,131330,1,2,3:2:0:0:
491,2,131533,1,10,0:3:0:0:
272,184,131941,6,0,B|264:204|264:204|280:280,1,94.499997116089,2|2,3:2|3:2,0:0:0:0:
324,336,132349,2,0,B|340:328|340:328|392:344,1,47.2499985580445,2|0,1:0|0:0,0:0:0:0:
208,300,132553,2,0,L|144:312,1,47.2499985580445,0|0,3:0|0:0,0:0:0:0:
76,356,132756,6,2,B|39:270|39:270|93:184,1,188.999994232178,10|2,0:1|3:2,0:1:0:0:
140,100,133368,2,0,L|136:68,1,31.4999990386963,8|0,0:0|0:0,0:0:0:0:
208,24,133572,2,0,L|212:56,1,31.4999990386963,10|0,0:0|0:0,0:0:0:0:
56,32,133776,5,2,1:0:0:0:
179,166,133980,1,2,1:0:0:0:
288,36,134184,2,2,B|312:28|312:28|420:80,1,141.749995674133,2|0,1:0|0:0,0:1:0:0:
428,92,134591,2,0,L|440:148,1,47.2499985580445,2|0,3:2|0:0,0:0:0:0:
320,224,134795,6,2,L|332:168,1,47.2499985580445,2|0,1:0|0:0,0:1:0:0:
392,260,134999,2,0,P|448:280|496:312,1,94.499997116089,8|2,0:0|3:1,0:0:0:0:
320,300,135407,6,0,L|268:312,1,47.2499985580445,2|0,3:1|0:0,0:0:0:0:
192,328,135611,2,2,L|112:344,1,47.2499985580445,2|0,1:0|0:0,0:1:0:0:
24,364,135815,6,0,P|100:336|144:184,1,236.249992790222,0|0,3:0|0:0,0:0:0:0:
100,136,136426,1,0,3:0:0:0:
156,208,136630,2,0,B|180:220|180:220|260:200,1,94.499997116089,10|10,0:1|0:1,0:0:0:0:
32,196,137038,5,2,3:1:0:0:
88,260,137242,1,2,1:0:0:0:
172,140,137446,2,0,P|208:76|228:-4,1,141.749995674133,2|0,1:0|0:0,0:0:0:0:
220,0,137853,1,2,1:2:0:0:
260,168,138057,2,2,L|248:284,1,94.499997116089,2|10,1:0|0:1,0:1:0:0:
180,312,138465,5,2,3:1:0:0:
324,268,138669,1,2,1:0:0:0:
460,228,138873,2,2,P|356:284|344:376,1,204.749990627289,10|0,0:1|0:0,0:1:0:0:
360,200,139280,6,0,L|376:112,1,52.5,10|0,0:1|0:0,0:0:0:0:
424,324,139484,2,0,L|508:354,1,52.5,10|0,0:1|0:0,0:0:0:0:
332,280,139688,1,2,1:0:0:0:
232,272,139892,6,0,P|176:248|140:208,1,105,10|8,0:1|0:3,0:0:0:0:
128,168,140198,1,0,0:0:0:0:
76,152,140300,2,0,B|48:164|48:164|24:260,1,105,8|0,0:0|1:0,0:0:0:0:
150,52,140708,5,2,1:0:0:0:
241,192,140911,1,2,3:2:0:0:
236,91,141115,5,2,3:2:0:0:
145,216,141319,2,0,L|158:329,1,105,2|10,1:0|0:1,0:0:0:0:
96,368,141727,5,2,3:2:0:0:
228,272,141931,1,10,0:3:0:0:
112,144,142135,2,2,B|84:100|84:100|120:32,1,105,2|0,1:0|0:0,0:1:0:0:
208,168,142542,5,0,0:0:0:0:
268,104,142746,1,0,0:0:0:0:
220,24,142950,1,2,1:0:0:0:
392,108,143154,5,2,3:1:0:0:
328,188,143358,1,2,3:1:0:0:
428,224,143562,1,10,0:1:0:0:
488,136,143766,1,8,0:0:0:0:
196,117,143970,5,2,1:0:0:0:
220,24,144173,1,2,3:1:0:0:
313,49,144377,1,2,3:1:0:0:
288,141,144580,1,10,0:1:0:0:
272,360,144989,5,2,1:0:0:0:
248,280,145193,1,2,3:1:0:0:
224,200,145397,1,2,3:1:0:0:
72,8,166803,5,6,0:0:0:0:
116,100,167007,1,2,0:0:0:0:
213,132,167211,1,2,0:0:0:0:
128,88,167415,6,0,P|84:116|104:168,1,105,2|2,0:0|0:0,0:0:0:0:
148,232,168027,1,0,0:0:0:0:
20,220,168230,6,0,B|184:256|56:328|228:380,1,259.875007930756,2|0,0:0|0:0,0:0:0:0:
224,364,169250,2,0,L|240:292,1,57.7500017623902,8|0,0:0|0:0,0:0:0:0:
272,216,169658,1,0,0:0:0:0:
290,212,169759,1,0,0:0:0:0:
309,208,169861,1,0,0:0:0:0:
328,204,169963,1,0,0:0:0:0:
344,200,170065,2,0,L|356:256,1,57.7500017623902,2|2,0:0|0:0,0:0:0:0:
316,328,170473,5,2,0:0:0:0:
376,220,170677,2,0,P|426:181|492:165,1,102.374995313645,2|0,0:0|0:0,0:0:0:0:
476,176,171085,1,2,0:0:0:0:
504,252,171289,1,2,0:0:0:0:
360,204,171492,2,0,B|240:120|364:91|218:0,1,259.875007930756,2|0,0:0|0:0,0:0:0:0:
208,8,172512,2,0,L|188:80,1,57.7500017623902,8|0,0:0|0:0,0:0:0:0:
100,100,172920,1,0,0:0:0:0:
104,118,173021,1,0,0:0:0:0:
108,137,173123,1,0,0:0:0:0:
112,156,173225,1,0,0:0:0:0:
116,172,173327,2,0,P|140:200|176:216,2,68.2499968757631,2|2|2,0:0|0:0|0:0,0:0:0:0:
74,90,173939,6,0,L|88:24,1,68.2499968757631,2|8,0:0|0:0,0:0:0:0:
104,176,174347,1,2,0:0:0:0:
0,128,174551,1,2,0:0:0:0:
168,84,174754,2,0,B|269:116|248:-33|307:105|378:21,1,231.000007049561,2|0,0:0|0:0,0:0:0:0:
292,120,175774,6,0,L|312:192,1,57.7500017623902,8|0,0:0|0:0,0:0:0:0:
388,264,176182,1,0,0:0:0:0:
384,282,176283,1,0,0:0:0:0:
380,301,176385,1,0,0:0:0:0:
376,320,176487,1,0,0:0:0:0:
372,336,176589,2,0,P|320:352|268:392,1,115.50000352478,2|2,0:1|0:0,0:0:0:0:
460,288,177201,6,0,L|476:184,1,86.6250026435853,2|0,0:1|0:0,0:0:0:0:
416,148,177609,2,0,L|400:92,1,57.7500017623902,2|2,0:0|0:0,0:0:0:0:
456,8,178016,6,0,B|304:72|440:128|276:192,1,259.875007930756,2|0,0:1|0:0,0:0:0:0:
272,208,179036,2,0,L|264:252,7,28.8750008811951,8|0|0|0|0|0|0|0,0:0|0:0|0:0|0:0|0:0|0:0|0:0|0:0,0:0:0:0:
308,76,179851,6,0,B|364:94|364:94|380:112|380:112|452:136,1,136.499993751526,2|2,0:1|0:0,0:0:0:0:
248,24,180463,2,0,P|224:52|180:64,1,68.2499968757631,2|8,0:1|0:0,0:0:0:0:
96,32,180871,1,2,0:0:0:0:
112,112,181075,1,2,0:0:0:0:
128,192,181278,1,2,0:0:0:0:
88,24,181686,5,2,0:1:0:0:
60,352,182298,6,0,L|16:364,7,34.1249984378815,8|0|0|0|0|0|0|0,0:0|0:0|0:0|0:0|0:0|0:0|0:0|0:0,0:0:0:0:
112,296,183113,5,2,0:0:0:0:
184,348,183317,1,2,0:0:0:0:
240,276,183521,1,2,0:0:0:0:
312,328,183725,1,2,0:0:0:0:
472,36,184133,5,2,0:0:0:0:
468,20,184336,1,2,0:0:0:0:
464,4,184540,1,2,0:0:0:0:
