osu file format v14

[General]
AudioFilename: audio.mp3
AudioLeadIn: 0
PreviewTime: 80310
Countdown: 0
SampleSet: None
StackLeniency: 0.7
Mode: 0
LetterboxInBreaks: 0
WidescreenStoryboard: 1

[Editor]
Bookmarks: 6966,31435,58961,80361,93409,108100,127660,147231,166803,184744
DistanceSpacing: 1.2
BeatDivisor: 4
GridSize: 8
TimelineZoom: 2.2

[Metadata]
Title:Wild-jiisan
TitleUnicode:ワイルドじいさん
Artist:Chata
ArtistUnicode:茶太
Creator:posydomojka
Version:Silent's Normal
Source:
Tags:misho15_701_4_0 misho1570140 misho miwo kuyusu Silent Rock Silent_Rock bermei bermei.inazawa TOx2RO ぱんださんようちえん Pandasan Youchien C62 comiket 62 doujin music japanese jpop j-pop
BeatmapID:3361960
BeatmapSetID:1631344

[Difficulty]
HPDrainRate:3
CircleSize:3.3
OverallDifficulty:4
ApproachRate:5
SliderMultiplier:1.3
SliderTickRate:1

[Events]
//Background and Video events
0,0,"20211126_135254.jpg",0,0
//Break Periods
2,83623,92209
//Storyboard Layer 0 (Background)
//Storyboard Layer 1 (Fail)
//Storyboard Layer 2 (Pass)
//Storyboard Layer 3 (Foreground)
//Storyboard Layer 4 (Overlay)
//Storyboard Sound Samples

[TimingPoints]
443,407.747196738022,4,2,1,40,1,0
6966,-100,4,2,1,55,0,0
15223,-100,4,2,2,55,0,0
15937,-100,4,2,1,55,0,0
16752,-100,4,2,1,50,0,0
29800,-100,4,2,2,50,0,0
29902,-100,4,2,1,50,0,0
30004,-100,4,2,4,50,0,0
30106,-100,4,2,1,50,0,0
31431,-100,4,2,1,60,0,0
52226,-100,4,2,3,60,0,0
52532,-100,4,2,1,60,0,0
57527,-100,4,2,1,45,0,0
59158,-111.111111111111,4,2,1,45,0,0
68944,-100,4,2,1,50,0,0
71594,-100,4,2,2,50,0,0
72206,-100,4,2,1,50,0,0
74652,-100,4,2,2,50,0,0
75468,-100,4,2,1,50,0,0
76895,-105.263157894737,4,2,1,50,0,0
78118,-111.111111111111,4,2,1,50,0,0
78934,-100,4,2,2,50,0,0
79036,-100,4,2,1,50,0,0
79138,-100,4,2,4,50,0,0
79240,-100,4,2,1,50,0,0
79342,-100,4,2,2,50,0,0
79444,-100,4,2,1,50,0,0
80361,-100,4,2,1,45,0,0
83623,-125,4,2,1,45,0,0
93409,-111.111111111111,4,2,1,50,0,0
95244,-111.111111111111,4,2,1,55,0,0
95651,-111.111111111111,4,2,1,65,0,0
96059,-111.111111111111,4,2,1,75,0,0
96467,-111.111111111111,4,2,1,85,0,0
96875,-111.111111111111,4,2,1,95,0,0
97079,-111.111111111111,4,2,1,55,0,0
101360,-104.166666666667,4,2,1,55,0,0
104826,-100,4,2,1,55,0,0
106457,-100,4,2,2,70,0,0
106661,-100,4,2,1,70,0,0
107068,-100,4,2,2,70,0,0
107272,-100,4,2,1,70,0,0
108088,-90.9090909090909,4,2,1,70,0,0
108699,-90.9090909090909,4,2,3,70,0,0
108903,-90.9090909090909,4,2,1,70,0,0
120116,-90.9090909090909,4,2,2,70,0,0
120524,-90.9090909090909,4,2,1,70,0,0
121136,-90.9090909090909,4,2,2,70,0,0
121340,-90.9090909090909,4,2,1,70,0,0
121951,-90.9090909090909,4,2,2,70,0,0
122155,-90.9090909090909,4,2,1,70,0,0
122971,-90.9090909090909,4,2,3,70,0,0
123174,-90.9090909090909,4,2,1,70,0,0
123582,-90.9090909090909,4,2,2,70,0,0
123786,-90.9090909090909,4,2,1,70,0,0
126233,-90.9090909090909,4,2,1,45,0,0
127660,-90.9090909090909,4,2,1,75,0,0
128271,-90.9090909090909,4,2,3,75,0,0
128475,-90.9090909090909,4,2,1,75,0,0
129291,-90.9090909090909,4,2,2,75,0,0
129494,-90.9090909090909,4,2,1,75,0,0
129902,-90.9090909090909,4,2,2,75,0,0
130310,-90.9090909090909,4,2,1,75,0,0
130514,-90.9090909090909,4,2,2,75,0,0
130922,-90.9090909090909,4,2,1,75,0,0
131533,-90.9090909090909,4,2,3,75,0,0
131737,-90.9090909090909,4,2,1,75,0,0
132756,-90.9090909090909,4,2,2,75,0,0
132960,-90.9090909090909,4,2,1,75,0,0
133164,-90.9090909090909,4,2,2,75,0,0
134387,-90.9090909090909,4,2,1,75,0,0
134795,-90.9090909090909,4,2,2,75,0,0
134999,-90.9090909090909,4,2,1,75,0,0
135203,-90.9090909090909,4,2,2,75,0,0
135814,-90.9090909090909,4,2,1,75,0,0
136018,-90.9090909090909,4,2,2,75,0,0
136222,-90.9090909090909,4,2,1,75,0,0
136630,-90.9090909090909,4,2,2,75,0,0
137649,-90.9090909090909,4,2,1,75,0,0
138057,-90.9090909090909,4,2,2,75,0,0
138873,-90.9090909090909,4,2,4,75,0,0
139077,-90.9090909090909,4,2,1,75,0,0
139280,-90.9090909090909,4,2,2,75,0,0
140096,-90.9090909090909,4,2,1,75,0,0
140300,-90.9090909090909,4,2,2,75,0,0
140708,-90.9090909090909,4,2,1,75,0,0
141523,-90.9090909090909,4,2,2,75,0,0
141727,-90.9090909090909,4,2,1,75,0,0
142135,-90.9090909090909,4,2,2,75,0,0
142339,-90.9090909090909,4,2,1,75,0,0
142746,-90.9090909090909,4,2,2,75,0,0
144785,-90.9090909090909,4,2,1,75,0,0
144989,-90.9090909090909,4,2,2,95,0,0
145804,-90.9090909090909,4,2,1,45,0,0
147231,-100,4,2,1,60,0,0
154979,-100,4,2,3,60,0,0
155183,-100,4,2,1,60,0,0
158037,-100,4,2,3,60,0,0
158241,-100,4,2,1,60,0,0
164968,-100,4,2,3,60,0,0
165172,-100,4,2,1,60,0,0
166803,-125,4,2,1,50,0,0
183113,-125,4,2,1,45,0,0

[Colours]
Combo1 : 108,255,108
Combo2 : 255,53,53
Combo3 : 235,130,90
Combo4 : 255,255,128

[HitObjects]
64,169,6966,5,6,1:0:0:0:
170,282,7374,2,0,P|234:278|298:263,1,130,2|10,0:0|0:0,0:0:0:0:
364,124,8190,1,10,0:3:0:0:
364,124,8394,2,0,P|299:120|235:105,2,130,2|10|10,1:2|0:3|0:3,0:0:0:0:
298,263,9617,1,2,1:2:0:0:
298,263,9821,2,0,P|307:293|314:325,2,65,8|0|0,0:3|1:0|1:0,0:0:0:0:
161,187,10636,6,0,P|139:244|77:250,1,130,2|10,0:0|0:0,0:0:0:0:
4,118,11452,1,10,0:3:0:0:
4,118,11656,2,0,P|64:103|126:75,1,130,2|2,1:2|1:2,0:0:0:0:
263,0,12471,2,0,P|323:15|385:43,1,130,10|10,0:3|0:0,0:0:0:0:
387,62,13083,1,8,0:3:0:0:
512,156,13490,6,0,P|450:161|428:219,1,130,2|2,1:2|0:0,0:0:0:0:
443,230,14102,1,2,1:2:0:0:
256,192,14204,12,8,15937,0:0:0:0:
114,333,16752,6,0,P|140:239|146:142,1,195,0|2,1:0|0:0,1:0:0:0:
129,131,17568,1,8,0:0:0:0:
259,45,17976,1,2,0:0:0:0:
259,45,18180,2,0,P|285:102|346:110,1,130,2|10,1:2|0:0,0:0:0:0:
354,92,18791,1,10,0:0:0:0:
458,208,19199,1,8,0:0:0:0:
378,342,19607,2,0,P|348:330|321:311,1,65,2|10,0:0|0:0,0:0:0:0:
316,293,20014,6,0,P|222:317|139:368,1,195,0|0,1:0|1:0,1:0:0:0:
122,358,20830,1,8,0:0:0:0:
179,212,21238,1,8,0:3:0:0:
33,155,21645,6,0,P|39:186|50:217,2,65,2|2|2,1:2|1:2|0:0,1:0:0:0:
51,147,22257,2,0,P|66:85|122:58,1,130,2|2,1:2|1:2,0:0:0:0:
136,73,22869,1,10,0:0:0:0:
269,152,23276,2,0,P|275:120|286:89,2,65,2|2|2,0:0|1:2|0:0,0:0:0:0:
253,163,23888,2,0,P|308:238|399:221,1,195,2|8,1:2|0:0,0:0:0:0:
407,65,24907,6,0,P|396:34|390:2,2,65,10|10|10,0:1|0:0|0:0,0:0:0:0:
390,76,25519,1,10,0:0:0:0:
480,203,25927,2,0,P|490:233|496:265,2,65,10|10|10,0:1|0:0|0:0,0:0:0:0:
497,192,26539,1,10,0:0:0:0:
343,226,26946,1,10,0:1:0:0:
189,260,27354,1,10,0:0:0:0:
189,260,27558,2,0,P|203:197|212:133,1,130,10|8,0:1|0:0,0:0:0:0:
195,123,28169,5,8,0:0:0:0:
61,41,28577,2,0,P|31:51|-1:57,2,65,8|8|8,0:0|0:3|0:0,0:0:0:0:
18,191,29393,2,0,P|49:196|80:207,1,65,8|8,0:0|0:3,0:0:0:0:
101,220,29800,5,10,0:1:0:0:
101,220,30004,2,2,B|69:249|69:288|84:323|125:337|125:337|181:310|181:310|243:312|243:312|298:285|298:285|360:287|360:287|416:260,1,455,10|2,0:1|1:0,0:1:0:0:
164,39,32247,6,0,P|169:70|180:101,2,65,10|2|2,0:0|0:0|0:0,0:0:0:0:
145,27,32858,2,0,P|239:1|336:4,1,195,2|0,1:0|0:0,0:0:0:0:
450,112,33878,6,0,P|481:107|512:96,2,65,10|10|2,0:0|0:0|0:0,0:0:0:0:
436,107,34489,1,10,0:0:0:0:
436,107,34693,2,0,P|451:169|449:234,1,130,2|0,1:0|0:0,0:0:0:0:
308,303,35509,6,0,P|313:334|324:365,2,65,10|2|2,0:3|0:0|0:0,0:0:0:0:
290,291,36120,1,10,0:1:0:0:
137,257,36528,1,10,0:0:0:0:
171,104,36936,1,2,1:2:0:0:
324,138,37344,2,0,P|366:115|374:40,1,130,10|8,0:0|0:0,0:0:0:0:
354,34,37955,1,2,1:0:0:0:
74,273,38771,6,0,P|104:262|136:256,2,65,10|2|2,0:0|0:0|0:0,0:0:0:0:
57,283,39382,2,0,P|67:218|65:154,1,130,10|2,0:1|0:0,0:0:0:0:
175,42,40198,2,0,P|209:97|232:157,1,130,2|10,0:0|0:1,0:0:0:0:
364,241,41013,5,8,0:0:0:0:
364,241,41217,2,0,P|277:265|285:355,1,195,2|0,1:0|1:0,1:0:0:0:
304,354,42033,1,10,0:0:0:0:
461,294,42440,1,10,0:3:0:0:
461,294,42644,2,0,P|449:230|443:166,1,130,10|10,0:1|0:0,0:0:0:0:
431,158,43256,1,10,0:3:0:0:
431,158,43460,2,0,P|490:141|506:81,1,130,10|10,0:0|0:0,0:0:0:0:
489,72,44071,1,8,0:0:0:0:
350,0,44479,6,0,P|285:6|221:18,1,130,2|2,1:0|0:0,1:0:0:0:
210,34,45091,2,0,P|263:71|312:113,1,130,10|10,0:1|0:3,0:0:0:0:
307,134,45702,1,2,0:0:0:0:
307,134,45906,1,2,1:0:0:0:
157,180,46314,2,0,P|140:343|297:292,1,390,2|8,0:0|0:0,0:0:0:0:
307,134,47945,5,8,0:0:0:0:
307,134,48149,2,0,P|350:176|405:150,1,130,2|2,1:0|0:0,1:0:0:0:
424,149,48761,2,0,P|403:126|400:94,1,65,2|8,1:0|0:0,0:0:0:0:
268,22,49372,1,10,0:3:0:0:
268,22,49576,2,0,P|234:72|174:58,1,130,10|8,0:1|0:0,0:0:0:0:
75,179,50392,1,0,0:0:0:0:
75,179,50595,2,0,P|106:169|138:165,1,65,8|8,0:0|0:0,0:0:0:0:
155,156,51003,6,0,P|149:252|109:341,1,195,2|2,1:0|1:2,1:0:0:0:
90,342,51819,1,10,0:0:0:0:
242,298,52226,1,10,0:3:0:0:
242,298,52430,2,0,P|285:344|349:350,1,130,10|0,0:3|1:0,0:0:0:0:
354,331,53042,1,8,0:0:0:0:
461,218,53450,1,8,0:0:0:0:
461,218,53654,2,0,P|434:159|452:98,1,130,10|0,0:1|0:0,0:0:0:0:
470,99,54265,5,10,0:1:0:0:
324,42,54673,1,10,0:0:0:0:
224,163,55081,1,10,0:0:0:0:
82,110,55488,1,10,0:0:0:0:
82,110,55692,2,0,B|59:150|59:150|76:231,2,130,10|10|10,0:1|0:1|0:1,0:0:0:0:
231,171,56915,5,10,0:1:0:0:
231,171,57119,1,10,0:3:0:0:
231,171,57323,2,0,P|416:170|308:319,1,455,10|0,0:1|0:0,0:0:0:0:
184,383,59158,6,0,P|135:350|83:323,1,116.999996429443,2|2,0:0|0:0,0:0:0:0:
66,326,59770,2,0,P|111:294|104:239,1,116.999996429443,2|2,0:0|0:0,0:0:0:0:
174,117,60585,2,0,B|110:153|33:92|58:30|58:30|174:14|279:5,1,409.499987503052,2|0,0:0|0:0,0:0:0:0:
387,94,62420,6,0,P|354:142|327:194,1,116.999996429443,2|2,0:0|0:0,0:0:0:0:
311,200,63032,2,0,P|365:210|381:263,1,116.999996429443,2|2,0:0|0:0,0:0:0:0:
460,379,63847,2,0,P|261:327|61:284,1,409.499987503052,2|0,0:0|0:0,0:0:0:0:
0,156,65682,6,0,P|57:145|113:127,1,116.999996429443,2|2,0:0|0:0,0:0:0:0:
128,137,66294,2,0,P|148:56|229:42,1,175.499994644165,2|2,0:0|0:0,0:0:0:0:
247,40,67109,2,0,B|221:120|207:212|207:212|318:171|431:154,1,409.499987503052,2|0,0:0|0:0,0:0:0:0:
477,304,68944,6,0,P|446:291|418:275,2,65,2|2|2,0:1|0:0|0:0,0:0:0:0:
464,319,69556,2,0,P|399:323|336:338,1,130,2|2,0:1|0:0,0:0:0:0:
332,360,70167,1,2,0:0:0:0:
332,360,70371,2,0,P|252:231|106:270,1,325,2|0,0:1|0:0,0:0:0:0:
115,287,71594,1,2,0:0:0:0:
88,54,72206,6,0,P|95:85|106:115,2,65,2|2|2,0:1|0:0|0:0,0:0:0:0:
103,42,72818,1,2,0:1:0:0:
242,112,73225,2,0,P|234:143|223:173,2,65,2|2|2,0:0|0:0|0:0,0:0:0:0:
356,5,74041,2,0,P|388:164|442:316,1,325,2|2,0:1|0:0,0:0:0:0:
294,367,75468,6,0,P|263:359|233:348,2,65,2|2|2,0:1|0:0|0:0,0:0:0:0:
312,359,76080,1,2,0:1:0:0:
368,213,76487,2,0,P|337:221|307:232,1,65,2|2,0:0|0:0,0:0:0:0:
289,224,76895,1,2,0:1:0:0:
346,90,77303,2,0,P|324:67|299:49,2,61.7499983510972,0|8|8,1:0|0:0|0:3,0:0:0:0:
470,58,78118,2,0,P|477:30|480:1,2,58.4999982147217,0|8|8,1:0|0:3|0:3,0:0:0:0:
508,214,78934,5,2,1:0:0:0:
508,214,79138,2,2,B|478:288|478:288|388:297|388:297|352:378,1,260,10|8,0:1|0:3,0:1:0:0:
237,272,80361,6,0,P|146:280|114:195,1,195,0|0,1:0|1:0,1:0:0:0:
128,181,81176,2,0,P|174:175|200:135,1,97.5,8|8,0:3|0:3,0:0:0:0:
431,315,93409,6,0,P|373:303|324:273,1,116.999996429443,0|8,1:0|0:0,1:0:0:0:
328,137,94224,1,8,0:0:0:0:
328,137,94428,1,8,0:3:0:0:
188,133,94836,1,8,0:0:0:0:
187,273,95244,6,0,P|138:303|81:315,1,116.999996429443,10|10,0:0|0:0,0:0:0:0:
36,187,96059,2,0,P|85:157|142:145,1,116.999996429443,10|10,0:0|0:0,0:0:0:0:
282,175,96875,5,10,0:0:0:0:
282,175,97079,2,0,P|251:126|240:69,1,116.999996429443,2|0,1:2|0:0,1:0:0:0:
368,24,97894,2,0,P|398:73|410:130,1,116.999996429443,8|8,0:0|0:3,0:0:0:0:
424,141,98506,2,0,P|385:183|389:240,1,116.999996429443,8|8,0:0|0:0,0:0:0:0:
252,242,99321,1,0,1:0:0:0:
252,242,99525,2,0,P|224:251|199:267,1,58.4999982147217,8|8,0:0|0:0,0:0:0:0:
195,284,99933,6,0,P|110:262|29:227,1,175.499994644165,0|8,1:0|0:3,1:0:0:0:
26,210,100748,1,8,0:0:0:0:
104,94,101156,1,0,1:0:0:0:
104,94,101360,2,0,P|163:77|219:48,1,124.800003046875,0|0,1:0|1:0,0:0:0:0:
222,30,101972,1,8,0:0:0:0:
330,133,102379,2,0,P|359:142|387:156,2,62.4000015234375,10|10|2,0:0|0:0|1:2,0:0:0:0:
266,268,103195,5,10,0:1:0:0:
158,165,103603,1,10,0:0:0:0:
222,30,104010,1,10,0:0:0:0:
98,304,104826,5,0,1:0:0:0:
98,304,105030,1,10,0:1:0:0:
252,281,105437,1,10,0:1:0:0:
406,258,105845,1,10,0:1:0:0:
387,108,106253,5,10,0:1:0:0:
387,108,106457,2,2,B|391:61|340:30|285:51|281:98|281:98|290:146|290:146|273:191|273:191|282:238|282:238|265:283|265:283|261:329|311:361|366:339|370:292,1,520,6|2,1:0|1:0,1:0:0:0:
235,192,108496,5,2,1:2:0:0:
235,192,108699,2,0,P|165:182|93:177,1,143.000004364014,10|10,0:3|0:0,0:0:0:0:
5,29,109515,2,0,P|110:11|217:4,1,214.500006546021,10|0,0:1|1:0,0:0:0:0:
235,16,110330,1,8,0:3:0:0:
349,151,110738,1,8,0:0:0:0:
349,151,110942,1,8,0:3:0:0:
480,39,111350,6,0,P|428:85|442:151,1,143.000004364014,2|2,1:0|3:2,0:0:0:0:
463,154,111961,1,10,0:1:0:0:
406,316,112369,1,10,0:0:0:0:
243,259,112777,2,0,P|54:322|129:136,1,500.500015274048,10|8,0:1|0:0,1:0:0:0:
267,35,114612,6,0,P|232:25|201:8,2,71.5000021820069,2|2|2,1:0|3:2|3:2,0:0:0:0:
286,25,115223,1,10,0:1:0:0:
387,163,115631,2,0,P|352:172|321:189,1,71.5000021820069,10|10,0:0|0:3,0:0:0:0:
298,189,116039,2,0,P|422:259|509:372,1,286.000008728028,2|8,1:0|0:0,0:0:0:0:
342,332,117262,1,8,0:3:0:0:
176,311,117670,1,0,1:0:0:0:
176,311,117874,6,0,P|128:359|65:336,1,143.000004364014,2|2,1:0|3:2,1:0:0:0:
63,314,118485,1,10,0:1:0:0:
164,175,118893,1,2,1:2:0:0:
24,74,119301,2,0,P|94:57|159:28,1,143.000004364014,2|8,1:0|0:0,1:0:0:0:
165,8,119912,1,8,0:0:0:0:
308,102,120320,2,2,P|296:135|287:170,2,71.5000021820069,10|8|0,0:1|0:0|1:0,0:1:0:0:
469,41,121136,6,2,P|480:74|489:109,2,71.5000021820069,10|2|2,0:1|3:2|3:2,0:1:0:0:
448,35,121747,1,2,1:0:0:0:
292,107,122155,2,0,P|280:140|271:175,1,71.5000021820069,2|10,3:2|0:0,0:0:0:0:
282,194,122563,1,2,3:2:0:0:
149,304,122971,2,0,P|217:292|265:342,1,143.000004364014,10|0,0:3|1:0,0:0:0:0:
258,361,123582,2,2,P|291:349|326:341,1,71.5000021820069,10|0,0:1|1:0,0:1:0:0:
346,349,123990,1,8,0:3:0:0:
427,198,124398,6,0,P|400:131|391:60,1,143.000004364014,2|2,1:0|1:2,0:0:0:0:
408,48,125009,1,10,0:1:0:0:
290,172,125417,1,10,0:3:0:0:
166,54,125825,1,2,1:0:0:0:
170,58,127048,5,8,0:3:0:0:
170,58,127252,1,8,0:0:0:0:
50,181,127660,6,0,P|119:178|165:230,1,143.000004364014,6|10,1:0|0:3,1:0:0:0:
152,247,128271,1,10,0:3:0:0:
311,184,128679,1,2,3:2:0:0:
374,342,129087,2,0,P|423:208|487:81,1,286.000008728028,2|2,1:0|3:1,0:0:0:0:
509,82,130106,2,2,P|439:84|393:32,1,143.000004364014,10|2,0:1|3:2,0:1:0:0:
311,184,130922,6,0,P|274:122|229:67,1,143.000004364014,2|2,1:0|3:2,0:0:0:0:
207,70,131533,1,10,0:3:0:0:
105,208,131941,1,2,3:2:0:0:
242,310,132349,2,0,B|317:300|396:283|396:283|422:216|452:161,1,286.000008728028,2|2,1:0|3:2,0:0:0:0:
470,156,133368,2,0,P|449:126|437:93,2,71.5000021820069,8|10|2,0:0|0:0|1:0,0:0:0:0:
307,99,134184,6,2,P|327:69|339:36,2,71.5000021820069,2|2|2,1:0|3:2|3:2,0:1:0:0:
286,104,134795,1,2,1:0:0:0:
158,219,135203,2,0,P|170:252|190:281,1,71.5000021820069,2|2,3:1|3:1,0:0:0:0:
209,290,135611,2,2,P|84:266|115:142,1,286.000008728028,2|0,1:0|3:0,0:1:0:0:
128,124,136630,2,0,P|195:142|268:149,1,143.000004364014,10|2,0:1|3:1,0:0:0:0:
402,42,137446,6,0,P|470:50|496:113,1,143.000004364014,2|2,1:0|1:2,0:0:0:0:
478,126,138057,1,2,1:0:0:0:
333,218,138465,1,2,3:1:0:0:
425,363,138873,2,2,P|355:345|284:338,1,143.000004364014,10|10,0:1|0:1,0:1:0:0:
270,354,139484,1,10,0:1:0:0:
124,262,139892,2,0,P|139:294|150:328,2,71.5000021820069,10|8|8,0:1|0:3|0:0,0:0:0:0:
267,167,140708,6,0,P|282:134|293:100,2,71.5000021820069,2|2|2,1:0|3:2|3:2,1:0:0:0:
245,170,141319,1,2,1:0:0:0:
112,278,141727,2,0,P|127:310|138:344,1,71.5000021820069,2|10,3:2|0:3,0:0:0:0:
123,359,142135,1,2,1:0:0:0:
277,285,142542,2,0,P|309:300|343:311,1,71.5000021820069,2|10,1:0|0:1,0:0:0:0:
500,382,143154,2,2,P|461:323|474:254,1,143.000004364014,2|10,3:1|0:1,0:1:0:0:
512,87,143970,6,0,P|442:101|374:125,1,143.000004364014,2|2,1:0|3:1,0:0:0:0:
367,145,144581,1,10,0:1:0:0:
225,47,144989,1,2,3:1:0:0:
127,189,145397,1,2,1:0:0:0:
127,189,147231,6,0,P|186:204|192:265,1,130,6|0,1:0|0:0,1:0:0:0:
181,281,147843,1,2,1:0:0:0:
181,281,148047,2,0,P|148:281|122:299,1,65,8|8,0:3|0:0,0:0:0:0:
255,381,148659,2,0,P|311:350|363:311,1,130,2|2,1:0|1:2,0:0:0:0:
362,292,149270,1,10,0:0:0:0:
490,203,149678,2,0,P|461:188|437:166,1,65,8|0,0:3|1:0,0:0:0:0:
436,147,150086,1,10,0:0:0:0:
334,28,150493,6,0,P|340:120|261:168,1,195,2|2,1:0|1:0,1:0:0:0:
246,155,151309,1,10,0:0:0:0:
129,258,151717,1,10,0:3:0:0:
129,258,151921,2,0,P|109:195|81:137,1,130,2|8,1:0|0:0,0:0:0:0:
96,125,152532,1,8,0:0:0:0:
246,155,152940,1,8,0:0:0:0:
360,254,153348,2,0,P|346:284|336:315,1,65,10|10,0:0|0:0,0:0:0:0:
323,329,153755,6,0,P|414:317|439:228,1,195,2|2,1:0|1:0,1:0:0:0:
453,216,154571,1,8,0:0:0:0:
334,123,154979,1,10,0:3:0:0:
333,123,155183,2,0,P|276:153|215:176,1,130,2|10,1:0|0:0,1:0:0:0:
198,168,155794,1,10,0:0:0:0:
109,296,156202,2,0,P|137:311|163:330,2,65,10|8|8,0:0|0:0|0:3,0:0:0:0:
16,170,157017,6,0,P|76:155|96:96,1,130,2|2,1:0|1:2,0:0:0:0:
111,84,157629,2,0,P|82:68|56:49,1,65,2|10,0:1|0:0,0:0:0:0:
211,14,158241,1,2,0:0:0:0:
211,14,158445,2,0,P|215:78|229:142,1,130,2|10,1:0|0:0,1:0:0:0:
245,151,159056,1,2,1:2:0:0:
168,287,159464,2,0,P|136:293|120:320,2,65,8|10|10,0:0|0:0|0:3,0:0:0:0:
296,373,160279,6,0,P|293:311|345:277,1,130,2|2,1:0|0:0,1:0:0:0:
353,260,160891,2,0,P|369:286|400:292,1,65,2|10,1:0|0:0,0:0:0:0:
506,176,161503,1,8,0:3:0:0:
506,176,161707,1,10,0:1:0:0:
429,41,162114,2,0,P|366:55|304:74,1,130,2|8,1:0|0:3,0:0:0:0:
295,91,162726,2,0,P|263:83|232:74,2,65,10|8|8,0:1|0:0|0:3,0:0:0:0:
344,239,163541,6,0,P|281:243|246:295,1,130,2|2,1:0|0:0,1:0:0:0:
113,379,164357,2,0,P|95:351|83:321,1,65,10|2,0:0|1:0,0:0:0:0:
68,320,164765,1,2,1:2:0:0:
68,320,164968,2,0,P|110:271|137:212,1,130,10|0,0:3|0:0,0:0:0:0:
55,0,166803,5,6,0:0:0:0:
147,91,167211,1,2,0:0:0:0:
147,91,167415,2,0,P|195:72|246:61,1,104,2|2,0:0|0:0,0:0:0:0:
363,19,168230,2,0,P|349:184|512:212,1,364,2|0,0:0|0:0,0:0:0:0:
461,326,170065,5,2,0:0:0:0:
346,370,170473,1,2,0:0:0:0:
346,370,170677,1,2,0:0:0:0:
268,274,171085,1,2,0:0:0:0:
141,262,171492,2,0,B|77:293|30:240|30:240|101:135|195:65,1,364,2|0,0:0|0:0,0:0:0:0:
300,0,173327,5,2,0:0:0:0:
404,78,173735,1,2,0:0:0:0:
403,78,173939,2,0,P|390:128|383:179,1,104,2|2,0:0|0:0,0:0:0:0:
400,192,174551,1,2,0:0:0:0:
399,192,174754,2,0,P|229:253|81:358,1,364,2|0,0:0|0:0,0:0:0:0:
97,235,176589,5,2,0:1:0:0:
4,159,176997,1,2,0:0:0:0:
4,159,177201,2,0,P|61:127|64:75,1,104,2|2,0:1|0:0,0:0:0:0:
172,25,178016,2,0,P|230:183|398:166,1,364,2|0,0:1|0:0,0:0:0:0:
476,263,179851,5,2,0:1:0:0:
401,363,180259,1,2,0:0:0:0:
401,363,180463,2,0,P|351:347|301:334,1,104,2|2,0:1|0:0,0:0:0:0:
294,349,181075,1,2,0:0:0:0:
294,349,181278,1,2,0:0:0:0:
229,242,181686,2,0,B|183:306|109:348|109:348|89:302|58:264,1,260,2|0,0:1|0:0,0:0:0:0:
132,164,183113,6,0,P|97:127|98:76,1,104,2|2,0:0|0:0,0:0:0:0:
98,60,183725,2,0,P|149:69|201:73,1,104,2|2,0:0|0:0,0:0:0:0:
212,62,184336,1,2,0:0:0:0:
225,53,184540,1,2,0:0:0:0:
