osu file format v14

[General]
AudioFilename: audio.mp3
AudioLeadIn: 0
PreviewTime: 80310
Countdown: 0
SampleSet: Soft
StackLeniency: 0.7
Mode: 0
LetterboxInBreaks: 0
WidescreenStoryboard: 1

[Editor]
Bookmarks: 31435,58961,76087,93419,108100,143169
DistanceSpacing: 1.5
BeatDivisor: 12
GridSize: 32
TimelineZoom: 2.2

[Metadata]
Title:Wild-jiisan
TitleUnicode:ワイルドじいさん
Artist:Chata
ArtistUnicode:茶太
Creator:posydomojka
Version:Hard
Source:
Tags:misho15_701_4_0 misho1570140 misho miwo kuyusu Silent Rock Silent_Rock bermei bermei.inazawa TOx2RO ぱんださんようちえん Pandasan Youchien C62 comiket 62 doujin music japanese jpop j-pop
BeatmapID:3338867
BeatmapSetID:1631344

[Difficulty]
HPDrainRate:4
CircleSize:3.7
OverallDifficulty:6
ApproachRate:7.5
SliderMultiplier:1.6
SliderTickRate:1

[Events]
//Background and Video events
0,0,"20211126_135254.jpg",0,0
//Break Periods
2,82400,88516
//Storyboard Layer 0 (Background)
//Storyboard Layer 1 (Fail)
//Storyboard Layer 2 (Pass)
//Storyboard Layer 3 (Foreground)
//Storyboard Layer 4 (Overlay)
//Storyboard Sound Samples

[TimingPoints]
443,407.747196738022,4,2,1,40,1,0
6966,-100,4,2,1,55,0,0
15223,-100,4,2,2,55,0,0
15937,-100,4,2,1,55,0,0
16752,-100,4,2,1,50,0,0
29800,-100,4,2,2,50,0,0
29902,-100,4,2,1,50,0,0
30004,-100,4,2,4,50,0,0
30106,-100,4,2,1,50,0,0
31431,-100,4,2,1,60,0,0
52226,-100,4,2,3,60,0,0
52532,-100,4,2,1,60,0,0
57527,-100,4,2,1,45,0,0
59158,-111.111111111111,4,2,1,45,0,0
68944,-100,4,2,1,50,0,0
71594,-100,4,2,2,50,0,0
72206,-100,4,2,1,50,0,0
74652,-100,4,2,2,50,0,0
75468,-100,4,2,1,50,0,0
77099,-90.9090909090909,4,2,1,50,0,0
78934,-90.9090909090909,4,2,2,50,0,0
79036,-90.9090909090909,4,2,1,50,0,0
79138,-90.9090909090909,4,2,4,50,0,0
79240,-90.9090909090909,4,2,1,50,0,0
79342,-90.9090909090909,4,2,2,50,0,0
79444,-90.9090909090909,4,2,1,50,0,0
80361,-90.9090909090909,4,2,1,45,0,0
90147,-111.111111111111,4,2,1,45,0,0
93409,-111.111111111111,4,2,1,50,0,0
95244,-111.111111111111,4,2,1,55,0,0
95651,-111.111111111111,4,2,1,65,0,0
96059,-111.111111111111,4,2,1,75,0,0
96467,-111.111111111111,4,2,1,85,0,0
96875,-111.111111111111,4,2,1,95,0,0
97079,-111.111111111111,4,2,1,55,0,0
101360,-104.166666666667,4,2,1,55,0,0
104826,-100,4,2,1,55,0,0
106457,-100,4,2,2,70,0,0
106661,-100,4,2,1,70,0,0
107068,-100,4,2,2,70,0,0
107272,-100,4,2,1,70,0,0
108088,-90.9090909090909,4,2,1,70,0,0
108699,-90.9090909090909,4,2,3,70,0,0
108903,-90.9090909090909,4,2,1,70,0,0
120116,-90.9090909090909,4,2,2,70,0,0
120524,-90.9090909090909,4,2,1,70,0,0
121136,-90.9090909090909,4,2,2,70,0,0
121340,-90.9090909090909,4,2,1,70,0,0
121951,-90.9090909090909,4,2,2,70,0,0
122155,-90.9090909090909,4,2,1,70,0,0
122971,-90.9090909090909,4,2,3,70,0,0
123174,-90.9090909090909,4,2,1,70,0,0
123582,-90.9090909090909,4,2,2,70,0,0
123786,-90.9090909090909,4,2,1,70,0,0
126233,-90.9090909090909,4,2,1,45,0,0
127660,-83.3333333333333,4,2,1,75,0,0
128271,-83.3333333333333,4,2,3,75,0,0
128475,-83.3333333333333,4,2,1,75,0,0
129291,-83.3333333333333,4,2,2,75,0,0
129494,-83.3333333333333,4,2,1,75,0,0
129902,-83.3333333333333,4,2,2,75,0,0
130310,-83.3333333333333,4,2,1,75,0,0
130514,-83.3333333333333,4,2,2,75,0,0
130922,-83.3333333333333,4,2,1,75,0,0
131533,-83.3333333333333,4,2,3,75,0,0
131737,-83.3333333333333,4,2,1,75,0,0
132756,-83.3333333333333,4,2,2,75,0,0
132960,-83.3333333333333,4,2,1,75,0,0
133164,-83.3333333333333,4,2,2,75,0,0
134387,-83.3333333333333,4,2,1,75,0,0
134795,-83.3333333333333,4,2,2,75,0,0
134999,-83.3333333333333,4,2,1,75,0,0
135203,-83.3333333333333,4,2,2,75,0,0
135814,-83.3333333333333,4,2,1,75,0,0
136018,-83.3333333333333,4,2,2,75,0,0
136222,-83.3333333333333,4,2,1,75,0,0
136630,-83.3333333333333,4,2,2,75,0,0
137649,-83.3333333333333,4,2,1,75,0,0
138057,-83.3333333333333,4,2,2,75,0,0
138873,-83.3333333333333,4,2,4,75,0,0
139077,-83.3333333333333,4,2,1,75,0,0
139280,-83.3333333333333,4,2,2,75,0,0
140096,-83.3333333333333,4,2,1,75,0,0
140300,-83.3333333333333,4,2,2,75,0,0
140708,-83.3333333333333,4,2,1,75,0,0
141523,-83.3333333333333,4,2,2,75,0,0
141727,-83.3333333333333,4,2,1,75,0,0
142135,-83.3333333333333,4,2,2,75,0,0
142339,-83.3333333333333,4,2,1,75,0,0
142746,-83.3333333333333,4,2,2,75,0,0
144785,-83.3333333333333,4,2,1,75,0,0
144989,-83.3333333333333,4,2,2,95,0,0
145804,-83.3333333333333,4,2,1,45,0,0
147231,-100,4,2,1,60,0,0
154979,-100,4,2,3,60,0,0
155183,-100,4,2,1,60,0,0
158037,-100,4,2,3,60,0,0
158241,-100,4,2,1,60,0,0
164968,-100,4,2,3,60,0,0
165172,-100,4,2,1,60,0,0
166803,-125,4,2,1,50,0,0
183113,-125,4,2,1,45,0,0

[Colours]
Combo1 : 108,255,108
Combo2 : 255,53,53
Combo3 : 235,130,90
Combo4 : 255,255,128

[HitObjects]
0,88,6966,6,0,P|49:38|155:47,1,160,6|2,1:0|0:0,0:0:0:0:
287,84,7782,2,0,P|324:106|380:101,2,80,10|2|10,0:0|0:0|0:3,0:0:0:0:
217,124,8394,2,0,P|204:190|202:318,1,160,2|10,1:2|0:3,0:0:0:0:
341,357,9209,2,0,P|391:338|431:330,1,80,10|8,0:3|0:0,0:0:0:0:
453,348,9515,1,8,0:3:0:0:
453,348,9617,1,2,1:2:0:0:
468,269,9821,2,0,P|477:205|488:162,1,80,8|0,0:3|1:0,0:0:0:0:
410,151,10228,6,0,P|432:80|367:16,1,160,0|2,1:0|0:0,0:0:0:0:
231,79,11044,2,0,P|182:103|127:91,1,80,10|2,0:0|0:0,0:0:0:0:
96,50,11452,1,10,0:3:0:0:
42,109,11656,2,0,P|34:177|30:277,1,160,2|2,1:2|1:2,0:0:0:0:
181,318,12471,2,0,B|251:312|229:364|322:357,1,120,10|8,0:3|0:3,0:0:0:0:
325,336,12879,1,10,0:0:0:0:
359,263,13083,2,0,P|419:272|454:273,1,80,8|0,0:3|1:0,0:0:0:0:
473,344,13490,6,0,P|482:268|479:175,1,160,2|2,1:2|0:2,0:0:0:0:
480,184,14102,1,2,1:2:0:0:
39,296,15325,2,0,P|19:298|0:301,2,40,2|2|2,0:0|0:0|0:0,0:0:0:0:
185,361,15937,2,0,P|235:363|289:350,1,80,8|0,0:0|0:0,0:0:0:0:
327,307,16345,1,8,0:3:0:0:
236,175,16752,6,0,P|238:95|236:15,1,160,0|2,1:0|0:0,1:0:0:0:
316,6,17364,1,2,0:0:0:0:
383,48,17568,2,0,P|441:71|451:180,1,160,8|2,0:0|0:0,0:0:0:0:
431,234,18180,6,0,P|433:304|414:364,1,120,2|0,1:2|0:0,0:0:0:0:
382,369,18587,1,10,0:0:0:0:
315,324,18791,2,0,P|272:308|220:312,1,80,10|2,0:0|1:2,1:0:0:0:
173,355,19199,1,8,0:0:0:0:
173,355,19301,1,8,0:0:0:0:
123,291,19505,2,0,B|55:287|81:337|-4:337,1,120,8|10,0:0|0:0,0:0:0:0:
13,255,20014,6,0,P|24:180|22:88,1,160,0|2,1:0|0:1,1:0:0:0:
158,10,20830,1,8,0:0:0:0:
232,38,21034,1,0,1:0:0:0:
199,111,21238,2,0,P|202:138|205:211,1,80,8|8,0:3|0:0,0:0:0:0:
183,224,21543,1,8,0:0:0:0:
183,224,21645,1,2,1:2:0:0:
259,364,22053,5,2,0:0:0:0:
300,295,22257,2,0,P|371:304|437:387,1,160,2|2,1:2|1:2,0:0:0:0:
481,303,22869,2,0,P|486:240|486:201,1,80,10|2,0:0|1:2,0:0:0:0:
412,192,23276,2,0,P|405:140|405:100,1,80,2|2,0:0|1:2,0:0:0:0:
461,55,23684,1,2,0:0:0:0:
387,23,23888,2,0,P|273:15|196:18,1,160,2|0,1:2|1:0,0:0:0:0:
175,77,24500,1,8,0:0:0:0:
13,143,24907,5,10,0:1:0:0:
97,182,25111,1,10,0:0:0:0:
39,258,25315,1,10,0:0:0:0:
39,258,25519,1,10,0:0:0:0:
0,384,25927,5,10,0:1:0:0:
78,368,26131,1,10,0:0:0:0:
156,352,26334,1,10,0:0:0:0:
234,337,26538,1,10,0:0:0:0:
330,209,26946,6,0,B|413:203|388:275|476:261,1,160,10|10,0:1|0:0,1:0:0:0:
505,187,27558,2,0,P|490:116|485:19,1,160,10|8,0:1|0:0,0:0:0:0:
407,7,28169,5,8,0:0:0:0:
272,94,28577,1,8,0:0:0:0:
194,67,28781,2,0,P|150:64|85:52,1,80,8|8,0:3|0:0,0:0:0:0:
84,80,29087,1,0,1:0:0:0:
84,80,29189,1,0,1:0:0:0:
26,136,29393,2,0,P|30:201|27:242,1,80,8|8,0:0|0:3,0:0:0:0:
99,243,29800,1,10,0:1:0:0:
36,321,30004,6,2,P|129:376|370:237,1,400,10|8,0:1|0:0,0:1:0:0:
492,147,31431,6,0,P|488:210|483:336,1,160,2|0,1:0|0:0,1:0:0:0:
334,365,32247,1,10,0:0:0:0:
274,311,32451,1,2,0:0:0:0:
200,342,32655,1,2,0:0:0:0:
152,277,32858,2,0,B|78:271|109:316|32:313,1,120,2|0,1:0|0:0,0:0:0:0:
20,285,33266,1,8,0:0:0:0:
20,285,33368,2,0,P|17:209|11:173,1,80,8|8,0:0|0:0,0:0:0:0:
66,95,33878,1,10,0:0:0:0:
135,134,34082,1,10,0:0:0:0:
194,80,34286,2,0,L|258:88,1,40,2|8,0:0|0:3,0:0:0:0:
257,117,34489,2,0,L|310:111,1,40,10|8,0:0|0:0,0:0:0:0:
316,77,34693,6,0,P|419:107|466:242,1,240,2|0,1:0|1:0,0:0:0:0:
388,231,35509,2,0,P|354:279|362:331,1,80,10|2,0:3|0:0,0:0:0:0:
404,359,35917,1,2,0:0:0:0:
329,330,36120,6,0,P|228:349|156:368,1,160,10|10,0:1|0:0,0:0:0:0:
51,258,36936,2,0,P|103:263|149:269,1,80,2|8,1:2|0:0,0:0:0:0:
166,248,37242,1,0,0:0:0:0:
166,248,37344,1,10,0:0:0:0:
221,190,37547,2,0,P|226:141|226:99,1,80,0|8,0:0|0:0,0:0:0:0:
185,41,37955,6,0,B|99:18|119:95|35:76,1,160,2|0,1:0|0:0,1:0:0:0:
185,140,38771,2,0,P|239:147|282:152,1,80,10|2,0:0|0:0,0:0:0:0:
322,94,39178,1,2,0:0:0:0:
383,145,39382,2,0,P|411:215|399:314,1,160,10|2,0:1|0:0,0:0:0:0:
260,367,40198,2,0,P|224:328|144:321,1,120,2|8,0:0|0:0,0:0:0:0:
131,344,40606,1,10,0:1:0:0:
74,287,40809,1,8,0:0:0:0:
144,234,41013,1,8,0:0:0:0:
107,160,41217,6,0,P|100:92|85:1,1,160,2|0,1:0|0:0,1:0:0:0:
236,54,42033,6,0,P|302:61|341:60,1,80,10|2,0:0|0:0,0:0:0:0:
366,123,42440,1,10,0:3:0:0:
440,94,42644,2,0,P|494:147|492:256,1,160,10|10,0:1|0:0,0:0:0:0:
487,316,43256,1,10,0:3:0:0:
417,271,43460,2,0,P|337:258|275:247,1,120,10|8,0:0|0:0,0:0:0:0:
276,217,43868,1,10,0:0:0:0:
223,276,44071,2,0,P|166:284|121:294,1,80,8|0,0:0|0:0,0:0:0:0:
65,306,44479,6,0,P|16:249|50:152,1,160,2|2,1:0|0:0,1:0:0:0:
109,156,45091,2,0,P|160:122|162:66,1,120,10|0,0:1|0:0,0:0:0:0:
171,30,45499,1,10,0:3:0:0:
93,47,45703,1,2,0:0:0:0:
15,63,45906,1,2,1:0:0:0:
153,142,46314,2,0,B|308:119|230:228|400:210,1,240,2|0,0:0|0:0,0:0:0:0:
512,0,47537,2,0,P|495:57|494:117,1,120,8|0,0:0|0:0,0:0:0:0:
464,144,47945,1,8,0:0:0:0:
373,159,48149,6,0,P|357:235|393:305,1,160,2|2,1:0|0:0,1:0:0:0:
470,352,48761,1,2,1:0:0:0:
470,352,48862,1,0,1:0:0:0:
470,352,48964,2,0,P|389:360|287:374,1,160,8|10,0:0|0:3,0:0:0:0:
252,314,49576,1,10,0:1:0:0:
252,314,49678,1,8,0:0:0:0:
136,348,49984,2,0,P|73:343|32:340,1,80,8|0,0:0|0:0,0:0:0:0:
2,281,50392,1,0,0:0:0:0:
36,208,50595,2,0,L|87:197,1,40,8|0,0:0|0:0,0:0:0:0:
107,223,50799,2,0,L|155:227,1,40,8|0,0:0|0:0,0:0:0:0:
176,199,51003,6,0,P|152:146|173:44,1,160,2|2,1:0|0:0,1:0:0:0:
251,24,51615,1,2,1:2:0:0:
251,24,51717,1,0,0:0:0:0:
251,24,51819,2,0,P|296:62|298:100,1,80,10|2,0:0|0:0,0:0:0:0:
334,152,52226,1,10,0:3:0:0:
283,213,52430,2,0,P|270:295|265:366,1,120,10|8,0:3|0:3,0:0:0:0:
284,368,52838,1,0,1:0:0:0:
205,384,53042,1,8,0:0:0:0:
176,309,53246,1,2,0:1:0:0:
38,227,53654,1,10,0:1:0:0:
95,172,53857,2,0,P|92:152|90:132,2,40,0|0|0,1:0|0:0|0:0,0:0:0:0:
172,197,54265,5,10,0:1:0:0:
248,181,54469,1,10,0:0:0:0:
297,120,54673,1,10,0:0:0:0:
380,105,54877,1,10,0:0:0:0:
447,188,55081,5,10,0:0:0:0:
398,241,55284,1,10,0:0:0:0:
487,297,55488,1,10,0:0:0:0:
412,339,55692,2,0,B|326:332|343:388|227:381,1,160,10|10,0:1|0:1,0:0:0:0:
113,316,56508,2,0,P|89:226|125:137,1,160,10|10,0:1|0:1,0:0:0:0:
172,117,57119,1,10,0:3:0:0:
172,117,57323,1,10,0:1:0:0:
511,180,59158,6,0,L|431:187,1,71.9999978027344,2|2,0:0|0:0,0:0:0:0:
373,155,59566,1,2,0:0:0:0:
376,83,59770,2,0,P|346:138|248:179,1,143.999995605469,2|2,0:0|0:0,0:0:0:0:
141,126,60585,2,0,P|102:94|7:91,1,143.999995605469,2|0,0:0|0:0,0:0:0:0:
32,166,61197,2,0,L|49:233,4,35.9999989013672
181,112,62012,1,0,0:0:0:0:
136,28,62420,6,0,P|132:95|130:174,1,143.999995605469,2|2,0:0|0:0,0:0:0:0:
86,196,63032,2,0,P|66:262|88:359,1,143.999995605469,2|2,0:0|0:0,0:0:0:0:
142,364,63643,1,2,0:0:0:0:
188,308,63847,2,0,B|273:297|257:361|351:343,1,143.999995605469,2|0,0:0|0:0,0:0:0:0:
392,307,64459,2,0,L|453:314,4,35.9999989013672
300,189,65274,1,0,0:0:0:0:
420,109,65682,6,0,P|363:105|335:83,1,71.9999978027344,2|2,0:0|0:0,0:0:0:0:
318,33,66090,1,2,0:0:0:0:
255,73,66294,2,0,P|186:107|90:101,1,143.999995605469,2|2,0:0|0:0,0:0:0:0:
61,66,66905,1,2,0:0:0:0:
111,15,67109,1,2,0:0:0:0:
242,186,67721,6,0,L|233:247,4,35.9999989013672
100,257,68536,2,0,L|103:292,3,35.9999989013672
142,318,68944,6,0,B|71:329|78:242|-29:263,1,160,2|2,0:1|0:0,0:0:0:0:
31,177,69556,2,0,P|14:97|68:56,1,120,2|0,0:1|0:0,0:0:0:0:
64,39,69963,1,2,0:0:0:0:
132,94,70167,1,2,0:0:0:0:
201,40,70371,2,0,P|317:58|372:65,1,160,2|0,0:1|0:0,0:0:0:0:
402,140,70983,6,0,P|405:193|410:225,1,80
368,298,71391,1,0,0:0:0:0:
289,259,71594,2,0,P|257:255|217:250,1,40,2|0,0:0|0:0,0:0:0:0:
231,294,71798,2,0,P|199:298|159:303,1,40,2|0,0:0|0:0,0:0:0:0:
165,262,72002,1,2,0:0:0:0:
105,344,72206,6,0,P|85:287|97:83,1,240,2|2,0:1|0:1,0:0:0:0:
235,14,73225,2,0,L|301:10,1,40,2|0,0:0|0:0,0:0:0:0:
306,42,73429,1,2,0:0:0:0:
341,122,73633,2,0,P|382:143|421:146,1,80,2|0,0:0|0:0,0:0:0:0:
445,63,74041,6,0,P|432:126|415:230,1,160,2|0,0:1|0:0,0:0:0:0:
493,262,74652,2,0,B|411:259|443:325|332:306,1,160,2|2,0:0|0:0,0:0:0:0:
285,251,75264,1,0,0:0:0:0:
258,335,75468,6,0,P|187:329|136:243,1,160,2|2,0:1|0:0,0:0:0:0:
55,228,76080,2,0,P|56:167|121:126,1,120,2|0,0:1|0:0,0:0:0:0:
135,151,76487,1,2,0:0:0:0:
223,151,76691,1,2,0:0:0:0:
268,75,76895,1,2,0:1:0:0:
209,12,77099,6,0,P|146:10|59:-3,1,132.00000402832,0|0,1:0|1:0,0:0:0:0:
38,29,77507,1,8,0:0:0:0:
92,121,77711,1,8,0:3:0:0:
92,121,77813,1,0,0:0:0:0:
92,121,77914,2,0,P|102:185|104:200,1,44.0000013427735,0|0,1:0|1:0,0:0:0:0:
140,191,78118,1,0,1:0:0:0:
223,240,78322,1,8,0:3:0:0:
180,326,78526,2,0,P|144:307|91:293,1,88.000002685547,8|0,0:3|1:0,0:0:0:0:
55,291,78832,1,8,0:3:0:0:
55,291,78934,1,2,1:0:0:0:
1,371,79138,1,10,0:1:0:0:
281,268,79749,6,0,L|350:275,1,44.0000013427735,0|0,1:0|1:0,0:0:0:0:
361,304,79953,1,8,0:3:0:0:
506,374,80361,6,0,P|416:359|409:112,1,352.000010742188,0|8,1:0|0:3,1:0:0:0:
0,217,90147,6,0,P|80:236|204:175,1,215.999993408203,0|0,1:0|1:0,0:0:0:0:
189,143,90860,1,0,0:0:0:0:
361,45,91370,6,0,P|394:49|413:51,1,35.9999989013672,8|0,0:3|0:0,0:0:0:0:
429,72,91574,1,8,0:3:0:0:
347,158,91880,2,0,P|265:177|254:180,1,71.9999978027344,8|0,0:3|0:0,0:0:0:0:
258,161,92186,1,8,0:3:0:0:
392,235,92593,5,0,1:0:0:0:
392,235,92695,1,8,0:0:0:0:
392,235,92797,1,0,1:0:0:0:
329,287,93001,2,0,B|280:291|302:313|237:306,1,71.9999978027344,8|0,0:0|1:0,0:0:0:0:
234,375,93409,6,0,P|209:322|52:294,1,215.999993408203,0|0,1:0|1:0,1:0:0:0:
41,219,94224,2,0,P|44:172|38:141,1,71.9999978027344,8|8,0:0|0:3,0:0:0:0:
64,79,94632,1,0,0:0:0:0:
140,97,94836,2,0,L|178:104,2,35.9999989013672,8|8|0,0:0|0:0|0:0,0:0:0:0:
210,59,95244,6,0,P|263:115|334:108,3,143.999995605469,10|10|10|10,0:0|0:0|0:0|0:0,0:0:0:0:
107,16,97079,6,0,P|89:104|82:245,1,215.999993408203,2|0,1:2|1:0,1:0:0:0:
139,284,97894,2,0,B|200:262|198:327|281:299,1,143.999995605469,8|8,0:0|0:3,0:0:0:0:
353,335,98506,1,8,0:0:0:0:
353,335,98608,1,8,0:0:0:0:
356,216,98913,1,8,0:0:0:0:
432,194,99117,2,0,P|428:158|424:122,1,71.9999978027344,0|0,0:0|1:0,0:0:0:0:
397,45,99525,2,0,L|357:40,1,35.9999989013672,8|0,0:0|0:0,0:0:0:0:
325,59,99729,2,0,L|281:70,1,35.9999989013672,8|0,0:0|0:0,0:0:0:0:
260,40,99933,6,0,B|176:28|207:90|127:74,1,143.999995605469,0|0,1:0|0:0,1:0:0:0:
57,37,100544,1,8,0:3:0:0:
13,103,100748,1,8,0:0:0:0:
115,161,101156,5,0,1:0:0:0:
115,161,101258,1,0,0:0:0:0:
115,161,101360,2,0,P|148:168|166:171,1,38.4000009375,0|0,1:0|0:0,0:0:0:0:
165,209,101564,6,0,P|174:253|181:373,1,153.60000375,0|8,0:0|0:0,0:0:0:0:
258,326,102175,2,0,P|302:337|311:337,1,38.4000009375,2|2,0:0|0:0,0:0:0:0:
324,367,102379,2,0,P|357:366|366:366,1,38.4000009375,10|2,0:0|0:0,0:0:0:0:
386,330,102583,1,10,0:0:0:0:
482,354,102787,1,2,1:2:0:0:
482,354,102889,1,0,0:0:0:0:
482,354,102991,1,0,0:0:0:0:
478,258,103195,6,0,P|488:224|483:175,1,76.800001875,10|10,0:1|0:0,0:0:0:0:
406,151,103603,2,0,P|401:105|414:68,1,76.800001875,10|10,0:0|0:0,0:0:0:0:
488,46,104010,1,10,0:0:0:0:
35,65,105030,6,0,P|21:141|74:197,1,160,10|10,0:1|0:1,0:0:0:0:
236,361,105845,1,10,0:1:0:0:
319,341,106049,1,10,0:3:0:0:
282,253,106253,1,10,0:1:0:0:
196,273,106457,6,2,B|106:265|152:213|33:202,1,160,6|0,1:0|3:0,1:0:0:0:
5,276,107068,6,2,P|124:241|122:50,1,320,2|8,1:0|0:0,1:0:0:0:
225,25,108088,6,0,P|274:22|314:33,1,88.000002685547,2|10,1:0|0:0,0:0:0:0:
348,66,108394,1,0,0:0:0:0:
348,66,108496,1,2,1:2:0:0:
440,37,108699,2,0,P|447:110|440:237,1,176.000005371094,10|10,0:3|0:0,0:0:0:0:
360,261,109311,1,8,0:3:0:0:
452,331,109515,6,0,B|344:311|359:393|268:369,1,176.000005371094,10|8,0:1|0:0,0:0:0:0:
206,319,110126,1,0,1:0:0:0:
206,319,110228,1,0,0:0:0:0:
206,319,110330,2,0,P|151:275|160:194,1,132.00000402832,8|8,0:3|0:3,0:0:0:0:
190,193,110738,1,8,0:0:0:0:
273,144,110942,2,0,P|280:81|281:39,1,88.000002685547,8|0,0:3|1:0,0:0:0:0:
366,10,111350,5,2,1:0:0:0:
455,46,111554,1,2,3:2:0:0:
411,132,111757,1,2,3:2:0:0:
489,188,111961,2,0,P|478:261|472:331,1,132.00000402832,10|8,0:1|0:3,0:0:0:0:
438,353,112369,1,10,0:0:0:0:
342,366,112573,1,10,0:3:0:0:
297,286,112777,6,0,P|268:209|118:187,1,220.000006713867,10|0,0:1|0:0,1:0:0:0:
113,212,113388,1,0,1:0:0:0:
40,161,113592,2,0,B|7:125|7:125|37:34,1,132.00000402832,0|0,0:3|0:0,0:0:0:0:
75,19,114000,1,8,0:0:0:0:
75,19,114102,1,8,0:0:0:0:
75,19,114204,2,0,P|135:39|172:32,1,88.000002685547,8|0,0:0|1:0,0:0:0:0:
217,113,114612,6,0,P|233:214|226:309,1,176.000005371094,2|2,1:0|3:2,0:0:0:0:
307,345,115223,2,0,P|312:271|325:199,1,132.00000402832,10|0,0:1|0:0,0:0:0:0:
316,165,115631,1,10,0:0:0:0:
359,78,115835,1,10,0:3:0:0:
446,119,116039,2,0,P|490:167|448:268,1,176.000005371094,2|0,1:0|3:0,0:0:0:0:
386,328,116650,1,0,3:0:0:0:
386,328,116752,1,0,0:0:0:0:
386,328,116854,2,0,P|328:312|270:308,1,88.000002685547,8|8,0:0|0:0,0:0:0:0:
229,242,117262,5,8,0:3:0:0:
142,286,117466,1,8,0:0:0:0:
106,375,117670,1,0,1:0:0:0:
12,350,117874,2,0,P|9:254|1:141,1,176.000005371094,2|2,1:0|3:2,1:0:0:0:
40,84,118485,2,0,P|64:79|118:116,1,88.000002685547,10|0,0:1|3:0,0:0:0:0:
129,157,118791,1,8,0:3:0:0:
129,157,118893,1,2,1:2:0:0:
207,213,119097,1,10,0:0:0:0:
129,280,119301,2,0,B|225:265|185:368|300:341,1,176.000005371094,2|8,1:0|0:0,1:0:0:0:
376,362,119912,2,0,P|380:273|388:194,1,132.00000402832,8|0,0:0|0:0,0:0:0:0:
343,202,120320,2,2,P|349:267|357:384,1,176.000005371094,10|0,0:1|1:0,0:1:0:0:
182,290,121136,6,2,P|124:337|38:308,1,132.00000402832,10|0,0:1|0:0,0:1:0:0:
33,301,121543,1,2,3:2:0:0:
58,207,121747,2,0,P|26:146|77:64,1,132.00000402832,2|0,1:0|0:0,0:0:0:0:
87,67,122155,2,0,P|150:81|187:82,1,88.000002685547,2|10,3:2|0:0,0:0:0:0:
240,152,122563,5,2,3:2:0:0:
381,19,122971,2,0,P|402:100|407:223,1,176.000005371094,10|0,0:3|1:0,0:0:0:0:
344,264,123582,1,10,0:1:0:0:
251,293,123786,1,0,1:0:0:0:
203,208,123990,2,0,P|159:200|116:191,1,88.000002685547,8|0,0:3|1:0,1:0:0:0:
27,151,124398,5,2,1:0:0:0:
76,33,124602,1,2,1:2:0:0:
204,80,124805,1,2,1:2:0:0:
284,25,125009,2,0,P|352:39|430:41,1,132.00000402832,10|0,0:1|0:0,0:0:0:0:
406,90,125417,2,0,P|408:132|415:157,1,44.0000013427735,10|0,0:3|0:0,0:0:0:0:
359,139,125621,2,0,P|357:181|350:206,1,44.0000013427735,2|0,3:2|0:0,0:0:0:0:
393,215,125825,1,2,1:0:0:0:
185,367,127048,5,8,0:3:0:0:
107,309,127252,2,0,P|56:296|0:287,1,88.000002685547,8|8,0:0|0:3,0:0:0:0:
49,187,127660,5,6,1:0:0:0:
119,108,127863,1,2,1:2:0:0:
211,159,128067,1,10,0:3:0:0:
211,159,128169,1,0,0:0:0:0:
211,159,128271,2,0,P|269:192|349:176,1,143.999995605469,10|0,0:3|0:0,0:0:0:0:
354,127,128679,2,0,P|384:104|446:117,1,95.9999970703126,2|8,3:2|0:3,0:0:0:0:
478,12,129087,6,0,B|459:124|441:338,1,287.999991210938,2|0,1:0|1:0,0:0:0:0:
362,365,129902,2,0,P|322:301|231:290,1,143.999995605469,2|0,3:1|0:1,0:0:0:0:
215,313,130310,1,0,3:0:0:0:
112,337,130514,2,0,P|60:365|0:343,1,95.9999970703126,2|2,3:2|3:2,1:0:0:0:
67,262,130922,5,2,1:0:0:0:
8,194,131125,1,2,3:2:0:0:
76,113,131329,1,2,3:2:0:0:
31,16,131533,2,0,P|140:32|209:33,1,143.999995605469,10|0,0:3|0:0,0:0:0:0:
198,80,131941,2,0,P|265:71|323:66,1,95.9999970703126,2|2,3:2|3:2,0:0:0:0:
393,32,132349,6,0,P|316:43|212:235,1,287.999991210938,2|0,1:0|1:0,0:0:0:0:
84,378,133368,2,0,P|-1:342|5:290,1,143.999995605469,8|0,0:0|0:0,0:0:0:0:
37,267,133776,1,2,1:0:0:0:
37,267,133878,1,0,0:0:0:0:
37,267,133980,1,2,1:0:0:0:
116,197,134184,6,2,P|225:192|328:244,1,191.999994140625,2|2,1:0|3:2,0:1:0:0:
329,324,134795,2,2,P|399:351|482:343,1,143.999995605469,2|0,1:0|0:0,0:1:0:0:
505,310,135203,1,2,3:1:0:0:
425,240,135407,1,2,3:1:0:0:
498,164,135611,2,2,P|506:78|509:16,1,143.999995605469,2|0,1:0|0:0,0:1:0:0:
477,7,136018,1,2,1:0:0:0:
387,63,136222,6,0,P|319:73|260:84,1,95.9999970703126,8|0,0:3|3:0,0:0:0:0:
201,23,136630,1,10,0:1:0:0:
121,92,136834,1,10,0:1:0:0:
225,148,137038,1,2,3:1:0:0:
149,246,137242,1,2,1:0:0:0:
199,351,137446,6,0,P|237:297|374:275,1,191.999994140625,2|2,1:0|1:2,0:0:0:0:
439,330,138057,2,2,P|451:285|457:179,1,143.999995605469,2|0,1:0|0:0,0:1:0:0:
410,165,138465,1,2,3:1:0:0:
467,76,138669,1,2,1:0:0:0:
367,39,138873,2,2,B|264:38|316:117|184:112,1,191.999994140625,10|10,0:1|0:1,0:1:0:0:
117,44,139484,2,0,B|66:34|66:34|22:84,1,95.9999970703126,10|2,0:1|1:0,0:0:0:0:
105,148,139892,1,10,0:1:0:0:
105,148,139994,1,0,0:0:0:0:
105,148,140096,1,8,0:3:0:0:
107,246,140300,1,8,0:0:0:0:
218,279,140504,1,0,1:0:0:0:
285,168,140708,6,0,P|430:212|508:229,1,191.999994140625,2|2,1:0|3:2,1:0:0:0:
480,304,141319,2,0,P|452:221|461:129,1,143.999995605469,2|0,1:0|0:0,0:0:0:0:
489,126,141727,1,2,3:2:0:0:
478,20,141931,1,10,0:3:0:0:
377,53,142135,2,2,P|314:97|251:84,1,143.999995605469,2|0,1:0|0:0,0:1:0:0:
223,40,142542,2,0,P|174:5|41:46,1,191.999994140625,2|0,1:0|1:0,0:0:0:0:
5,149,143154,5,2,3:1:0:0:
5,149,143256,1,0,0:0:0:0:
5,149,143358,2,0,P|14:203|14:214,1,47.9999985351563,2|0,3:1|0:0,0:0:0:0:
61,220,143562,2,0,P|128:226|171:233,1,95.9999970703126,10|8,0:1|0:0,0:0:0:0:
203,135,143970,6,0,B|273:154|273:154|272:280,1,191.999994140625,2|2,1:0|3:1,0:0:0:0:
199,372,144581,2,2,B|225:319|225:319|333:304,1,143.999995605469,10|0,0:1|0:0,0:1:0:0:
351,273,144989,1,2,3:1:0:0:
463,255,145193,1,2,3:1:0:0:
498,383,145397,1,2,1:0:0:0:
0,65,147231,6,0,L|183:47,1,160,6|0,1:0|0:0,1:0:0:0:
229,90,147843,2,0,B|230:116|246:138|246:138|213:154|144:204,1,160,2|8,1:0|0:0,0:0:0:0:
110,128,148455,2,0,P|84:122|58:115,2,53.3333333333333,8|0|0,0:3|0:0|0:0,0:0:0:0:
134,110,148862,1,2,0:0:0:0:
263,15,149270,1,10,0:0:0:0:
437,77,149678,2,0,L|429:151,2,40,8|8|0,0:3|0:3|1:0,0:0:0:0:
352,130,150086,1,10,0:0:0:0:
473,233,150493,6,0,P|381:253|293:367,1,240,2|2,1:0|1:0,1:0:0:0:
237,305,151309,2,0,P|218:240|112:221,1,160,10|10,0:0|0:3,0:0:0:0:
61,240,151921,2,0,P|52:149|43:103,1,120,2|0,1:0|0:0,0:0:0:0:
74,92,152328,1,8,0:0:0:0:
54,14,152532,2,0,P|91:21|133:26,1,80,8|0,0:0|1:0,0:0:0:0:
196,75,152940,6,0,P|202:123|203:134,2,40,8|8|2,0:0|0:0|1:2,0:0:0:0:
255,20,153348,1,10,0:0:0:0:
326,56,153552,1,10,0:0:0:0:
330,135,153755,6,0,B|386:147|446:174|446:174|434:116|440:36,1,240,2|2,1:0|1:0,1:0:0:0:
505,12,154571,1,8,0:0:0:0:
382,218,155183,6,0,P|366:309|364:364,1,120,2|0,1:0|0:0,1:0:0:0:
329,355,155590,1,10,0:0:0:0:
261,311,155794,2,0,P|193:314|167:335,1,80,10|8,0:0|0:3,0:0:0:0:
128,377,156202,2,0,P|51:366|20:285,1,160,10|8,0:0|0:3,0:0:0:0:
128,160,157017,6,0,P|139:86|132:17,1,120,2|0,1:0|0:0,0:0:0:0:
98,27,157425,1,2,1:2:0:0:
42,84,157629,1,2,0:1:0:0:
104,134,157833,2,0,P|122:214|138:300,1,160,10|2,0:0|0:0,0:0:0:0:
203,335,158445,2,0,B|271:335|250:296|312:293,1,120,2|0,1:0|0:0,1:0:0:0:
347,312,158852,1,10,0:0:0:0:
422,339,159056,2,0,P|431:262|372:213,1,160,2|8,1:2|0:0,0:0:0:0:
309,164,159668,1,10,0:0:0:0:
372,115,159872,2,0,P|380:46|392:4,1,80,10|0,0:3|0:0,0:0:0:0:
306,10,160279,6,0,P|194:28|111:37,1,160,2|2,1:0|0:0,1:0:0:0:
80,78,160891,1,2,1:0:0:0:
148,119,161095,2,0,P|180:126|242:154,1,80,10|2,0:0|1:0,0:0:0:0:
276,83,161503,1,8,0:3:0:0:
343,125,161707,6,0,P|357:189|348:272,1,120,10|0,0:1|0:0,1:0:0:0:
325,270,162114,1,2,1:0:0:0:
351,345,162318,2,0,P|429:341|484:285,1,160,2|10,0:0|0:1,0:0:0:0:
510,209,162930,1,8,0:0:0:0:
449,156,163134,2,0,P|446:129|439:104,3,40,8|0|0|0,0:3|0:0|0:0|0:0,0:0:0:0:
463,82,163541,6,0,P|417:49|299:57,1,160,2|2,1:0|0:0,1:0:0:0:
206,164,164357,2,0,P|147:196|111:188,1,80,10|2,0:0|1:0,0:0:0:0:
62,163,164765,1,0,1:2:0:0:
11,224,164968,1,10,0:3:0:0:
422,366,166803,6,0,P|425:333|429:300,1,64,6|2,0:0|0:0,0:0:0:0:
367,261,167211,1,2,0:0:0:0:
367,261,167415,2,0,P|363:160|357:115,1,128,2|2,0:0|0:0,0:0:0:0:
435,30,168230,2,0,P|414:96|226:138,1,256,2|0,0:0|0:0,0:0:0:0:
207,103,169250,1,8,0:0:0:0:
0,0,170065,6,0,P|66:13|80:11,1,64,2|2,0:0|0:0,0:0:0:0:
107,80,170473,1,2,0:0:0:0:
107,80,170677,2,0,P|166:40|231:38,1,128,2|2,0:0|0:0,0:0:0:0:
294,78,171289,1,2,0:0:0:0:
353,9,171492,2,0,P|366:67|387:283,1,256,2|0,0:0|0:0,0:0:0:0:
323,304,172512,1,8,0:0:0:0:
72,251,173327,6,0,P|79:199|80:161,2,64,2|2|2,0:0|0:0|0:0,0:0:0:0:
142,273,173939,2,0,P|174:310|260:311,1,128,2|2,0:0|0:0,0:0:0:0:
294,270,174551,1,2,0:0:0:0:
294,270,174754,1,2,0:0:0:0:
86,369,175774,1,8,0:0:0:0:
225,223,176589,6,0,P|229:191|234:160,2,64,2|2|2,0:1|0:0|0:0,0:0:0:0:
162,119,177201,2,0,B|87:116|108:153|20:160,1,128,2|2,0:1|0:0,0:0:0:0:
0,204,177813,1,2,0:0:0:0:
0,204,178016,1,2,0:1:0:0:
203,0,179036,1,8,0:0:0:0:
409,146,179851,6,0,P|469:158|491:160,1,64,2|2,0:1|0:0,0:0:0:0:
512,223,180259,1,2,0:0:0:0:
439,242,180463,2,0,P|424:297|415:382,1,128,2|2,0:1|0:0,0:0:0:0:
340,338,181075,1,2,0:0:0:0:
274,380,181278,1,2,0:0:0:0:
174,299,181686,2,0,P|93:281|69:224,1,128,2|0,0:1|0:0,0:0:0:0:
10,204,182298,2,0,P|2:146|112:78,1,192,8|0,0:0|0:0,0:0:0:0:
167,118,183113,5,2,0:0:0:0:
338,203,183725,1,2,0:0:0:0:
512,287,184540,1,2,0:0:0:0:
