osu file format v14

[General]
AudioFilename: audio.mp3
AudioLeadIn: 0
PreviewTime: 80310
Countdown: 0
SampleSet: Soft
StackLeniency: 0.7
Mode: 0
LetterboxInBreaks: 0
WidescreenStoryboard: 1

[Editor]
Bookmarks: 31435,58961,76087,93419,108100,143169
DistanceSpacing: 1.5
BeatDivisor: 12
GridSize: 32
TimelineZoom: 5.599997

[Metadata]
Title:Wild-jiisan
TitleUnicode:ワイルドじいさん
Artist:Chata
ArtistUnicode:茶太
Creator:posydomojka
Version:Extra
Source:
Tags:misho15_701_4_0 misho1570140 misho miwo kuyusu Silent Rock Silent_Rock bermei bermei.inazawa TOx2RO ぱんださんようちえん Pandasan Youchien C62 comiket 62 doujin music japanese jpop j-pop
BeatmapID:3330085
BeatmapSetID:1631344

[Difficulty]
HPDrainRate:5
CircleSize:4
OverallDifficulty:8
ApproachRate:8
SliderMultiplier:2.1
SliderTickRate:1

[Events]
//Background and Video events
0,0,"20211126_135254.jpg",0,0
//Break Periods
2,82408,85523
//Storyboard Layer 0 (Background)
//Storyboard Layer 1 (Fail)
//Storyboard Layer 2 (Pass)
//Storyboard Layer 3 (Foreground)
//Storyboard Layer 4 (Overlay)
//Storyboard Sound Samples

[TimingPoints]
443,407.747196738022,4,2,1,40,1,0
1257,-133.333333333333,4,2,1,40,0,0
6965,-83.3333333333333,4,2,1,55,0,0
7373,-100,4,2,1,55,0,0
8392,-90.9090909090909,4,2,1,55,0,0
10227,-100,4,2,1,55,0,0
14101,-153.846153846153,4,2,1,55,0,0
15223,-153.846153846153,4,2,2,55,0,0
15937,-153.846153846153,4,2,1,55,0,0
16548,-285.714285714282,4,2,1,55,0,0
16752,-285.714285714282,4,2,1,50,0,0
17364,-133.333333333333,4,2,1,50,0,0
18179,-100,4,2,1,50,0,0
20014,-181.818181818181,4,2,1,50,0,0
20422,-100,4,2,1,50,0,0
21645,-133.333333333333,4,2,1,50,0,0
25723,-100,4,2,1,50,0,0
29800,-100,4,2,2,50,0,0
29902,-100,4,2,1,50,0,0
30004,-90.9090909090909,4,2,4,50,0,0
30106,-90.9090909090909,4,2,1,50,0,0
31431,-100,4,2,1,60,0,0
37547,-76.9230769230769,4,2,1,60,0,0
37955,-133.333333333333,4,2,1,60,0,0
38771,-100,4,2,1,60,0,0
41217,-399.999999999997,4,2,1,60,0,0
42033,-100,4,2,1,60,0,0
44479,-76.9230769230769,4,2,1,60,0,0
46317,-250,4,2,1,60,0,0
47536,-100,4,2,1,60,0,0
50595,-71.4285714285714,4,2,1,60,0,0
51006,-90.9090909090909,4,2,1,60,0,0
52226,-90.9090909090909,4,2,3,60,0,0
52532,-90.9090909090909,4,2,1,60,0,0
53042,-50,4,2,1,60,0,0
53245,-100,4,2,1,60,0,0
57527,-100,4,2,1,45,0,0
59158,-133.333333333333,4,2,1,45,0,0
68944,-100,4,2,1,50,0,0
71594,-100,4,2,2,50,0,0
72206,-100,4,2,1,50,0,0
74652,-100,4,2,2,50,0,0
75468,-100,4,2,1,50,0,0
78526,-66.6666666666667,4,2,1,50,0,0
78934,-66.6666666666667,4,2,2,50,0,0
79036,-66.6666666666667,4,2,1,50,0,0
79138,-66.6666666666667,4,2,4,50,0,0
79240,-66.6666666666667,4,2,1,50,0,0
79342,-55.5555555555556,4,2,2,50,0,0
79444,-50,4,2,1,50,0,0
80361,-1000,4,2,1,45,0,0
81176,-83.3333333333333,4,2,1,45,0,0
86885,-133.333333333333,4,2,1,45,0,0
87700,-100,4,2,1,45,0,0
93409,-66.6666666666667,4,2,1,50,0,0
94224,-83.3333333333333,4,2,1,50,0,0
95244,-83.3333333333333,4,2,1,55,0,0
95651,-83.3333333333333,4,2,1,65,0,0
96059,-83.3333333333333,4,2,1,75,0,0
96467,-83.3333333333333,4,2,1,85,0,0
96875,-83.3333333333333,4,2,1,95,0,0
97079,-83.3333333333333,4,2,1,55,0,0
105845,-71.4285714285714,4,2,1,55,0,0
106457,-62.5,4,2,2,70,0,0
106661,-62.5,4,2,1,70,0,0
107068,-100,4,2,2,70,0,0
107272,-100,4,2,1,70,0,0
108078,-83.3333333333333,4,2,1,70,0,0
108699,-83.3333333333333,4,2,3,70,0,0
108903,-83.3333333333333,4,2,1,70,0,0
119097,-76.9230769230769,4,2,1,70,0,0
119301,-83.3333333333333,4,2,1,70,0,0
120116,-66.6666666666667,4,2,2,70,0,0
120320,-58.8235294117647,4,2,2,70,0,0
120524,-58.8235294117647,4,2,1,70,0,0
121136,-58.8235294117647,4,2,2,70,0,0
121340,-58.8235294117647,4,2,1,70,0,0
121747,-71.4285714285714,4,2,1,70,0,0
121951,-71.4285714285714,4,2,2,70,0,0
122155,-83.3333333333333,4,2,1,70,0,0
122971,-83.3333333333333,4,2,3,70,0,0
123174,-83.3333333333333,4,2,1,70,0,0
123582,-83.3333333333333,4,2,2,70,0,0
123786,-83.3333333333333,4,2,1,70,0,0
123990,-133.333333333333,4,2,1,70,0,0
124398,-76.9230769230769,4,2,1,70,0,0
126233,-76.9230769230769,4,2,1,45,0,0
127659,-71.4285714285714,4,2,1,75,0,0
128271,-71.4285714285714,4,2,3,75,0,0
128475,-71.4285714285714,4,2,1,75,0,0
129291,-71.4285714285714,4,2,2,75,0,0
129494,-71.4285714285714,4,2,1,75,0,0
129902,-71.4285714285714,4,2,2,75,0,0
130105,-111.111111111111,4,2,2,75,0,0
130310,-111.111111111111,4,2,1,75,0,0
130514,-111.111111111111,4,2,2,75,0,0
130921,-66.6666666666667,4,2,1,75,0,0
131533,-66.6666666666667,4,2,3,75,0,0
131737,-66.6666666666667,4,2,1,75,0,0
132756,-133.333333333333,4,2,2,75,0,0
132960,-133.333333333333,4,2,1,75,0,0
133164,-133.333333333333,4,2,2,75,0,0
133368,-62.5,4,2,2,75,0,0
134387,-62.5,4,2,1,75,0,0
134795,-55.5555555555556,4,2,2,75,0,0
134999,-55.5555555555556,4,2,1,75,0,0
135203,-55.5555555555556,4,2,2,75,0,0
135814,-55.5555555555556,4,2,1,75,0,0
136018,-55.5555555555556,4,2,2,75,0,0
136222,-55.5555555555556,4,2,1,75,0,0
136630,-55.5555555555556,4,2,2,75,0,0
137649,-55.5555555555556,4,2,1,75,0,0
138057,-55.5555555555556,4,2,2,75,0,0
138873,-55.5555555555556,4,2,4,75,0,0
139077,-55.5555555555556,4,2,1,75,0,0
139280,-55.5555555555556,4,2,2,75,0,0
139484,-62.5,4,2,2,75,0,0
140096,-62.5,4,2,1,75,0,0
140300,-62.5,4,2,2,75,0,0
140708,-62.5,4,2,1,75,0,0
141523,-62.5,4,2,2,75,0,0
141727,-62.5,4,2,1,75,0,0
142135,-62.5,4,2,2,75,0,0
142339,-62.5,4,2,1,75,0,0
142542,-66.6666666666667,4,2,1,75,0,0
142746,-55.5555555555556,4,2,2,75,0,0
143969,-62.5,4,2,2,75,0,0
144579,-181.818181818181,4,2,2,75,0,0
144785,-181.818181818181,4,2,1,75,0,0
144989,-66.6666666666667,4,2,2,95,0,0
145804,-66.6666666666667,4,2,1,45,0,0
147231,-100,4,2,1,60,0,0
147842,-133.333333333333,4,2,1,60,0,0
154979,-133.333333333333,4,2,3,60,0,0
155183,-133.333333333333,4,2,1,60,0,0
158037,-133.333333333333,4,2,3,60,0,0
158241,-133.333333333333,4,2,1,60,0,0
164968,-133.333333333333,4,2,3,60,0,0
165172,-133.333333333333,4,2,1,60,0,0
166803,-181.818181818181,4,2,1,50,0,0
170677,-133.333333333333,4,2,1,50,0,0
176589,-111.111111111111,4,2,1,50,0,0
177201,-125,4,2,1,50,0,0
183113,-399.999999999997,4,2,1,45,0,0

[Colours]
Combo1 : 108,255,108
Combo2 : 255,53,53
Combo3 : 235,130,90
Combo4 : 255,255,128

[HitObjects]
0,196,443,5,2,0:1:0:0:
505,186,1870,1,2,0:1:0:0:
247,10,3704,5,2,0:1:0:0:
267,381,5132,1,2,0:1:0:0:
471,152,6967,6,0,B|517:140|517:140|501:135|501:135|506:113|506:113|489:106|489:106|489:83|489:83|472:75|472:75|446:109,1,188.999994232178,6|0,1:0|0:0,0:0:0:0:
430,130,7375,2,0,B|403:137|381:135|381:135|388:173|411:190|411:190|425:166|453:150,1,157.5,2|0,0:0|0:0,0:0:0:0:
511,227,7783,6,0,P|502:288|500:352,1,105,10|2,0:0|0:0,0:0:0:0:
436,380,8190,1,10,0:3:0:0:
350,289,8394,6,0,B|238:275|298:353|160:328,1,173.250005287171,2|0,1:2|0:0,0:0:0:0:
170,319,8802,1,10,0:3:0:0:
115,264,9006,1,0,0:0:0:0:
167,202,9210,1,10,0:3:0:0:
335,130,9414,5,8,0:0:0:0:
370,66,9516,1,8,0:3:0:0:
306,35,9618,2,0,P|280:43|216:63,1,57.7500017623902,2|0,1:2|0:0,0:0:0:0:
139,89,9822,5,8,0:3:0:0:
152,98,10026,1,0,1:0:0:0:
385,203,10229,6,0,P|429:148|517:143,1,157.5,0|0,1:0|0:0,0:0:0:0:
510,151,10637,1,2,0:0:0:0:
496,236,10841,1,0,1:0:0:0:
496,236,11045,1,10,0:0:0:0:
394,375,11249,6,0,P|380:356|379:321,1,52.5,2|0,0:0|0:0,0:0:0:0:
393,310,11453,1,10,0:3:0:0:
496,368,11657,6,0,P|378:349|271:297,2,210,2|2|10,1:2|1:2|0:3,0:0:0:0:
276,235,12778,5,8,0:3:0:0:
276,235,12880,2,0,P|217:237|190:290,1,105,10|8,0:0|0:3,0:0:0:0:
172,362,13288,1,0,1:0:0:0:
37,213,13490,6,0,B|73:248|204:188|69:128|114:218,1,157.5,2|0,1:2|0:0,0:0:0:0:
59,100,13898,1,2,0:0:0:0:
59,100,14000,1,0,0:0:0:0:
59,100,14102,2,0,P|35:195|5:374,1,272.999987503052,2|0,1:2|0:0,1:0:0:0:
49,24,15224,5,2,0:0:0:0:
41,23,15326,1,2,0:0:0:0:
90,15,15428,1,2,0:0:0:0:
118,47,15529,6,0,P|151:63|194:75,1,68.2499968757631,2|0,0:0|0:0,0:0:0:0:
285,214,15937,5,8,0:0:0:0:
345,230,16141,1,0,0:0:0:0:
378,174,16345,1,8,0:3:0:0:
371,25,16549,6,0,P|405:9|441:-1,1,73.4999977569581,2|2,0:0|0:0,0:0:0:0:
487,171,17160,1,2,0:0:0:0:
501,67,17364,6,0,P|441:98|368:111,1,118.125004506111,2|0,0:0|0:0,0:0:0:0:
366,98,17772,1,2,0:0:0:0:
366,98,17977,1,2,0:0:0:0:
168,15,18181,6,0,P|107:14|55:111,1,157.5,2|0,1:2|0:0,0:0:0:0:
34,92,18587,2,0,P|31:126|43:149,1,52.5,10|0,0:0|0:0,0:0:0:0:
111,179,18791,1,10,0:0:0:0:
177,127,18995,1,2,1:2:0:0:
350,0,19199,5,8,0:0:0:0:
338,50,19301,1,8,0:0:0:0:
325,132,19505,5,8,0:0:0:0:
325,132,19607,1,2,0:0:0:0:
306,210,19810,5,10,0:0:0:0:
498,374,20014,6,0,B|487:346|487:346|481:341|467:327|467:327|454:288,1,86.6250026435853,0|0,1:0|0:0,1:0:0:0:
512,228,20422,6,0,P|503:302|364:347,1,210,2|8,0:1|0:0,0:0:0:0:
342,297,21034,1,0,1:0:0:0:
272,330,21238,1,8,0:3:0:0:
0,253,21441,5,8,0:0:0:0:
0,253,21543,1,8,0:0:0:0:
0,253,21645,2,0,P|56:243|103:229,1,78.7500030040742,2|2,1:2|1:2,1:0:0:0:
173,292,22053,1,2,0:0:0:0:
104,222,22257,2,0,P|88:299|125:378,1,157.500006008148,2|2,1:2|1:2,0:0:0:0:
238,207,22869,1,10,0:0:0:0:
298,159,23072,1,2,1:2:0:0:
254,104,23276,1,2,0:0:0:0:
19,20,23480,6,0,L|30:71,1,39.3750015020371,2|0,1:2|0:0,0:0:0:0:
34,71,23684,1,2,0:0:0:0:
108,37,23888,6,0,B|168:50|168:50|193:81|193:81|273:100,1,157.500006008148,2|0,1:2|1:0,0:0:0:0:
330,54,24500,2,0,B|373:49|373:49|312:78,1,78.7500030040742,8|0,0:0|0:0,1:0:0:0:
310,375,24907,6,0,L|317:313,1,39.3750015020371,10|0,0:1|0:0,0:0:0:0:
289,331,25111,2,0,L|263:288,1,39.3750015020371,10|0,0:0|0:0,0:0:0:0:
412,358,25315,6,0,L|425:306,1,39.3750015020371,10|0,0:0|0:0,0:0:0:0:
450,308,25519,2,0,L|498:280,1,39.3750015020371,10|0,0:0|0:0,0:0:0:0:
177,147,25927,6,0,L|267:158,1,52.5,10|0,0:1|0:0,0:0:0:0:
344,106,26131,2,0,L|350:53,1,52.5,10|0,0:0|0:0,0:0:0:0:
431,187,26334,2,0,L|510:199,1,52.5,10|0,0:0|0:0,0:0:0:0:
327,255,26538,1,10,0:0:0:0:
178,353,26946,6,0,L|-19:390,1,157.5,10|0,0:1|0:0,1:0:0:0:
9,373,27354,1,10,0:0:0:0:
0,0,27558,2,0,L|249:45,1,210,10|8,0:1|0:0,0:0:0:0:
6,199,28169,5,8,0:0:0:0:
84,188,28373,1,0,1:0:0:0:
84,188,28475,1,0,1:0:0:0:
84,188,28577,1,8,0:0:0:0:
512,248,28781,5,8,0:3:0:0:
439,233,29087,1,0,1:0:0:0:
439,233,29189,1,0,1:0:0:0:
289,384,29393,5,8,0:0:0:0:
286,311,29596,1,8,0:3:0:0:
282,235,29800,1,10,0:1:0:0:
49,2,30004,6,2,P|131:317|455:343,1,693.000021148682,10|0,0:1|1:0,0:1:0:0:
188,336,31431,6,0,P|143:331|109:376,1,105,2|0,1:0|0:0,1:0:0:0:
0,233,31839,2,0,P|21:224|51:196,1,52.5
2,249,32043,1,0,1:0:0:0:
16,373,32247,5,10,0:0:0:0:
119,218,32451,1,2,0:0:0:0:
280,260,32655,1,2,0:0:0:0:
167,15,32858,6,0,P|93:34|-10:46,1,157.5,2|0,1:0|0:0,0:0:0:0:
216,81,33266,1,8,0:0:0:0:
216,81,33368,1,8,0:0:0:0:
168,142,33572,1,8,0:0:0:0:
376,73,33878,6,0,P|449:92|500:97,1,105,10|10,0:0|0:0,0:0:0:0:
239,200,34285,5,2,0:0:0:0:
262,229,34387,1,8,0:3:0:0:
225,261,34489,1,10,0:0:0:0:
272,297,34591,1,8,0:0:0:0:
206,347,34693,6,0,B|292:336|280:393|377:374,1,157.5,2|0,1:0|1:0,0:0:0:0:
359,366,35305,1,0,1:0:0:0:
449,306,35509,2,0,P|450:253|456:201,1,105,10|2,0:3|0:0,0:0:0:0:
392,147,35815,1,0,0:0:0:0:
428,127,35917,1,2,0:0:0:0:
465,156,36120,6,0,P|479:260|479:365,1,210,10|10,0:1|0:0,0:0:0:0:
14,265,36936,2,0,P|18:176|10:122,1,105,2|8,1:2|0:0,0:0:0:0:
44,93,37241,1,0,0:0:0:0:
44,93,37343,1,10,0:0:0:0:
121,6,37547,6,0,P|151:6|196:3,1,68.2499968757631
254,55,37751,1,8,0:0:0:0:
189,95,37853,1,0,0:0:0:0:
154,166,37955,6,0,P|126:75|-18:38,1,236.250009012223,2|0,1:0|1:0,1:0:0:0:
0,35,38771,6,0,P|40:73|95:61,1,105,10|2,0:0|0:0,0:0:0:0:
121,6,39178,1,2,0:0:0:0:
311,22,39382,5,10,0:1:0:0:
311,22,39484,1,0,0:0:0:0:
339,92,39688,2,0,P|351:143|351:239,1,105,8|0,0:0|0:0,0:0:0:0:
341,213,39994,1,8,0:0:0:0:
341,213,40198,1,2,0:0:0:0:
62,351,40402,1,8,0:0:0:0:
62,351,40504,1,8,0:0:0:0:
131,382,40606,1,10,0:1:0:0:
131,382,40708,1,8,0:3:0:0:
176,322,40810,2,0,P|170:269|154:193,1,105,8|8,0:0|0:0,0:0:0:0:
203,149,41115,1,8,0:0:0:0:
280,187,41217,2,0,P|321:193|343:194,1,52.5,2|0,1:0|0:0,1:0:0:0:
412,252,42033,6,0,B|460:234|460:234|500:269,1,105,10|2,0:0|0:0,0:0:0:0:
445,322,42440,1,10,0:3:0:0:
324,282,42644,2,0,B|223:275|274:334|162:332,1,157.5,10|8,0:1|0:3,0:0:0:0:
112,284,43051,1,10,0:0:0:0:
52,328,43255,1,10,0:3:0:0:
107,374,43460,2,0,P|117:282|128:206,1,157.5,10|8,0:0|0:0,0:0:0:0:
186,174,43867,1,10,0:0:0:0:
101,12,44071,2,0,P|58:22|-29:46,1,105,8|0,0:0|0:0,0:0:0:0:
171,54,44479,6,0,P|252:38|343:109,1,204.749990627289,2|0,1:0|0:0,1:0:0:0:
331,120,44887,1,2,0:0:0:0:
182,196,45091,2,0,P|166:96|233:15,1,204.749990627289,10|0,0:1|0:0,0:0:0:0:
413,62,45499,2,0,L|497:84,1,68.2499968757631,10|0,0:3|0:0,0:0:0:0:
487,63,45703,2,0,L|411:75,1,68.2499968757631,2|0,0:0|0:0,0:0:0:0:
308,235,45907,1,2,1:0:0:0:
308,235,46314,5,2,0:0:0:0:
308,235,46518,2,0,L|304:257,8,21
231,317,47537,6,0,B|314:315|295:376|394:364,1,157.5,8|0,0:0|0:0,0:0:0:0:
384,360,47945,1,8,0:0:0:0:
156,384,48149,6,0,P|144:261|125:103,1,262.5,2|0,1:0|0:0,1:0:0:0:
175,67,48761,1,2,1:0:0:0:
175,67,48862,1,0,1:0:0:0:
175,67,48964,1,8,0:0:0:0:
269,127,49168,1,2,1:2:0:0:
88,87,49372,1,10,0:3:0:0:
268,2,49576,1,10,0:1:0:0:
268,2,49678,1,8,0:0:0:0:
345,23,49984,2,0,P|408:51|487:45,1,105,8|0,0:0|0:0,0:0:0:0:
488,126,50392,1,0,0:0:0:0:
496,30,50595,6,0,P|382:48|254:87,1,220.499993270874,8|0,0:0|0:0,0:0:0:0:
245,145,51003,1,2,1:0:0:0:
247,164,51105,1,0,0:0:0:0:
267,171,51207,1,2,0:0:0:0:
338,174,51411,5,2,0:0:0:0:
388,103,51615,5,2,1:2:0:0:
364,28,51717,1,0,0:0:0:0:
289,18,51819,1,10,0:0:0:0:
206,64,52023,6,0,P|155:64|102:21,1,115.50000352478,2|10,0:0|0:3,0:0:0:0:
122,0,52329,1,0,0:0:0:0:
122,0,52431,1,10,0:3:0:0:
16,100,52634,1,0,0:0:0:0:
42,123,52736,1,8,0:3:0:0:
27,68,52838,1,0,1:0:0:0:
201,237,53042,2,0,P|172:209|155:118,1,105,8|0,0:0|0:0,0:0:0:0:
109,0,53246,6,0,P|60:91|34:197,1,210,2|10,0:1|0:1,0:0:0:0:
278,34,53857,1,0,1:0:0:0:
278,34,53959,1,0,0:0:0:0:
278,34,54061,1,0,0:0:0:0:
495,172,54265,5,10,0:1:0:0:
440,108,54469,1,10,0:0:0:0:
360,139,54672,1,10,0:0:0:0:
315,239,54876,1,10,0:0:0:0:
184,355,55080,1,10,0:0:0:0:
7,234,55284,1,10,0:0:0:0:
44,61,55488,1,10,0:0:0:0:
406,12,55692,6,0,P|483:24|523:25,1,105,10|0,0:1|0:0,0:0:0:0:
359,80,56100,1,10,0:1:0:0:
285,57,56507,1,10,0:1:0:0:
441,99,56915,5,10,0:1:0:0:
291,45,57119,1,10,0:3:0:0:
160,1,57323,1,10,0:1:0:0:
361,365,57731,5,0,0:0:0:0:
371,363,57934,1,0,0:0:0:0:
381,361,58138,1,0,0:0:0:0:
391,359,58342,1,0,0:0:0:0:
402,357,58546,1,0,0:0:0:0:
412,355,58750,1,0,0:0:0:0:
422,353,58954,1,0,0:0:0:0:
492,294,59158,6,0,P|495:264|498:246,2,39.3750015020371,2|0|2,0:0|0:0|0:0,0:0:0:0:
436,205,59565,1,2,0:0:0:0:
364,257,59769,2,0,P|333:184|345:108,1,157.500006008148,2|2,0:0|0:0,0:0:0:0:
511,37,60584,1,2,0:0:0:0:
494,52,60993,6,0,P|466:45|435:43,1,39.3750015020371
432,6,61197,2,0,P|406:13|383:13,1,39.3750015020371
365,52,61401,2,0,P|338:44|320:43,1,39.3750015020371
297,17,61604,1,0,0:0:0:0:
219,34,61808,1,0,0:0:0:0:
170,92,62012,1,0,0:0:0:0:
91,87,62215,1,0,0:0:0:0:
44,21,62419,5,2,0:0:0:0:
44,21,62521,1,0,0:0:0:0:
44,21,62624,2,0,P|49:73|45:120,1,78.7500030040742,2|2,0:0|0:0,0:0:0:0:
149,169,63031,2,0,P|157:251|121:318,1,157.500006008148,2|2,0:0|0:0,0:0:0:0:
59,369,63643,1,2,0:0:0:0:
59,369,63847,1,2,0:0:0:0:
55,240,64254,5,0,0:0:0:0:
150,266,64459,2,0,P|183:271|199:271,1,39.3750015020371
205,286,64663,2,0,P|231:289|259:291,1,39.3750015020371
285,301,64866,1,0,0:0:0:0:
364,369,65070,1,0,0:0:0:0:
480,334,65274,2,0,P|505:279|492:209,1,118.125004506111
476,225,65682,5,2,0:0:0:0:
404,177,65886,1,2,0:0:0:0:
446,103,66089,1,2,0:0:0:0:
446,103,66293,1,2,0:0:0:0:
389,23,66701,6,0,P|359:21|301:11,1,78.7500030040742,2|2,0:0|0:0,0:0:0:0:
475,8,67109,1,2,0:0:0:0:
315,131,67517,5,0,0:0:0:0:
235,129,67722,1,0,0:0:0:0:
235,129,67823,1,0,0:0:0:0:
235,129,67925,1,0,0:0:0:0:
183,191,68128,1,0,0:0:0:0:
105,208,68332,1,0,0:0:0:0:
20,143,68536,6,0,P|16:116|9:83,1,39.3750015020371
65,96,68740,2,0,P|56:58|57:35,1,39.3750015020371
0,27,68944,6,0,P|72:22|129:6,2,105,2|2|2,0:1|0:0|0:0,0:0:0:0:
186,79,69555,2,0,P|205:143|111:225,1,157.5,2|0,0:1|0:0,0:0:0:0:
91,177,69962,1,2,0:0:0:0:
66,186,70064,1,0,0:0:0:0:
48,165,70166,1,2,0:0:0:0:
86,97,70370,1,2,0:1:0:0:
231,11,70574,5,0,0:0:0:0:
254,43,70676,1,0,0:0:0:0:
302,27,70778,1,0,0:0:0:0:
337,65,70880,1,0,0:0:0:0:
388,45,70982,5,0,0:0:0:0:
457,89,71186,1,0,0:0:0:0:
408,154,71390,1,0,0:0:0:0:
309,223,71594,1,2,0:0:0:0:
294,233,71696,1,0,0:0:0:0:
291,251,71797,1,2,0:0:0:0:
287,305,71900,1,0,0:0:0:0:
353,359,72002,1,2,0:0:0:0:
452,352,72206,6,0,P|488:253|487:109,1,210,2|2,0:1|0:0,0:0:0:0:
256,18,72817,2,0,P|256:122|286:188,1,157.5,2|0,0:1|0:0,0:0:0:0:
292,171,73225,1,2,0:0:0:0:
398,157,73429,1,2,0:0:0:0:
454,72,73633,2,0,P|441:31|415:-4,2,52.5,2|0|0,0:0|0:0|0:0,0:0:0:0:
456,95,74040,5,2,0:1:0:0:
394,134,74244,1,0,0:0:0:0:
318,128,74448,1,0,0:0:0:0:
317,122,74550,1,0,0:0:0:0:
319,114,74652,2,0,P|294:47|148:26,1,210,2|2,0:0|0:0,0:0:0:0:
169,14,75264,1,0,0:0:0:0:
0,90,75468,6,0,B|41:97|41:97|57:118|57:118|136:133,1,105,2|2,0:1|0:0,0:0:0:0:
150,192,75875,1,2,0:0:0:0:
73,0,76079,2,0,P|12:37|19:184,1,210,2|2,0:1|0:0,0:0:0:0:
102,129,76691,2,0,L|22:148,1,52.5,2|0,0:0|0:0,0:0:0:0:
24,167,76895,1,2,0:1:0:0:
397,348,77099,5,0,1:0:0:0:
376,342,77201,1,0,0:0:0:0:
303,319,77303,5,0,1:0:0:0:
303,319,77405,1,0,1:0:0:0:
229,291,77507,5,8,0:0:0:0:
5,379,77710,5,8,0:3:0:0:
18,374,77812,1,0,0:0:0:0:
96,364,77914,5,0,1:0:0:0:
106,338,78016,1,0,1:0:0:0:
80,264,78118,5,0,1:0:0:0:
2,169,78322,1,8,0:3:0:0:
115,49,78526,2,0,P|98:18|15:17,1,78.7500030040742,8|0,0:3|0:0,0:0:0:0:
7,56,78730,1,0,1:0:0:0:
7,56,78832,1,8,0:3:0:0:
7,56,78934,1,2,1:0:0:0:
262,104,79138,1,10,0:1:0:0:
361,116,79342,6,2,B|404:97|561:71|456:-159|170:-55|247:133|416:304|376:173|413:91|541:219|558:331|371:525|294:503|204:280|334:160|421:208,1,850.499974044801,2|0,1:0|0:0,0:1:0:0:
467,159,80361,2,0,L|498:151,1,31.5,0|0,1:0|1:0,1:0:0:0:
196,371,81176,6,0,B|223:350|217:324|217:324|119:286|119:286|140:322,1,188.999994232178,8|8,0:3|0:3,0:0:0:0:
512,0,86273,5,0,0:0:0:0:
7,142,86477,2,0,L|76:128,1,62.9999980773926,0|0,1:0|0:0,0:0:0:0:
92,143,86681,1,0,0:0:0:0:
130,31,86885,6,0,B|228:44|228:44|251:67|251:67|179:102|179:158,1,236.250009012223,0|0,0:0|0:0,1:0:0:0:
51,50,87700,2,0,B|44:22|44:22|47:17|47:17|39:-19,1,52.5
37,63,88312,1,0,0:0:0:0:
249,169,88516,2,0,L|240:236,2,52.5
237,165,89331,1,0,0:0:0:0:
9,373,90147,5,0,1:0:0:0:
76,299,90759,1,0,1:0:0:0:
76,299,90861,2,0,B|154:284|146:364|248:340,1,157.5
301,367,91370,2,0,L|292:305,1,52.5,8|0,0:3|0:0,0:0:0:0:
313,317,91574,2,0,L|307:369,1,52.5,8|0,0:3|0:0,0:0:0:0:
245,253,91778,5,0,0:0:0:0:
236,192,91880,1,8,0:3:0:0:
511,226,92084,1,0,0:0:0:0:
497,279,92186,1,8,0:3:0:0:
441,22,92594,5,0,1:0:0:0:
379,33,92696,1,8,0:0:0:0:
315,46,92798,1,0,1:0:0:0:
410,125,93002,2,0,P|483:141|542:158,1,105,8|0,0:0|1:0,0:0:0:0:
502,7,93409,6,0,P|454:153|287:188,1,315.000012016297,0|8,1:0|0:0,1:0:0:0:
262,134,94020,1,0,1:0:0:0:
262,134,94088,1,0,0:0:0:0:
262,134,94156,1,0,0:0:0:0:
262,134,94224,2,0,P|230:96|139:104,1,125.999996154785,8|8,0:0|0:3,0:0:0:0:
128,166,94530,1,0,0:0:0:0:
128,166,94632,2,0,P|94:190|32:180,1,62.9999980773926
14,143,94836,1,8,0:0:0:0:
14,143,95040,1,0,0:0:0:0:
334,256,95244,6,0,B|348:297|348:297|343:301|343:301|313:277|238:247,1,125.999996154785,10|0,0:0|0:0,0:0:0:0:
386,353,95719,1,2,0:0:0:0:
386,353,95787,2,0,B|400:312|400:312|395:308|395:308|360:337|290:362,1,125.999996154785,10|0,0:3|0:0,0:0:0:0:
428,219,96127,1,2,0:0:0:0:
428,219,96195,2,0,B|414:178|414:178|419:174|419:174|454:203|524:228,1,125.999996154785,10|0,0:3|0:0,0:0:0:0:
278,133,96535,1,2,0:0:0:0:
278,133,96603,2,0,B|264:174|264:174|269:178|269:178|304:149|374:124,1,125.999996154785,10|0,0:3|0:0,0:0:0:0:
432,0,96943,1,10,0:3:0:0:
432,0,97010,1,10,0:3:0:0:
432,0,97079,1,2,1:2:0:0:
432,0,97147,6,0,P|410:114|403:221,1,209.999993591309,2|0,0:3|0:0,1:0:0:0:
424,343,97690,1,0,1:0:0:0:
459,368,97792,1,0,1:0:0:0:
500,353,97894,2,0,P|525:306|512:194,1,125.999996154785,8|0,0:0|1:0,0:0:0:0:
414,174,98302,1,8,0:3:0:0:
302,269,98506,5,8,0:0:0:0:
302,269,98608,1,8,0:0:0:0:
221,248,98913,2,0,B|147:242|180:291|79:289,1,125.999996154785,8|0,0:0|0:0,0:0:0:0:
199,361,99321,1,0,1:0:0:0:
15,192,99525,2,0,P|10:104|48:31,1,125.999996154785,8|8,0:0|0:0,0:0:0:0:
212,13,99933,5,0,1:0:0:0:
269,42,100035,1,0,0:0:0:0:
330,28,100137,1,0,0:0:0:0:
355,55,100341,5,0,0:0:0:0:
432,19,100545,1,8,0:3:0:0:
482,84,100749,1,8,0:0:0:0:
310,154,101156,6,0,P|275:161|250:165,2,41.9999987182618,0|0|0,1:0|0:0|0:0,0:0:0:0:
249,190,101360,2,0,P|214:183|189:179,2,41.9999987182618,0|0|0,1:0|0:0|0:0,0:0:0:0:
169,141,101564,1,0,0:0:0:0:
110,96,101666,1,8,0:3:0:0:
46,135,101768,1,0,1:0:0:0:
46,135,101870,2,0,P|40:197|34:280,1,125.999996154785
128,359,102176,5,2,0:0:0:0:
128,359,102278,1,2,0:0:0:0:
217,340,102380,5,10,0:0:0:0:
258,332,102482,1,2,0:0:0:0:
356,309,102584,6,0,P|384:303|437:289,1,62.9999980773926,10|2,0:0|0:0,0:0:0:0:
451,363,102787,2,0,P|483:370|534:384,2,62.9999980773926,2|0|0,1:2|0:0|0:0,0:0:0:0:
6,54,103195,5,10,0:1:0:0:
91,29,103399,1,10,0:0:0:0:
29,12,103603,1,10,0:0:0:0:
188,93,103807,1,10,0:0:0:0:
24,196,104011,6,0,L|17:249,4,41.9999987182618,10|0|0|0|0,0:0|0:0|0:0|0:0|0:0,0:0:0:0:
96,272,104419,1,0,0:0:0:0:
96,272,104623,1,0,0:0:0:0:
5,360,104826,1,0,1:0:0:0:
273,384,105030,6,0,P|283:260|219:154,1,251.999992309571,10|10,0:1|0:1,0:0:0:0:
19,165,105845,6,0,P|46:188|51:233,1,73.4999977569581,10|0,0:1|0:0,0:0:0:0:
190,147,106049,2,0,P|162:123|157:89,1,73.4999977569581,10|0,0:3|0:0,0:0:0:0:
293,21,106253,2,0,P|300:56|328:78,1,73.4999977569581,10|0,0:1|0:0,0:0:0:0:
17,0,106457,6,2,B|122:91|305:99|154:-17|6:6,1,336,6|0,1:0|3:0,1:0:0:0:
457,384,107068,2,2,B|478:304|365:291|293:348|251:218|316:181,1,315,2|0,1:0|1:0,1:0:0:0:
392,167,107782,1,0,0:0:0:0:
392,167,107884,1,8,0:0:0:0:
485,68,108088,6,0,P|431:47|322:22,1,125.999996154785,2|10,1:0|0:0,0:0:0:0:
235,152,108495,1,2,1:2:0:0:
467,9,108699,6,0,P|370:57|284:114,1,188.999994232178,10|8,0:3|0:3,0:0:0:0:
308,110,109106,1,10,0:0:0:0:
378,364,109310,1,8,0:3:0:0:
467,335,109412,1,0,0:0:0:0:
431,384,109514,1,10,0:1:0:0:
511,262,109719,6,0,P|468:258|412:173,1,125.999996154785,0|8,1:0|0:0,0:0:0:0:
471,148,110024,1,8,0:0:0:0:
471,148,110126,1,0,1:0:0:0:
275,320,110330,2,0,P|268:350|264:382,1,62.9999980773926,8|0,0:3|0:0,0:0:0:0:
264,335,110533,5,0,3:0:0:0:
219,367,110635,1,8,0:3:0:0:
185,337,110737,1,8,0:0:0:0:
119,369,110941,1,8,0:3:0:0:
41,338,111145,1,0,1:0:0:0:
65,255,111350,6,0,P|107:193|83:136,1,125.999996154785,2|2,1:0|3:2,0:0:0:0:
0,72,111757,1,2,3:2:0:0:
118,323,111961,6,0,P|95:239|54:111,1,188.999994232178,10|8,0:1|0:3,0:0:0:0:
188,0,112369,1,10,0:0:0:0:
71,128,112572,1,10,0:3:0:0:
185,197,112777,6,0,B|279:156|315:225|251:276|353:314|418:268,1,251.999992309571,10|0,0:1|3:0,1:0:0:0:
458,321,113388,6,0,P|464:351|469:382,1,62.9999980773926,0|0,1:0|0:0,0:0:0:0:
507,197,113591,1,0,0:3:0:0:
482,242,113693,1,0,0:0:0:0:
466,226,113796,2,0,P|471:195|477:164,1,62.9999980773926,0|0,3:0|0:0,0:0:0:0:
272,78,114000,5,8,0:0:0:0:
334,124,114102,1,8,0:0:0:0:
415,104,114204,1,8,0:0:0:0:
350,51,114407,1,0,1:0:0:0:
272,298,114612,6,0,P|242:256|153:259,1,125.999996154785,2|2,1:0|3:2,0:0:0:0:
152,359,115019,1,2,3:2:0:0:
243,384,115223,2,0,P|216:321|154:199,1,188.999994232178,10|0,0:1|0:0,0:0:0:0:
86,220,115631,1,10,0:0:0:0:
179,12,115835,2,0,P|216:28|272:43,1,62.9999980773926,10|0,0:3|0:0,0:0:0:0:
237,54,116039,2,0,P|271:43|342:32,1,62.9999980773926,2|0,1:0|0:0,0:0:0:0:
338,0,116243,5,0,1:0:0:0:
176,138,116446,1,0,3:0:0:0:
142,132,116548,1,0,0:0:0:0:
130,112,116650,1,0,3:0:0:0:
128,92,116752,1,0,0:0:0:0:
165,16,116956,5,0,0:0:0:0:
190,5,117058,1,8,0:0:0:0:
262,23,117160,1,8,0:3:0:0:
285,55,117262,1,8,0:3:0:0:
266,172,117466,1,8,0:0:0:0:
355,254,117670,1,0,1:0:0:0:
490,220,117874,6,0,P|476:286|453:403,1,125.999996154785,2|2,1:0|3:2,1:0:0:0:
392,372,118180,1,0,0:0:0:0:
392,372,118281,1,2,3:2:0:0:
492,384,118485,2,0,P|472:289|443:171,1,188.999994232178,10|8,0:1|0:3,0:0:0:0:
506,141,118893,6,0,P|477:133|439:86,1,62.9999980773926,2|0,1:2|0:0,0:0:0:0:
343,9,119097,2,0,P|352:51|354:113,1,68.2499968757631,10|0,0:0|0:0,0:0:0:0:
262,106,119301,6,0,B|340:112|396:54|396:54|396:63|396:63|354:108|370:173,1,251.999992309571,2|8,1:0|0:0,1:0:0:0:
308,200,119810,1,0,0:0:0:0:
345,169,119912,2,0,P|339:218|336:263,1,62.9999980773926,8|0,0:0|0:0,0:0:0:0:
292,384,120116,2,0,P|288:348|281:306,1,78.7500030040742,2|0,1:0|0:0,0:0:0:0:
159,269,120320,6,2,B|135:293|135:293|128:320|128:320|40:259|40:259|-11:254|-11:254|54:159|70:110|70:110|68:98|68:98|124:153|202:173,1,535.500010213852,10|8,0:1|0:3,0:1:0:0:
102,218,121033,1,0,0:0:0:0:
102,218,121135,1,10,0:1:0:0:
478,335,121543,1,2,3:2:0:0:
409,383,121747,6,0,P|393:278|371:183,1,146.999995513916,2|10,1:0|0:1,0:0:0:0:
427,153,122052,1,0,0:0:0:0:
427,153,122155,2,0,P|484:189|478:256,1,125.999996154785,2|10,3:2|0:0,0:0:0:0:
290,44,122563,6,0,P|328:36|376:20,1,62.9999980773926,2|0,3:2|0:0,0:0:0:0:
417,61,122767,1,0,3:0:0:0:
328,146,122971,6,0,P|242:130|59:108,1,251.999992309571,10|0,0:3|1:0,0:0:0:0:
4,10,123582,1,10,0:1:0:0:
120,81,123786,1,0,1:0:0:0:
0,200,123989,1,8,0:3:0:0:
155,384,124194,1,0,1:0:0:0:
361,289,124398,2,0,B|425:278|420:343|486:329,1,136.499993751526,2|2,1:0|1:2,0:0:0:0:
507,311,124703,1,0,0:0:0:0:
507,311,124805,1,2,1:2:0:0:
401,224,125009,2,0,B|290:203|346:326|212:306,1,204.749990627289,10|0,0:1|0:0,0:0:0:0:
405,378,125417,2,0,L|420:278,1,68.2499968757631,10|0,0:3|0:0,0:0:0:0:
401,304,125621,2,0,L|429:402,1,68.2499968757631,2|0,3:2|0:0,0:0:0:0:
507,311,125825,1,2,1:0:0:0:
397,66,127048,5,8,0:3:0:0:
495,42,127252,1,8,0:0:0:0:
405,84,127456,1,8,0:3:0:0:
350,11,127660,6,0,B|254:-8|308:60|184:51,1,146.999995513916,6|2,1:0|1:2,1:0:0:0:
272,140,127965,1,0,0:0:0:0:
272,140,128067,2,0,L|245:47,1,73.4999977569581,10|0,0:3|0:0,0:0:0:0:
148,2,128271,6,0,P|50:45|25:149,1,220.499993270874,10|0,0:3|0:0,0:0:0:0:
8,239,128679,5,2,3:2:0:0:
91,250,128781,1,0,0:0:0:0:
110,169,128883,1,8,0:3:0:0:
24,0,129087,6,0,B|31:25|31:25|46:41|46:41|55:73,1,73.4999977569581,2|0,1:0|0:0,0:0:0:0:
414,33,129291,2,2,B|402:57|478:85|435:-16|359:-1|202:-2|444:227|168:213|184:135,1,367.49998878479,2|0,3:1|0:0,0:1:0:0:
200,128,129902,1,2,3:1:0:0:
368,12,130106,2,2,B|359:20|323:-2|323:-2|350:27|373:35|374:73,1,141.749995674133,10|8,0:1|0:3,0:1:0:0:
511,123,130514,1,2,3:2:0:0:
445,104,130616,1,0,0:0:0:0:
470,87,130718,1,2,3:2:0:0:
424,148,130820,1,0,0:0:0:0:
490,221,130922,6,0,P|475:283|472:321,1,78.7500030040742,2|0,1:0|0:0,0:0:0:0:
462,310,131125,2,0,P|468:271|478:233,1,78.7500030040742,2|0,3:2|0:0,0:0:0:0:
236,349,131329,2,0,P|196:364|151:377,1,78.7500030040742,2|0,3:2|0:0,0:0:0:0:
431,383,131533,6,0,P|325:344|309:233,1,236.250009012223,10|0,0:3|0:0,0:0:0:0:
175,139,131941,2,0,P|200:169|229:195,1,78.7500030040742,2|0,3:2|0:0,0:0:0:0:
325,240,132145,1,2,3:2:0:0:
454,7,132349,2,0,P|341:26|300:131,1,236.250009012223,2|0,1:0|0:0,0:0:0:0:
220,198,132756,6,2,B|128:181|156:263|68:236,1,157.500006008148,10|2,0:1|3:2,0:1:0:0:
33,384,133368,2,0,B|53:347|92:335|92:335|59:228|23:164,1,252,8|0,0:0|0:0,0:0:0:0:
57,84,133776,6,0,P|106:91|101:172,1,84,2|0,1:0|0:0,0:0:0:0:
229,188,133980,2,0,P|242:235|166:263,1,84,2|0,1:0|0:0,0:0:0:0:
83,370,134184,2,2,P|109:207|129:136,1,168,2|2,1:0|3:2,0:1:0:0:
141,137,134490,1,0,0:0:0:0:
141,137,134592,1,2,3:2:0:0:
13,0,134795,6,2,P|159:54|342:59,1,283.499991348267,2|0,1:0|0:0,0:1:0:0:
472,26,135203,2,0,P|419:24|372:111,1,94.499997116089,2|0,3:1|0:0,0:0:0:0:
367,192,135407,2,0,P|321:194|288:161,1,94.499997116089,2|0,3:1|0:0,0:0:0:0:
63,21,135610,6,2,B|53:48|53:48|18:195|116:392,1,377.999988464356,2|2,1:0|1:0,0:1:0:0:
123,280,136222,5,8,0:3:0:0:
179,209,136426,1,0,3:0:0:0:
260,252,136630,1,10,0:1:0:0:
385,358,136834,1,10,0:1:0:0:
512,306,137038,1,2,3:1:0:0:
488,31,137242,1,2,1:0:0:0:
136,84,137446,6,0,P|249:58|411:47,1,188.999994232178,2|2,1:0|3:2,0:0:0:0:
396,129,137751,1,0,0:0:0:0:
322,163,137853,1,2,1:2:0:0:
343,68,138057,6,2,P|202:42|36:0,1,283.499991348267,2|0,1:0|0:0,0:1:0:0:
1,75,138465,1,2,3:1:0:0:
1,75,138567,1,0,0:0:0:0:
1,75,138669,1,2,1:0:0:0:
136,384,138873,6,2,P|109:226|47:22,1,283.499991348267,10|0,0:1|0:0,0:1:0:0:
76,107,139281,2,0,P|146:136|175:76,1,94.499997116089,10|0,0:1|0:0,0:0:0:0:
228,31,139484,6,0,P|333:18|383:118,1,168,10|2,0:1|1:0,0:0:0:0:
484,193,139892,1,10,0:1:0:0:
422,130,139994,1,0,0:0:0:0:
457,192,140096,1,8,0:3:0:0:
329,360,140300,1,8,0:0:0:0:
111,308,140504,1,0,1:0:0:0:
31,39,140708,6,0,B|6:104|-34:13|64:-78|257:49|223:252,1,420,2|0,1:0|0:0,1:0:0:0:
300,62,141319,2,0,B|314:50|314:50|303:72|299:113,1,84,2|0,1:0|0:0,0:0:0:0:
80,175,141523,6,2,B|36:166|88:235|195:227|179:80,1,168,10|2,0:1|3:2,0:1:0:0:
108,102,141829,1,0,0:0:0:0:
108,102,141931,1,10,0:3:0:0:
236,384,142135,6,2,P|251:258|273:135,1,252,2|0,1:0|0:0,0:1:0:0:
162,336,142542,2,0,P|156:294|144:246,1,78.7500030040742,2|0,1:0|0:0,0:0:0:0:
329,341,142746,6,2,B|358:404|444:406|468:325|435:242|505:225,1,283.499991348267,10|0,0:1|0:0,0:1:0:0:
351,0,143154,2,2,B|343:30|394:40|394:40|411:47|397:61|392:26|269:97|393:235|457:150,1,283.499991348267,2|0,3:1|0:0,0:1:0:0:
242,118,143562,5,10,0:1:0:0:
185,92,143664,1,0,0:0:0:0:
116,108,143766,1,8,0:0:0:0:
48,96,143868,1,0,0:0:0:0:
13,89,143969,6,0,B|4:82|4:82|24:13,1,84,2|0,1:0|0:0,0:0:0:0:
156,249,144173,6,0,B|146:241|146:241|166:172,1,84,2|0,3:1|0:0,0:0:0:0:
41,0,144377,6,0,B|31:7|31:7|51:76,1,84,2|0,3:1|0:0,0:0:0:0:
160,156,144581,6,2,L|229:231,1,86.6250026435853,10|0,0:1|0:0,0:1:0:0:
0,253,144989,6,0,L|83:218,1,78.7500030040742,2|0,3:1|0:0,0:0:0:0:
268,12,145193,2,0,L|356:35,1,78.7500030040742,2|0,3:1|0:0,0:0:0:0:
512,329,145397,1,2,1:0:0:0:
69,371,147231,6,0,P|60:285|41:198,1,157.5,6|0,1:0|0:0,1:0:0:0:
47,204,147639,1,0,0:0:0:0:
134,296,147843,6,0,P|192:302|302:330,1,157.500006008148,2|8,1:0|0:0,0:0:0:0:
305,329,148387,6,0,P|311:296|323:255,2,52.5000020027161,2|2|2,0:0|0:0|1:0,0:0:0:0:
259,207,148862,1,2,0:0:0:0:
408,178,149066,1,2,1:2:0:0:
282,17,149270,6,0,P|188:21|113:142,1,236.250009012223,10|0,0:0|1:0,0:0:0:0:
2,233,150085,5,10,0:0:0:0:
22,244,150187,1,2,0:0:0:0:
31,222,150289,1,2,1:2:0:0:
60,232,150391,1,2,0:0:0:0:
83,212,150493,2,0,B|168:198|143:262|251:254,1,157.500006008148,2|2,1:0|0:0,1:0:0:0:
112,376,151104,1,2,1:0:0:0:
112,376,151309,2,0,P|101:313|91:277,1,78.7500030040742,10|2,0:0|0:0,0:0:0:0:
271,245,151717,2,0,P|262:283|261:298,1,39.3750015020371,10|0,0:3|0:0,0:0:0:0:
291,363,151921,1,2,1:0:0:0:
291,363,152022,6,0,P|366:351|402:237,1,196.875007510186,0|8,0:0|0:0,0:0:0:0:
339,192,152736,1,0,1:0:0:0:
392,130,152939,1,8,0:0:0:0:
321,44,153144,6,0,P|321:13|320:-7,1,39.3750015020371,2|2,1:2|0:0,0:0:0:0:
339,23,153348,2,0,P|338:46|338:55,7,19.6875007510186,10|2|2|2|10|2|2|2,0:0|0:0|0:0|0:0|0:0|0:0|0:0|0:0,0:0:0:0:
282,89,153755,2,0,P|283:112|283:121,3,19.6875007510186,2|2|2|2,1:0|0:0|0:0|0:0,1:0:0:0:
266,67,153959,2,0,P|267:90|267:99,2,19.6875007510186,2|2|2,0:0|0:0|0:0,0:0:0:0:
202,26,154163,5,2,0:0:0:0:
146,72,154265,1,2,0:0:0:0:
85,48,154367,1,2,1:0:0:0:
23,66,154469,1,2,0:0:0:0:
405,21,154876,5,2,0:0:0:0:
422,65,154978,1,10,0:3:0:0:
381,102,155080,1,2,0:0:0:0:
432,137,155182,1,2,1:0:0:0:
386,188,155284,2,0,P|340:191|312:201,2,59.0625022530557,2|2|10,0:0|0:0|0:0,0:0:0:0:
483,278,155794,2,0,P|437:275|409:265,2,59.0625022530557,10|2|2,0:0|0:0|0:0,0:0:0:0:
319,364,156202,1,10,0:0:0:0:
319,364,157017,5,2,1:0:0:0:
246,324,157221,2,0,P|241:296|235:283,2,26.2500010013581,2|2|2,0:0|0:0|0:0,0:0:0:0:
252,277,157425,2,0,P|310:287|340:292,1,78.7500030040742,2|2,1:2|0:1,0:0:0:0:
69,371,157833,2,0,P|107:360|130:353,1,39.3750015020371,10|0,0:0|0:0,0:0:0:0:
102,326,158037,2,0,P|140:337|163:344,1,39.3750015020371,10|0,0:3|0:0,0:0:0:0:
177,364,158241,1,2,0:0:0:0:
49,251,158445,6,0,P|42:166|32:61,1,157.500006008148,2|10,1:0|0:0,1:0:0:0:
84,24,159056,2,0,P|145:43|155:119,1,118.125004506111,2|0,1:2|0:0,0:0:0:0:
147,99,159464,1,8,0:0:0:0:
4,187,159668,1,10,0:0:0:0:
4,187,159770,1,2,0:0:0:0:
33,192,159872,2,0,P|89:197|105:202,1,52.5000020027161,10|2,0:3|0:0,0:0:0:0:
223,63,160144,6,0,B|320:64|291:127|393:110,1,157.500006008148,2|2,0:0|0:0,0:0:0:0:
441,82,160687,2,0,P|435:45|435:23,2,52.5000020027161,2|2|2,0:0|0:0|0:0,0:0:0:0:
362,7,161095,1,10,0:0:0:0:
297,48,161231,1,2,0:0:0:0:
243,145,161367,2,0,P|173:155|150:156,1,78.7500030040742,2|2,0:0|0:0,0:0:0:0:
99,112,161707,1,10,0:1:0:0:
145,42,161843,2,0,P|191:37|243:28,1,78.7500030040742,2|2,0:0|0:0,0:0:0:0:
297,58,162183,1,2,0:0:0:0:
372,91,162319,1,2,0:0:0:0:
477,23,163270,5,2,0:0:0:0:
499,156,163406,1,2,0:0:0:0:
499,156,163474,1,2,0:0:0:0:
499,156,163542,2,0,P|479:203|475:244,1,78.7500030040742,2|2,1:0|0:0,1:0:0:0:
371,367,163950,2,0,P|350:334|345:283,1,78.7500030040742,2|2,0:0|1:0,0:0:0:0:
489,317,164358,5,10,0:0:0:0:
391,221,164561,1,2,1:0:0:0:
248,345,164765,1,2,1:2:0:0:
159,373,164969,1,10,0:3:0:0:
28,212,165377,5,0,0:0:0:0:
27,208,165478,1,0,0:0:0:0:
27,204,165580,1,0,0:0:0:0:
26,200,165682,1,0,0:0:0:0:
26,196,165784,1,0,0:0:0:0:
25,192,165886,1,0,0:0:0:0:
25,188,165988,1,0,0:0:0:0:
24,184,166090,1,0,0:0:0:0:
24,180,166192,1,0,0:0:0:0:
23,176,166294,1,0,0:0:0:0:
23,172,166396,1,0,0:0:0:0:
293,199,166599,5,0,0:0:0:0:
293,199,166701,1,0,0:0:0:0:
293,199,166803,2,0,P|287:237|286:275,2,57.7500017623902,6|2|2,0:0|0:0|0:0,0:0:0:0:
203,292,167415,2,0,P|192:243|172:169,1,115.50000352478,2|2,0:0|0:0,0:0:0:0:
101,267,168230,6,0,P|38:290|6:392,1,173.250005287171,2|0,0:0|0:0,0:0:0:0:
239,361,169046,1,0,0:0:0:0:
239,361,169148,1,0,0:0:0:0:
239,361,169250,1,8,0:0:0:0:
321,234,169658,2,0,P|343:239|357:240,2,28.8750008811951
222,140,170065,6,0,P|213:105|202:74,2,57.7500017623902,2|2|2,0:0|0:0|0:0,0:0:0:0:
311,168,170677,2,0,P|325:85|342:25,1,118.125004506111,2|0,0:0|0:0,0:0:0:0:
349,45,171085,1,2,0:0:0:0:
440,27,171289,1,2,0:0:0:0:
477,109,171492,6,0,P|384:124|220:154,1,236.250009012223,2|0,0:0|0:0,0:0:0:0:
172,91,172308,1,0,0:0:0:0:
172,91,172410,1,0,0:0:0:0:
172,91,172512,1,8,0:0:0:0:
237,23,172716,2,0,P|284:32|323:33,2,78.7500030040742
19,26,173328,5,2,0:0:0:0:
48,99,173532,1,2,0:0:0:0:
93,98,173736,1,2,0:0:0:0:
121,175,173940,1,2,0:0:0:0:
39,374,174347,5,2,0:0:0:0:
52,304,174551,1,2,0:0:0:0:
36,290,174755,6,0,B|124:285|101:343|197:334,1,157.500006008148,2|0,0:0|0:0,0:0:0:0:
260,376,175367,1,0,0:0:0:0:
320,333,175571,1,0,0:0:0:0:
444,369,175775,6,0,P|448:320|456:275,1,78.7500030040742,8|0,0:0|0:0,0:0:0:0:
411,231,176182,2,0,P|372:238|344:239,3,39.3750015020371
477,192,176589,6,0,P|504:146|460:72,1,141.749995674133,2|0,0:1|0:0,0:0:0:0:
439,83,176997,1,2,0:0:0:0:
254,154,177201,2,0,P|234:87|304:15,1,168,2|2,0:1|0:0,0:0:0:0:
342,79,177813,1,2,0:0:0:0:
410,18,178016,2,0,P|424:94|437:279,1,252,2|0,0:1|0:0,0:0:0:0:
371,311,178831,5,0,0:0:0:0:
371,311,178933,1,0,0:0:0:0:
371,311,179036,2,0,P|377:349|377:371,1,42,8|0,0:0|0:0,0:0:0:0:
286,267,179240,2,0,P|292:305|292:327,1,42
421,190,179443,6,0,P|415:228|415:250,1,42
500,151,179647,2,0,P|494:189|494:211,1,42
402,57,179851,5,2,0:1:0:0:
288,37,180258,1,2,0:0:0:0:
288,37,180462,1,2,0:1:0:0:
397,79,180666,5,8,0:0:0:0:
440,72,180768,1,0,0:0:0:0:
411,94,180870,1,2,0:0:0:0:
310,169,181074,1,2,0:0:0:0:
167,143,181278,6,0,B|132:139|132:139|113:127|113:127|76:123,1,84,2|0,0:0|0:0,0:0:0:0:
13,183,181686,6,0,P|88:161|108:17,1,210,2|0,0:1|0:0,0:0:0:0:
43,21,182297,5,8,0:0:0:0:
43,21,182399,1,0,0:0:0:0:
63,50,182501,1,0,0:0:0:0:
115,59,182603,1,0,0:0:0:0:
176,21,182705,5,0,0:0:0:0:
230,27,182807,1,0,0:0:0:0:
286,33,182909,1,0,0:0:0:0:
331,35,183011,1,0,0:0:0:0:
409,17,183113,6,0,P|408:55|411:79,1,52.5,2|2,0:0|0:0,0:0:0:0:
299,178,183725,2,0,P|300:140|297:116,1,52.5,2|2,0:0|0:0,0:0:0:0:
280,118,184336,1,2,0:0:0:0:
497,373,184540,5,2,0:0:0:0:
