osu file format v14

[General]
AudioFilename: audio.mp3
AudioLeadIn: 0
PreviewTime: 50824
Countdown: 0
SampleSet: Normal
StackLeniency: 1
Mode: 2
LetterboxInBreaks: 0
WidescreenStoryboard: 1

[Editor]
Bookmarks: 51996,99996,171996,195996,231996
DistanceSpacing: 1
BeatDivisor: 16
GridSize: 32
TimelineZoom: 2.2

[Metadata]
Title:Wan
TitleUnicode:Wan〜椀〜
Artist:Chata
ArtistUnicode:茶太
Creator:Morusya
Version:Extra Stage
Source:東方輝針城 ~ Double Dealing Character.
Tags:kalibe moru m0ru nordic 4 digit catch cup n4cc dt1 dt 1 one doubletime double time touhou doujin sally iyuna サリー video game vgm japanese is th14 v2 kishinjou ddc sukuna shinmyoumaru 耀く針の小人族 inchlings of the shining needle ~ little princess
BeatmapID:4316720
BeatmapSetID:2019552

[Difficulty]
HPDrainRate:5.5
CircleSize:4.5
OverallDifficulty:8.5
ApproachRate:8.5
SliderMultiplier:2.34
SliderTickRate:0.5

[Events]
//Background and Video events
0,0,"touhouu.jpg",0,0
//Break Periods
//Storyboard Layer 0 (Background)
//Storyboard Layer 1 (Fail)
//Storyboard Layer 2 (Pass)
//Storyboard Layer 3 (Foreground)
//Storyboard Layer 4 (Overlay)
//Storyboard Sound Samples

[TimingPoints]
3996,375,4,2,1,45,1,0
3996,-53.0852994555354,4,2,1,45,0,0
4558,-40.2615278733655,4,2,1,45,0,0
4839,-40.2615278733655,4,2,1,15,0,0
4933,-40.2615278733655,4,2,1,45,0,0
5214,-40.2615278733655,4,2,1,15,0,0
5308,-40.2615278733655,4,2,1,45,0,0
5589,-40.2615278733655,4,2,1,15,0,0
5683,-40.2615278733655,4,2,1,45,0,0
5964,-40.2615278733655,4,2,1,15,0,0
6058,-40.2615278733655,4,2,1,45,0,0
6339,-53.0852994555354,4,2,1,15,0,0
6433,-53.0852994555354,4,2,1,45,0,0
7558,-40.2615278733655,4,2,1,45,0,0
7839,-40.2615278733655,4,2,1,15,0,0
7933,-40.2615278733655,4,2,1,45,0,0
8214,-40.2615278733655,4,2,1,15,0,0
8308,-40.2615278733655,4,2,1,45,0,0
8589,-40.2615278733655,4,2,1,15,0,0
8683,-40.2615278733655,4,2,1,45,0,0
8964,-40.2615278733655,4,2,1,15,0,0
9058,-40.2615278733655,4,2,1,45,0,0
9339,-53.0852994555354,4,2,1,15,0,0
9433,-53.0852994555354,4,2,1,45,0,0
9996,-35.9226281854467,4,2,1,45,0,0
10371,-53.0852994555354,4,2,1,45,0,0
10558,-53.0852994555354,4,2,1,45,0,0
11214,-53.0852994555354,4,2,1,15,0,0
11308,-40.2615278733655,4,2,1,45,0,0
11589,-40.2615278733655,4,2,1,15,0,0
11683,-40.2615278733655,4,2,1,45,0,0
11964,-40.2615278733655,4,2,1,15,0,0
12058,-40.2615278733655,4,2,1,45,0,0
12339,-40.2615278733655,4,2,1,15,0,0
12433,-53.0852994555354,4,2,1,45,0,0
12996,-35.9226281854467,4,2,1,45,0,0
13371,-53.0852994555354,4,2,1,45,0,0
13558,-53.0852994555354,4,1,1,55,0,0
13839,-53.0852994555354,4,2,1,15,0,0
13933,-53.0852994555354,4,1,1,55,0,0
14214,-53.0852994555354,4,2,1,15,0,0
14308,-40.2615278733655,4,1,1,55,0,0
14589,-40.2615278733655,4,2,1,15,0,0
14683,-40.2615278733655,4,1,1,55,0,0
14964,-53.0852994555354,4,2,1,15,0,0
15058,-53.0852994555354,4,1,1,55,0,0
15808,-40.2615278733655,4,1,1,65,0,0
27808,-40.2615278733655,4,1,1,55,0,0
27996,-53.0852994555354,4,3,1,55,0,0
37277,-53.0852994555354,4,3,1,55,0,0
50871,-40.2615278733655,4,1,1,60,0,0
51621,-53.0852994555354,4,1,1,60,0,0
51996,-40.2615278733655,4,1,2,65,0,0
52371,-40.2615278733655,4,1,2,65,0,0
53308,-53.0852994555354,4,1,2,65,0,0
53871,-40.2615278733655,4,1,2,65,0,0
54621,-53.0852994555354,4,1,2,65,0,0
54995,-40.2615278733655,4,1,2,65,0,0
55371,-40.2615278733655,4,1,2,65,0,0
56308,-53.0852994555354,4,1,2,65,0,0
56871,-40.2615278733655,4,1,2,65,0,0
57621,-53.0852994555354,4,1,2,65,0,0
57996,-40.2615278733655,4,1,2,65,0,0
59121,-53.0852994555354,4,1,2,65,0,0
59496,-40.2615278733655,4,1,2,65,0,0
60058,-40.2615278733655,4,1,2,65,0,0
61746,-53.0852994555354,4,1,2,65,0,0
62871,-40.2615278733655,4,1,2,65,0,0
63621,-53.0852994555354,4,1,2,65,0,0
63996,-32.4279379157428,4,1,2,65,0,0
64277,-32.4279379157428,4,2,2,5,0,0
64371,-40.2615278733655,4,1,2,65,0,0
65308,-53.0852994555354,4,1,2,65,0,0
65871,-40.2615278733655,4,1,2,65,0,0
66621,-53.0852994555354,4,1,2,65,0,0
66996,-32.4279379157428,4,1,2,65,0,0
67371,-40.2615278733655,4,1,2,65,0,0
68308,-53.0852994555354,4,1,2,65,0,0
68871,-40.2615278733655,4,1,2,65,0,0
69621,-53.0852994555354,4,1,2,65,0,0
69996,-40.2615278733655,4,1,2,65,0,0
71121,-53.0852994555354,4,1,2,65,0,0
71496,-40.2615278733655,4,1,2,65,0,0
73933,-53.0852994555354,4,1,2,65,0,0
74871,-40.2615278733655,4,1,2,65,0,0
75621,-53.0852994555354,4,1,2,65,0,0
75996,-32.4279379157428,4,1,2,65,0,0
76746,-40.2615278733655,4,1,2,65,0,0
78058,-53.0852994555354,4,1,2,65,0,0
78621,-35.9226281854467,4,1,2,65,0,0
78996,-53.0852994555354,4,1,2,65,0,0
79371,-40.2615278733655,4,1,2,65,0,0
80121,-53.0852994555354,4,1,2,65,0,0
80871,-40.2615278733655,4,1,2,65,0,0
81433,-53.0852994555354,4,1,2,65,0,0
82371,-40.2615278733655,4,1,2,65,0,0
83496,-53.0852994555354,4,1,2,65,0,0
84621,-53.0852994555354,4,1,2,65,0,0
84996,-35.9226281854467,4,1,2,65,0,0
86308,-53.0852994555354,4,1,2,65,0,0
87339,-53.0852994555354,4,1,1,65,0,0
87433,-53.0852994555354,4,1,1,65,0,0
87527,-53.0852994555354,4,1,2,65,0,0
87996,-53.0852994555354,4,2,1,35,0,0
92121,-53.0852994555354,4,2,1,35,0,0
93621,-53.0852994555354,4,2,1,35,0,0
97558,-53.0852994555354,4,2,1,30,0,0
98308,-53.0852994555354,4,2,1,25,0,0
99058,-53.0852994555354,4,2,1,20,0,0
99526,-53.0852994555354,4,2,1,20,0,0
99621,-53.0852994555354,4,1,1,30,0,0
99808,-53.0852994555354,4,3,1,55,0,0
116121,-53.0852994555354,4,3,1,55,0,0
122871,-45.7925636007828,4,3,1,55,0,0
123621,-53.0852994555354,4,3,1,55,0,0
123996,-53.0852994555354,4,1,2,65,0,0
124371,-40.2615278733655,4,1,2,65,0,0
125121,-53.0852994555354,4,1,2,65,0,0
125871,-45.7925636007828,4,1,2,65,0,0
126621,-53.0852994555354,4,1,2,65,0,0
126996,-40.2615278733655,4,1,2,65,0,0
127371,-32.4279379157428,4,1,2,65,0,0
128121,-53.0852994555354,4,1,2,65,0,0
129996,-40.2615278733655,4,1,2,65,0,0
130746,-53.0852994555354,4,1,2,65,0,0
132058,-40.2615278733655,4,1,2,65,0,0
132433,-53.0852994555354,4,1,2,65,0,0
133371,-45.7925636007828,4,1,2,65,0,0
134121,-53.0852994555354,4,1,2,65,0,0
135996,-45.7925636007828,4,1,2,65,0,0
136371,-32.4279379157428,4,1,2,65,0,0
137121,-53.0852994555354,4,1,2,65,0,0
137871,-45.7925636007828,4,1,2,65,0,0
138621,-53.0852994555354,4,1,2,65,0,0
138996,-40.2615278733655,4,1,2,65,0,0
139371,-32.4279379157428,4,1,2,65,0,0
140121,-53.0852994555354,4,1,2,65,0,0
140871,-45.7925636007828,4,1,2,65,0,0
141621,-53.0852994555354,4,1,2,65,0,0
143496,-40.2615278733655,4,1,2,65,0,0
144246,-53.0852994555354,4,1,2,65,0,0
144996,-45.7925636007828,4,1,2,65,0,0
145746,-53.0852994555354,4,1,2,65,0,0
145933,-45.7925636007828,4,1,2,65,0,0
146308,-53.0852994555354,4,1,2,65,0,0
148746,-53.0852994555354,4,1,2,65,0,0
149121,-53.0852994555354,4,1,2,65,0,0
149871,-40.2615278733655,4,1,2,65,0,0
150246,-53.0852994555354,4,1,2,65,0,0
152496,-40.2615278733655,4,1,2,65,0,0
152871,-53.0852994555354,4,1,2,65,0,0
155496,-53.0852994555354,4,1,2,65,0,0
156621,-53.0852994555354,4,1,2,65,0,0
156996,-45.7925636007828,4,1,2,65,0,0
159621,-53.0852994555354,4,1,2,65,0,0
159996,-53.0852994555354,4,2,1,40,0,0
169371,-53.0852994555354,4,2,1,40,0,0
169746,-53.0852994555354,4,2,1,30,0,0
170871,-53.0852994555354,4,2,1,25,0,0
171808,-53.0852994555354,4,1,1,60,0,0
172183,-53.0852994555354,4,1,1,65,0,0
175371,-40.2615278733655,4,1,1,65,0,0
175933,-53.0852994555354,4,1,1,65,0,0
179496,-53.0852994555354,4,1,1,60,0,0
180621,-40.2615278733655,4,1,1,60,0,0
180996,-53.0852994555354,4,1,1,65,0,0
182121,-45.7925636007828,4,1,1,65,0,0
182683,-53.0852994555354,4,1,1,65,0,0
183996,-40.2615278733655,4,1,1,65,0,0
194871,-40.2615278733655,4,1,1,65,0,0
195621,-40.2615278733655,4,1,2,65,0,0
195996,-36.7139450232208,4,1,2,70,0,0
196746,-53.0852994555354,4,1,2,70,0,0
197871,-40.2615278733655,4,1,2,70,0,0
198621,-53.0852994555354,4,1,2,70,0,0
198996,-40.2615278733655,4,1,2,70,0,0
199277,-32.4279379157428,4,2,2,5,0,0
199371,-32.4279379157428,4,1,2,70,0,0
200121,-53.0852994555354,4,1,2,70,0,0
200871,-33.8780852222055,4,1,2,70,0,0
201621,-53.0852994555354,4,1,2,70,0,0
201996,-35.9226281854467,4,1,2,70,0,0
203121,-53.0852994555354,4,1,2,70,0,0
203496,-40.2615278733655,4,1,2,70,0,0
203871,-53.0852994555354,4,1,2,70,0,0
204058,-40.2615278733655,4,1,2,70,0,0
204433,-53.0852994555354,4,1,2,70,0,0
205371,-40.2615278733655,4,1,2,70,0,0
206683,-53.0852994555354,4,1,2,70,0,0
206871,-23.3439744612929,4,1,2,70,0,0
207246,-53.0852994555354,4,1,2,70,0,0
207996,-40.2615278733655,4,1,2,70,0,0
208371,-32.4279379157428,4,1,2,70,0,0
209121,-53.0852994555354,4,1,2,70,0,0
209871,-40.2615278733655,4,1,2,70,0,0
210246,-53.0852994555354,4,1,2,70,0,0
211183,-32.4279379157428,4,1,2,70,0,0
211933,-53.0852994555354,4,1,2,70,0,0
212871,-40.2615278733655,4,1,2,70,0,0
213246,-53.0852994555354,4,1,2,70,0,0
213996,-35.9226281854467,4,1,2,70,0,0
214933,-53.0852994555354,4,1,2,70,0,0
216996,-40.2615278733655,4,1,2,70,0,0
217371,-53.0852994555354,4,1,2,70,0,0
217933,-45.7925636007828,4,1,2,70,0,0
218308,-53.0852994555354,4,1,2,70,0,0
218871,-34.0163743778201,4,1,2,70,0,0
219621,-53.0852994555354,4,1,2,70,0,0
219996,-40.2615278733655,4,1,2,70,0,0
220746,-45.7925636007828,4,1,2,70,0,0
221871,-53.0852994555354,4,1,2,70,0,0
222621,-40.2615278733655,4,1,2,70,0,0
223183,-53.0852994555354,4,1,2,70,0,0
223371,-45.7925636007828,4,1,2,70,0,0
223746,-53.0852994555354,4,1,2,70,0,0
225621,-53.0852994555354,4,1,2,70,0,0
225996,-53.0852994555354,4,1,2,70,0,0
228996,-45.7925636007828,4,1,2,70,0,0
231621,-53.0852994555354,4,1,2,70,0,0
231996,-45.7925636007828,4,1,2,60,0,0
232371,-53.0852994555354,4,1,2,60,0,0
233496,-45.7925636007828,4,1,2,60,0,0
234058,-53.0852994555354,4,1,2,60,0,0
235371,-53.0852994555354,4,1,2,60,0,0
235746,-53.0852994555354,4,1,2,60,0,0
237621,-40.2615278733655,4,1,2,70,0,0
237808,-40.2615278733655,4,1,1,70,0,0
237902,-40.2615278733655,4,1,2,70,0,0
237996,-53.0852994555354,4,1,2,60,0,0
239496,-45.7925636007828,4,1,2,60,0,0
239871,-53.0852994555354,4,1,2,60,0,0
240996,-40.2615278733655,4,1,2,60,0,0
241371,-53.0852994555354,4,1,2,60,0,0
242871,-34.5810082285066,4,1,2,65,0,0
243621,-53.0852994555354,4,1,2,65,0,0
243996,-53.0852994555354,4,1,2,65,0,0
244371,-53.0852994555354,4,1,2,65,0,0
246621,-45.7925636007828,4,1,2,65,0,0
247183,-53.0852994555354,4,1,2,65,0,0
248496,-34.4380997233178,4,1,2,65,0,0
248871,-53.0852994555354,4,1,2,65,0,0
250371,-40.2615278733655,4,1,2,65,0,0
250746,-53.0852994555354,4,1,2,65,0,0
255339,-53.0852994555354,4,1,1,65,0,0
255527,-53.0852994555354,4,1,2,65,0,0
255996,-53.0852994555354,4,2,1,45,0,0
258808,-53.0852994555354,4,2,1,50,0,0
260871,-53.0852994555354,4,2,2,55,0,0
261808,-53.0852994555354,4,1,1,60,0,0
266308,-53.0852994555354,4,1,2,60,0,0

[Colours]
Combo1 : 161,155,160
Combo2 : 48,52,65
Combo3 : 94,69,86
Combo4 : 221,210,203
Combo5 : 106,90,72

[HitObjects]
122,325,3996,6,0,B|157:220|157:220|196:117|196:117|162:35|162:35|122:160|122:160,2,220.4,0|2|0,1:0|1:0|0:0,0:0:0:0:
314,322,4558,2,0,B|370:245|370:245|382:151|382:151|373:56|373:56|315:195|315:195,1,435.900016628266
236,286,4933,2,0,B|289:365|289:365|321:275|321:275|328:180|328:180|240:58|240:58,1,435.900016628266,2|0,0:1|0:0,0:0:0:0:
161,262,5308,2,0,B|218:338|218:338|244:247|244:247|219:155|219:155|135:30|135:30,1,435.900016628266,2|0,1:0|0:0,0:0:0:0:
214,244,5683,2,0,B|149:313|149:313|135:219|135:219|162:128|162:128|235:260|235:260,1,435.900016628266
315,233,6058,2,0,B|259:310|259:310|258:215|258:215|263:120|263:120|336:252|336:252,1,435.900016628266,2|0,0:1|0:0,0:0:0:0:
264,87,6433,2,0,L|304:189|304:189|381:268|381:268|317:330|317:330|264:210|264:210,2,220.4,2|2|0,0:1|1:0|1:0,0:0:0:0:
390,325,6996,6,0,B|356:220|356:220|316:117|316:117|367:44|367:44|390:173|390:173,2,220.4,0|2|0,1:0|1:0|0:0,0:0:0:0:
198,322,7558,2,0,B|160:235|160:235|102:160|102:160|126:68|126:68|197:201|197:201,1,435.900016628266,2|0,0:1|0:0,0:0:0:0:
276,286,7933,2,0,B|218:361|218:361|205:267|205:267|201:172|201:172|272:39|272:39,1,435.900016628266,2|0,0:1|0:0,0:0:0:0:
351,262,8308,2,0,B|301:343|301:343|265:255|265:255|310:171|310:171|377:36|377:36,1,435.900016628266,2|0,1:0|0:0,0:0:0:0:
298,244,8683,2,0,B|367:309|367:309|388:216|388:216|345:131|345:131|277:266|277:266,1,435.900016628266,2|0,0:1|0:0,0:0:0:0:
197,233,9058,2,0,B|231:322|231:322|272:236|272:236|263:141|263:141|176:17|176:17,1,435.900016628266,2|0,1:0|0:0,0:0:0:0:
104,79,9433,2,0,L|162:172|162:172|221:265|221:265|155:324|155:324|104:203|104:203,2,220.4,2|2|2,0:1|1:0|0:1,0:0:0:0:
423,194,9996,6,0,B|352:340|352:340|247:216|247:216|323:109|323:109|423:275|423:275,2,325.700003106117,10|10|10,1:0|1:0|1:0,0:0:0:0:
141,349,10558,2,0,B|127:259|127:259|122:168|122:168|121:77|121:77|121:168|121:168|118:259|118:259|125:350|125:350|149:262|149:262|135:129|135:129,1,771.4,10|0,1:0|0:0,0:0:0:0:
214,90,11308,2,0,B|228:184|228:184|233:279|233:279|198:367|198:367|96:256|96:256,1,435.900016628266,2|0,1:0|0:0,0:0:0:0:
176,118,11683,2,0,B|139:206|139:206|175:294|175:294|190:200|190:200|294:90|294:90,1,435.900016628266,2|0,0:1|0:0,0:0:0:0:
214,113,12058,2,0,B|192:205|192:205|215:297|215:297|243:206|243:206|332:84|332:84,1,435.900016628266,2|0,0:1|0:0,0:0:0:0:
384,276,12433,2,0,L|336:375|336:375|269:287|269:287|316:211|316:211|384:99|384:99,2,220.4,2|2|0,0:1|1:0|3:0,0:0:0:0:
89,318,12996,6,0,B|198:197|198:197|282:58|282:58|215:171|215:171|89:319|89:319,2,325.700003106117,10|8|8,1:0|0:0|1:0,0:0:0:0:
381,324,13558,2,0,B|395:253|395:253|420:185|420:185|412:113|412:113|342:23|342:23,1,330.6,10|0,1:0|0:0,0:0:0:0:
116,260,13933,2,0,B|98:330|98:330|99:258|99:258|96:186|96:186|155:88|155:88,1,330.6,10|0,1:0|0:0,0:0:0:0:
396,237,14308,2,0,B|426:327|426:327|402:235|402:235|398:140|398:140|294:30|294:30,1,435.900016628266,10|0,1:0|0:0,0:0:0:0:
97,242,14683,2,0,B|65:331|65:331|57:236|57:236|103:153|103:153|200:38|200:38,1,435.900016628266,10|0,1:0|0:0,0:0:0:0:
398,88,15058,1,10,1:0:0:0:
118,61,15246,1,8,1:0:0:0:
45,61,15339,1,8,1:0:0:0:
118,61,15433,1,0,3:0:0:0:
191,61,15527,1,0,3:0:0:0:
118,61,15621,1,10,1:0:0:0:
45,61,15714,1,0,0:0:0:0:
378,112,15808,6,0,B|407:254|407:254|406:109|406:109|352:244|352:244|263:359|263:359|207:225|207:225|129:102|129:102|109:246|109:246|121:101|121:101|165:240|165:240|250:358|250:358|349:251|349:251|415:121|415:121|426:266|426:266|399:123|399:123|345:258|345:258|270:382|270:382|180:268|180:268|133:131|133:131|99:272|99:272|92:127|92:127|139:265|139:265|232:377|232:377|310:254|310:254|387:131|387:131|407:275|407:275|443:134|443:134|372:7|372:7|325:144|325:144|213:237|213:237|135:359|135:359|112:216|112:216|106:71|106:71|153:209|153:209|217:339|217:339|324:241|324:241|379:106|379:106|421:245|421:245|440:101|440:101|387:236|387:236|318:364|318:364|236:244|236:244|150:127|150:127|107:266|107:266|76:124|76:124|89:269|89:269|175:386|175:386|257:266|257:266|341:147|341:147|420:25|420:25|437:169|437:169|406:311|406:311|359:174|359:174|280:52|280:52|206:177|206:177|115:291|115:291|99:147|99:147|77:47|77:47|120:140|120:140|153:236|153:236|190:331|190:331|264:261|264:261|298:165|298:165|380:104|380:104|425:255|425:255,1,9008.60034365083,6|8,0:0|0:0,0:0:0:0:
249,134,21714,1,2,0:0:0:0:
101,113,21808,6,0,B|62:253|62:253|81:109|81:109|125:247|125:247|207:367|207:367|294:251|294:251|356:120|356:120|383:263|383:263|358:120|358:120|302:254|302:254|236:383|236:383|150:266|150:266|87:135|87:135|49:275|49:275|63:130|63:130|145:10|145:10|209:140|209:140|284:264|284:264|366:384|366:384|380:239|380:239|392:94|392:94|342:231|342:231|266:355|266:355|148:270|148:270|92:136|92:136|36:2|36:2|68:144|68:144|101:285|101:285|166:155|166:155|247:34|247:34|345:141|345:141|388:280|388:280|373:136|373:136|323:273|323:273|269:138|269:138|163:39|163:39|79:158|79:158|56:301|56:301|52:156|52:156|78:13|78:13|161:132|161:132|240:254|240:254|329:368|329:368|378:231|378:231|405:88|405:88|377:231|377:231|287:345|287:345|226:213|226:213|138:97|138:97|57:218|57:218|57:363|57:363|39:219|39:219|105:90|105:90|191:207|191:207|266:331|266:331|347:210|347:210|380:69|380:69|398:169|398:169|386:270|386:270|342:362|342:362|302:268|302:268|229:197|229:197|160:122|160:122|109:34|109:34|54:182|54:182,1,9008.60034365083,4|8,0:0|0:0,0:0:0:0:
229,135,27714,1,8,0:0:0:0:
404,135,27808,1,4,0:0:0:0:
195,315,28371,6,0,B|159:233|159:233|139:103|139:103,1,220.4,8|0,0:1|0:0,0:0:0:0:
215,225,28652,1,0,0:0:0:0:
291,225,28746,1,2,0:0:0:0:
212,220,28933,2,0,L|149:283|149:283|95:163|95:163,1,220.4,4|8,0:0|0:1,0:0:0:0:
306,220,29308,5,8,0:0:0:0:
229,220,29402,1,8,0:0:0:0:
306,220,29496,1,0,0:0:0:0:
154,222,29683,1,0,0:0:0:0:
77,222,29777,1,0,0:0:0:0:
154,222,29871,1,8,0:1:0:0:
306,220,30058,2,0,L|250:315|250:315|189:223|189:223|222:140|222:140|306:39|306:39,2,220.4,2|0|2,0:0|0:0|0:0,0:0:0:0:
154,222,30621,2,0,L|119:304|119:304|37:201|37:201,1,220.4,8|4,0:1|0:0,0:0:0:0:
248,226,30996,5,2,0:0:0:0:
323,226,31089,1,0,0:0:0:0:
399,226,31183,1,0,0:0:0:0:
246,226,31371,2,0,L|199:301|199:301|129:190|129:190,1,220.4,8|2,0:1|0:0,0:0:0:0:
339,311,31746,2,0,L|382:209|382:209|403:101|403:101|374:17|374:17|339:144|339:144,2,220.4,4|8|8,0:0|0:0|0:1,0:0:0:0:
127,311,32308,5,8,0:0:0:0:
204,311,32402,1,8,0:0:0:0:
127,311,32496,1,0,0:0:0:0:
278,311,32683,1,2,0:0:0:0:
355,311,32777,1,0,0:0:0:0:
278,311,32871,1,8,0:1:0:0:
127,311,33058,2,0,L|103:225|103:225|92:94|92:94,1,220.4,4|0,0:0|0:0,0:0:0:0:
167,199,33339,1,8,0:1:0:0:
243,199,33433,1,4,0:0:0:0:
90,199,33621,1,8,0:1:0:0:
167,199,33714,1,8,0:1:0:0:
384,320,33808,6,0,L|387:220|387:220|403:122|403:122|380:25|380:25|384:167|384:167,1,440.8,4|4,0:2|0:0,0:0:0:0:
231,86,34371,1,8,0:1:0:0:
158,105,34464,1,0,0:0:0:0:
94,147,34558,1,0,0:0:0:0:
246,147,34746,1,2,0:0:0:0:
319,166,34839,1,0,0:0:0:0:
383,208,34933,2,0,L|331:280|331:280|266:166|266:166,1,220.4,4|8,0:0|0:1,0:0:0:0:
113,204,35308,1,8,0:0:0:0:
190,204,35402,1,8,0:0:0:0:
113,204,35496,1,0,0:0:0:0:
323,204,35683,6,0,B|265:298|265:298|214:200|214:200|272:132|272:132|323:11|323:11,2,220.4,2|8|8,0:0|0:1|0:0,0:0:0:0:
475,204,36246,2,0,L|446:288|446:288|358:386|358:386,1,220.4,2|0,0:0|0:0,0:0:0:0:
205,204,36621,2,0,L|168:285|168:285|88:181|88:181,1,220.4,8|4,0:1|0:0,0:0:0:0:
351,313,36996,6,0,B|380:229|380:229|401:99|401:99,1,220.4,2|0,0:0|0:0,0:0:0:0:
324,220,37277,1,0,0:0:0:0:
247,220,37371,1,8,0:1:0:0:
398,220,37558,1,2,0:0:0:0:
245,220,37746,2,0,L|193:317|193:317|128:228|128:228|159:145|159:145|245:46|245:46,2,220.4,0|4|8,0:0|0:0|0:1,0:0:0:0:
397,220,38308,1,8,0:0:0:0:
320,220,38402,1,8,0:0:0:0:
243,220,38496,1,0,0:0:0:0:
397,220,38683,1,0,0:0:0:0:
209,220,38871,6,0,L|148:285|148:285|92:166|92:166,1,220.4,8|4,0:1|0:0,0:0:0:0:
279,220,39246,1,0,0:0:0:0:
355,219,39339,1,8,0:1:0:0:
279,220,39433,1,4,0:0:0:0:
431,218,39621,1,8,0:1:0:0:
355,219,39715,1,8,0:1:0:0:
151,322,39808,6,0,L|157:223|157:223|169:124|169:124|169:24|169:24|152:165|152:165,1,440.8,4|0,0:2|0:0,0:0:0:0:
317,315,40371,2,0,B|340:229|340:229|373:102|373:102,1,220.4,8|8,0:1|0:0,0:0:0:0:
297,225,40652,1,8,0:0:0:0:
221,225,40746,1,2,0:0:0:0:
300,220,40933,2,0,L|346:296|346:296|417:185|417:185,1,220.4,4|8,0:0|0:1,0:0:0:0:
206,220,41308,5,8,0:0:0:0:
283,220,41402,1,8,0:0:0:0:
206,220,41496,1,0,0:0:0:0:
358,222,41683,1,2,0:0:0:0:
435,222,41777,1,0,0:0:0:0:
358,222,41871,1,8,0:1:0:0:
206,220,42058,2,0,L|260:316|260:316|323:225|323:225|278:148|278:148|206:38|206:38,2,220.4,4|2|0,0:0|0:0|0:0,0:0:0:0:
358,222,42621,2,0,L|417:288|417:288|475:170|475:170,1,220.4,8|4,0:1|0:0,0:0:0:0:
264,226,42996,5,0,0:0:0:0:
189,226,43089,1,0,0:0:0:0:
113,226,43183,1,2,0:0:0:0:
266,226,43371,2,0,L|313:301|313:301|383:190|383:190,1,220.4,8|2,0:1|0:0,0:0:0:0:
173,311,43746,2,0,L|131:209|131:209|109:101|109:101|152:23|152:23|173:153|173:153,2,220.4,4|0|8,0:0|0:0|0:1,0:0:0:0:
385,311,44308,5,8,0:0:0:0:
308,311,44402,1,8,0:0:0:0:
385,311,44496,1,0,0:0:0:0:
234,311,44683,5,4,0:0:0:0:
157,311,44777,1,0,0:0:0:0:
234,311,44871,1,8,0:1:0:0:
385,311,45058,2,0,L|402:224|402:224|420:94|420:94,1,220.4,2|0,0:0|0:0,0:0:0:0:
345,199,45339,1,8,0:1:0:0:
269,199,45433,1,4,0:0:0:0:
422,199,45621,1,8,0:1:0:0:
345,199,45714,1,8,0:1:0:0:
128,320,45808,6,0,L|144:222|144:222|117:126|117:126|146:31|146:31|128:172|128:172,1,440.8,4|2,0:2|0:0,0:0:0:0:
281,86,46371,1,8,0:1:0:0:
354,105,46464,1,0,0:0:0:0:
418,147,46558,1,8,0:0:0:0:
266,147,46746,1,2,0:0:0:0:
193,166,46839,1,0,0:0:0:0:
129,208,46933,2,0,L|159:292|159:292|246:194|246:194,1,220.4,4|8,0:0|0:1,0:0:0:0:
399,204,47308,1,8,0:0:0:0:
322,204,47402,1,8,0:0:0:0:
399,204,47496,1,0,0:0:0:0:
189,204,47683,6,0,B|238:303|238:303|298:210|298:210|257:131|257:131|189:19|189:19,2,220.4,2|8|2,0:0|0:1|0:0,0:0:0:0:
37,204,48246,2,0,L|84:279|84:279|154:168|154:168,1,220.4,0|8,0:0|0:0,0:0:0:0:
307,204,48621,2,0,L|342:286|342:286|424:183|424:183,1,220.4,8|8,0:1|0:0,0:0:0:0:
161,313,48996,6,0,B|121:234|121:234|111:103|111:103,1,220.4,2|4,0:0|0:0,0:0:0:0:
188,220,49277,1,0,0:0:0:0:
265,220,49371,1,8,0:1:0:0:
114,220,49558,1,2,0:0:0:0:
265,220,49746,2,0,L|322:314|322:314|382:222|382:222|347:140|347:140|265:37|265:37,2,220.4,0|4|8,0:0|0:0|0:1,0:0:0:0:
412,304,50308,2,0,B|443:209|443:209|467:112|467:112|445:15|445:15|379:141|379:141,1,440.8,2|4,0:0|0:0,0:0:0:0:
136,290,50871,6,0,B|237:186|237:186|260:43|260:43|221:183|221:183|134:300|134:300|227:208|227:208|274:85|274:85|233:210|233:210|136:370|136:370,2,581.200022171022,8|0|8,3:1|3:0|0:0,0:0:0:0:
75,296,51808,2,0,L|133:203|133:203,1,110.2,8|8,0:0|0:0,0:0:0:0:
316,239,51996,6,0,B|374:315|374:315|425:235|425:235|458:146|458:146|433:295|433:295,1,435.900016628266,4|0,0:2|0:0,0:0:0:0:
176,77,52371,2,0,B|267:182|267:182|312:313|312:313|255:187|255:187|165:82|165:82|117:212|117:212|168:341|168:341|237:221|237:221|366:76|366:76,1,1162.40004434204,12|0,0:2|0:0,0:0:0:0:
190,295,53308,2,0,L|200:383|200:383|190:252|190:252,1,220.4,10|0,0:0|0:0,0:0:0:0:
337,173,53683,1,0,3:0:0:0:
41,219,53871,6,0,B|38:364|38:364|56:220|56:220|165:124|165:124|233:252|233:252|140:345|140:345|67:236|67:236|56:105|56:105|41:292|41:292,2,581.200022171022,2|2|8,3:0|0:0|0:0,0:0:0:0:
150,70,54808,1,2,1:2:0:0:
407,320,54996,6,0,B|467:246|467:246|465:151|465:151|465:56|465:56|427:202|427:202,1,435.900016628266,4|0,0:2|0:0,0:0:0:0:
273,366,55371,2,0,B|175:268|175:268|140:134|140:134|190:5|190:5|261:124|261:124|326:246|326:246|382:372|382:372|322:247|322:247|207:91|207:91,1,1162.40004434204,8|0,0:0|0:0,0:0:0:0:
323,84,56308,2,0,L|282:163|282:163|206:270|206:270,1,220.4,14|0,0:0|0:0,0:0:0:0:
363,153,56683,1,0,3:0:0:0:
89,200,56871,6,0,B|153:330|153:330|232:208|232:208|258:65|258:65|194:195|194:195|233:320|233:320|264:192|264:192|194:81|194:81|89:236|89:236,2,581.200022171022,0|2|8,3:0|0:0|0:0,0:0:0:0:
24,237,57714,1,8,0:0:0:0:
89,200,57808,1,0,3:0:0:0:
381,363,57996,6,0,B|453:237|453:237|421:95|421:95|342:217|342:217|252:331|252:331|158:221|158:221|131:78|131:78|176:216|176:216|254:338|254:338|239:222|239:222|146:76|146:76,1,1453.00005542755,4|0,0:2|3:0,0:0:0:0:
16,336,59121,2,0,L|45:252|45:252|124:147|124:147,1,220.4,2|8,0:0|0:0,0:0:0:0:
297,328,59496,6,0,B|378:225|378:225|410:98|410:98|378:225|378:225|260:370|260:370,1,581.200022171022,0|4,0:0|0:0,0:0:0:0:
102,258,60058,2,0,L|114:127|114:127|105:258|105:258|117:127|117:127|113:314|113:314,1,581.200022171022,8|0,0:0|3:0,0:0:0:0:
269,21,60621,1,8,0:0:0:0:
115,112,60808,1,2,0:2:0:0:
416,93,60996,6,0,B|315:197|315:197|291:340|291:340|326:199|326:199|425:93|425:93|344:196|344:196|314:324|314:324|331:194|331:194|416:27|416:27,2,581.200022171022,4|12|8,0:2|0:0|0:0,0:0:0:0:
293,223,61933,1,4,3:1:0:0:
135,219,62121,1,8,0:0:0:0:
341,222,62308,2,0,B|380:314|380:314|429:227|429:227|470:136|470:136|416:5|416:5,1,440.8,4|0,0:0|0:0,0:0:0:0:
361,233,62777,1,8,0:0:0:0:
128,290,62871,6,0,B|96:148|96:148|135:8|135:8|209:133|209:133|294:251|294:251|239:370|239:370|153:271|153:271|104:149|104:149|128:335|128:335,2,581.200022171022,8|0|8,3:0|0:0|0:0,0:0:0:0:
215,290,63714,1,8,0:0:0:0:
302,290,63808,1,8,0:0:0:0:
389,290,63902,1,8,0:0:0:0:
184,369,63996,6,0,B|104:283|104:283|80:167|80:167|78:49|78:49|193:197|193:197,1,541.2,4|0,0:2|0:0,0:0:0:0:
372,347,64371,2,0,B|449:232|449:232|462:94|462:94|404:220|404:220|341:343|341:343|341:205|341:205|418:90|418:90|482:213|482:213|372:373|372:373,1,1162.40004434204,10|0,0:0|0:0,0:0:0:0:
264,187,65308,2,0,L|234:271|234:271|147:370|147:370,1,220.4,12|2,0:0|0:0,0:0:0:0:
115,107,65683,1,0,3:0:0:0:
380,271,65871,6,0,B|283:380|283:380|210:255|210:255|193:111|193:111|183:256|183:256|172:125|172:125|219:2|219:2|289:113|289:113|380:277|380:277,2,581.200022171022,2|0|8,3:0|2:0|0:0,0:0:0:0:
500,207,66808,1,2,0:2:0:0:
183,21,66996,6,0,B|107:112|107:112|61:220|61:220|68:338|68:338|193:198|193:198,1,541.2,4|0,0:2|0:0,0:0:0:0:
362,124,67371,2,0,B|398:258|398:258|430:124|430:124|405:260|405:260|341:383|341:383|278:260|278:260|292:122|292:122|254:255|254:255|130:105|130:105,1,1162.40004434204,8|0,0:0|0:0,0:0:0:0:
309,269,68308,2,0,L|332:355|332:355|318:224|318:224,1,220.4,14|0,0:0|0:0,0:0:0:0:
155,84,68683,1,0,0:0:0:0:
341,21,68871,6,0,B|422:142|422:142|466:281|466:281|411:147|411:147|338:22|338:22|430:116|430:116|465:242|465:242|449:372|449:372|341:219|341:219,2,581.200022171022,2|2|8,0:0|0:0|0:0,0:0:0:0:
281,58,69714,1,8,0:0:0:0:
341,21,69808,1,8,3:0:0:0:
33,368,69996,6,0,B|119:251|119:251|186:122|186:122|256:249|256:249|297:110|297:110|276:254|276:254|178:361|178:361|111:232|111:232|106:87|106:87|160:191|160:191|256:335|256:335,1,1453.00005542755,4|4,0:2|0:0,0:0:0:0:
423,266,71121,2,0,L|428:355|428:355|461:228|461:228,1,220.4,0|8,0:0|0:0,0:0:0:0:
320,377,71496,2,0,B|251:265|251:265|155:175|155:175|139:45|139:45|106:229|106:229,1,581.200022171022,2|0,0:0|3:0,0:0:0:0:
267,215,72058,2,0,B|191:322|191:322|127:207|127:207|151:78|151:78|258:232|258:232,1,581.200022171022,8|0,0:0|3:0,0:0:0:0:
427,117,72621,1,8,0:0:0:0:
496,252,72808,1,2,0:2:0:0:
206,374,72996,6,0,B|223:230|223:230|261:90|261:90|346:208|346:208|433:325|433:325|374:207|374:207|278:117|278:117|220:235|220:235|206:48|206:48,2,581.200022171022,4|12|8,0:2|0:0|0:0,0:0:0:0:
367,322,73933,2,0,L|309:255|309:255|262:132|262:132,1,220.4,4|0,0:0|2:0,0:0:0:0:
19,183,74308,1,12,0:0:0:0:
179,119,74496,6,0,L|188:208|188:208|186:339|186:339,1,220.4,0|0,3:0|3:0,0:0:0:0:
375,203,74871,2,0,B|299:327|299:327|200:220|200:220|165:79|165:79|128:220|128:220|156:348|156:348|186:220|186:220|257:110|257:110|375:255|375:255,2,581.200022171022,8|0|8,0:0|2:0|0:3,0:0:0:0:
429,185,75714,1,8,0:3:0:0:
468,143,75808,1,8,0:0:0:0:
431,98,75902,1,0,3:0:0:0:
228,25,75996,6,0,B|140:116|140:116|99:236|99:236|115:362|115:362|133:237|133:237|224:149|224:149|299:47|299:47|336:168|336:168|288:358|288:358,1,1082.4,4|0,0:2|3:0,0:0:0:0:
170,36,76746,2,0,B|79:149|79:149|70:294|70:294|132:162|132:162|224:50|224:50|135:146|135:146|103:273|103:273|79:144|79:144|170:308|170:308,2,581.200022171022,14|2|0,0:0|0:0|0:0,0:0:0:0:
268,83,77683,1,0,3:0:0:0:
97,87,77871,2,0,L|83:204|83:204|90:377|90:377,1,290.600011085511,0|8,3:0|0:0,0:0:0:0:
248,92,78246,2,0,L|217:175|217:175|131:274|131:274,1,220.4,0|0,0:0|3:0,0:0:0:0:
407,351,78621,6,0,B|417:204|417:204|399:58|399:58|340:193|340:193|205:353|205:353,1,651.400006212234,12|4,0:0|0:2,0:0:0:0:
87,163,79183,1,0,0:0:0:0:
276,35,79371,2,0,B|295:179|295:179|274:323|274:323|174:217|174:217|116:84|116:84|178:200|178:200|269:295|269:295|321:175|321:175|276:357|276:357,2,581.200022171022,8|12|2,0:0|0:0|0:0,0:0:0:0:
160,46,80308,1,8,0:0:0:0:
330,161,80496,6,0,L|393:224|393:224|447:344|447:344,1,220.4,4|0,0:0|3:0,0:0:0:0:
270,308,80871,2,0,B|197:379|197:379|186:278|186:278|125:196|125:196|161:101|161:101|167:203|167:203|214:293|214:293|280:371|280:371|360:235|360:235,1,871.800033256532,4|0,0:0|3:0,0:0:0:0:
194,98,81621,1,8,0:0:0:0:
373,97,81808,2,0,L|431:190|431:190,1,110.2,0|8,3:0|0:0,0:0:0:0:
137,187,81996,6,0,B|126:258|126:258|90:321|90:321|135:377|135:377|170:268|170:268,1,330.6,12|0,0:2|0:0,0:0:0:0:
266,333,82371,2,0,B|327:201|327:201|403:77|403:77|399:222|399:222|347:358|347:358|274:233|274:233|200:108|200:108|130:235|130:235|80:371|80:371|64:255|64:255|117:90|117:90,1,1453.00005542755,8|12,0:0|0:2,0:0:0:0:
195,278,83402,1,0,0:0:0:0:
139,312,83496,6,0,B|103:208|103:208|91:98|91:98|94:208|94:208|96:318|96:318|151:223|151:223|204:126|204:126|256:29|256:29|319:119|319:119|340:216|340:216|374:310|374:310|369:210|369:210|327:75|327:75,1,1322.4,2|8,0:0|0:0,0:0:0:0:
374,296,84714,1,8,0:0:0:0:
319,295,84808,1,8,0:0:0:0:
260,295,84902,1,8,0:0:0:0:
324,295,84996,6,0,B|217:172|217:172|149:24|149:24|116:184|116:184|203:321|203:321|288:182|288:182|350:32|350:32|403:186|403:186|375:346|375:346|313:204|313:204|207:91|207:91|116:216|116:216|119:371|119:371|99:217|99:217|138:67|138:67|220:199|220:199|354:370|354:370,1,2605.6,4|2,0:2|0:3,0:0:0:0:
166,66,86683,2,0,L|129:170|129:170|112:279|112:279|128:367|128:367|166:241|166:241,2,220.4,0|8|4,3:0|0:0|0:2,0:0:0:0:
282,69,87246,2,0,L|239:147|239:147|165:256|165:256,1,220.4,0|8,0:0|3:0,0:0:0:0:
321,170,87621,1,8,0:3:0:0:
383,144,87714,1,8,0:3:0:0:
30,190,87808,6,0,L|41:278|41:278|38:147|38:147,1,220.4,4|0,0:2|0:1,0:0:0:0:
143,181,88183,2,0,L|131:269|131:269|148:139|148:139,1,220.4,0|0,0:1|0:0,0:0:0:0:
322,67,88558,2,0,B|367:156|367:156|373:255|373:255|365:354|365:354|300:228|300:228,1,440.8,0|0,0:1|0:1,0:0:0:0:
198,184,89121,1,0,0:0:0:0:
334,223,89308,6,0,B|287:311|287:311|216:381|216:381|196:283|196:283|180:142|180:142,1,440.8,0|0,0:1|0:1,0:0:0:0:
179,90,89871,1,0,0:0:0:0:
344,297,90058,2,0,B|406:375|406:375|413:276|413:276|406:177|406:177|364:42|364:42,1,440.8
272,172,90621,1,0,0:0:0:0:
95,77,90808,6,0,L|107:165|107:165|100:296|100:296,1,220.4,2|2,0:3|0:0,0:0:0:0:
220,179,91183,1,0,0:0:0:0:
182,220,91277,1,0,0:0:0:0:
137,242,91371,1,0,0:0:0:0:
314,245,91558,2,0,B|354:336|354:336|426:267|426:267|428:167|428:167|452:27|452:27,1,440.8
451,102,92121,1,0,0:0:0:0:
250,101,92308,6,0,L|191:167|191:167|133:285|133:285,1,220.4,2|2,0:3|0:0,0:0:0:0:
288,104,92683,1,0,0:0:0:0:
293,138,92777,1,0,0:0:0:0:
295,171,92871,1,0,0:0:0:0:
97,176,93058,2,0,B|108:275|108:275|112:375|112:375|151:283|151:283|241:173|241:173,1,440.8
356,290,93621,1,0,0:0:0:0:
173,366,93808,5,0,0:0:0:0:
61,318,93996,1,0,3:0:0:0:
146,274,94183,1,0,0:0:0:0:
181,244,94277,1,0,0:0:0:0:
161,198,94371,1,0,0:0:0:0:
329,219,94558,2,0,B|352:316|352:316|369:218|369:218|350:120|350:120|278:242|278:242,1,440.8,2|0,0:1|0:0,0:0:0:0:
163,103,95121,1,0,0:0:0:0:
368,38,95308,6,0,L|382:126|382:126|362:256|362:256,1,220.4,2|2,1:0|0:3,0:0:0:0:
233,193,95683,1,0,0:0:0:0:
235,258,95777,1,0,0:0:0:0:
284,288,95871,1,0,0:0:0:0:
87,363,96058,2,0,B|89:263|89:263|123:169|123:169|177:85|177:85|238:213|238:213,1,440.8,2|0,0:1|0:0,0:0:0:0:
356,238,96621,1,0,0:0:0:0:
163,300,96808,6,0,L|217:371|217:371|280:256|280:256,1,220.4,2|2,1:0|3:0,0:0:0:0:
409,286,97183,1,0,0:0:0:0:
356,244,97277,1,0,0:0:0:0:
291,220,97371,1,0,0:0:0:0:
150,222,97558,2,0,B|91:303|91:303|48:213|48:213|67:115|67:115|115:248|115:248,1,440.8,2|0,3:1|0:0,0:0:0:0:
218,88,98121,1,0,0:0:0:0:
38,114,98308,6,0,L|21:201|21:201|32:332|32:332,1,220.4,2|2,0:1|0:3,0:0:0:0:
109,304,98683,1,0,0:0:0:0:
144,347,98777,1,0,0:0:0:0:
201,352,98871,1,0,0:0:0:0:
369,278,99058,2,0,L|332:359|332:359|253:254|253:254,1,220.4,0|2,1:0|0:1,0:0:0:0:
189,261,99339,1,0,0:0:0:0:
256,192,99480,12,0,99503,0:0:0:0:
256,192,99621,12,0,99644,0:0:0:0:
256,192,99714,12,0,99737,0:0:0:0:
256,192,99808,12,0,99831,0:0:0:0:
181,328,100371,6,0,L|237:259|237:259|294:141|294:141,1,220.4,8|0,0:1|0:0,0:0:0:0:
312,240,100652,1,0,0:0:0:0:
282,189,100746,1,2,0:0:0:0:
174,197,100933,2,0,L|117:265|117:265|57:382|57:382,1,220.4,8|8,0:0|0:1,0:0:0:0:
246,241,101308,5,8,0:0:0:0:
308,186,101401,1,8,0:0:0:0:
243,129,101495,1,0,0:0:0:0:
360,241,101683,1,2,0:0:0:0:
422,186,101776,1,0,0:0:0:0:
357,129,101870,1,8,0:1:0:0:
232,137,102058,1,2,0:0:0:0:
357,129,102246,2,0,L|387:213|387:213|474:311|474:311,1,220.4,0|4,0:0|0:0,0:0:0:0:
286,127,102621,2,0,L|231:197|231:197|169:313|169:313,1,220.4,8|8,0:1|0:0,0:0:0:0:
356,128,102996,6,0,L|348:217|348:217|382:344|382:344,1,220.4,2|4,0:0|0:0,0:0:0:0:
335,276,103277,1,0,0:0:0:0:
272,292,103371,1,8,0:1:0:0:
394,294,103558,1,0,0:0:0:0:
206,294,103746,2,0,L|173:377|173:377|89:276|89:276,1,220.4,2|4,0:0|0:0,0:0:0:0:
38,209,104121,1,8,0:1:0:0:
224,209,104308,5,8,0:0:0:0:
282,202,104401,1,8,0:0:0:0:
340,196,104496,2,0,L|346:285|346:285|346:154|346:154,1,220.4,0|4,0:0|0:0,0:0:0:0:
157,206,104871,2,0,L|141:294|141:294|148:163|148:163,1,220.4,8|0,0:1|0:0,0:0:0:0:
335,89,105246,1,0,0:0:0:0:
366,141,105339,1,8,0:1:0:0:
335,89,105433,1,4,0:0:0:0:
416,134,105621,1,8,0:1:0:0:
386,82,105715,1,8,0:1:0:0:
195,295,105808,6,0,B|151:384|151:384|76:319|76:319|54:222|54:222|57:80|57:80,1,440.8,4|2,0:2|0:0,0:0:0:0:
175,164,106371,2,0,L|210:246|210:246|292:349|292:349,1,220.4,8|8,0:1|0:0,0:0:0:0:
283,216,106652,1,8,0:0:0:0:
237,244,106746,1,2,0:0:0:0:
120,244,106933,2,0,L|95:329|95:329|89:198|89:198,1,220.4,4|8,0:0|0:1,0:0:0:0:
276,131,107308,5,8,0:0:0:0:
299,183,107401,1,8,0:0:0:0:
282,238,107495,1,0,0:0:0:0:
96,239,107683,1,2,0:0:0:0:
73,186,107776,1,0,0:0:0:0:
100,130,107870,1,8,0:1:0:0:
287,130,108058,2,0,L|248:233|248:233|170:311|170:311|236:370|236:370|287:249|287:249,2,220.4,2|4|0,0:0|0:0|0:0,0:0:0:0:
100,130,108621,2,0,L|100:219|100:219|81:349|81:349,1,220.4,8|8,0:1|0:0,0:0:0:0:
268,245,108996,6,0,L|325:313|325:313|385:196|385:196,1,220.4,2|4,0:0|0:0,0:0:0:0:
229,215,109371,2,0,L|180:289|180:289|112:176|112:176,1,220.4,8|2,0:1|0:0,0:0:0:0:
299,207,109746,2,0,B|332:301|332:301|385:385|385:385|394:286|394:286|369:146|369:146,1,440.8,4|8,0:0|0:1,0:0:0:0:
151,61,110308,1,8,0:0:0:0:
104,94,110401,1,8,0:0:0:0:
81,151,110495,1,2,0:0:0:0:
105,245,110683,1,4,0:0:0:0:
192,307,110871,1,8,0:1:0:0:
308,290,111058,1,4,0:0:0:0:
150,294,111246,5,0,0:0:0:0:
99,250,111339,1,8,0:1:0:0:
150,210,111433,1,4,0:0:0:0:
57,198,111621,1,8,0:1:0:0:
111,157,111714,1,8,0:1:0:0:
300,292,111808,6,0,B|354:376|354:376|373:278|373:278|409:185|409:185|412:43|412:43,1,440.8,4|6,0:2|0:0,0:0:0:0:
331,328,112371,6,0,L|269:264|269:264|218:143|218:143,1,220.4,8|8,0:1|0:0,0:0:0:0:
200,240,112652,1,8,0:0:0:0:
230,189,112746,1,2,0:0:0:0:
338,197,112933,2,0,L|371:280|371:280|455:381|455:381,1,220.4,8|8,0:0|0:1,0:0:0:0:
266,241,113308,5,4,0:0:0:0:
204,186,113401,1,0,0:0:0:0:
269,129,113495,1,0,0:0:0:0:
152,241,113683,1,2,0:0:0:0:
90,186,113776,1,0,0:0:0:0:
155,129,113870,1,8,0:1:0:0:
280,137,114058,1,2,0:0:0:0:
155,129,114246,2,0,L|90:190|90:190|38:311|38:311,1,220.4,0|4,0:0|0:0,0:0:0:0:
226,127,114621,2,0,L|273:202|273:202|343:313|343:313,1,220.4,8|8,0:1|0:0,0:0:0:0:
156,128,114996,6,0,L|161:217|161:217|130:345|130:345,1,220.4,2|4,0:0|0:0,0:0:0:0:
177,276,115277,1,0,0:0:0:0:
240,292,115371,1,8,0:1:0:0:
118,294,115558,1,2,0:0:0:0:
306,294,115746,2,0,L|348:372|348:372|423:264|423:264,1,220.4,4|0,0:0|0:0,0:0:0:0:
474,209,116121,1,8,0:1:0:0:
288,209,116308,5,8,0:0:0:0:
230,202,116401,1,8,0:0:0:0:
172,196,116496,2,0,L|173:285|173:285|166:154|166:154,1,220.4,0|4,0:0|0:0,0:0:0:0:
355,206,116871,2,0,L|360:295|360:295|364:164|364:164,1,220.4,8|2,0:1|0:0,0:0:0:0:
177,89,117246,1,0,0:0:0:0:
122,135,117339,1,8,0:1:0:0:
177,89,117433,1,4,0:0:0:0:
64,118,117621,1,8,0:1:0:0:
111,75,117715,1,8,0:1:0:0:
317,295,117808,6,0,B|363:383|363:383|422:303|422:303|450:207|450:207|455:65|455:65,1,440.8,4|4,0:2|0:0,0:0:0:0:
337,164,118371,2,0,L|285:236|285:236|220:350|220:350,1,220.4,8|8,0:1|0:0,0:0:0:0:
223,219,118652,1,8,0:0:0:0:
275,244,118746,1,2,0:0:0:0:
392,244,118933,2,0,L|386:333|386:333|423:207|423:207,1,220.4,4|8,0:0|0:1,0:0:0:0:
236,131,119308,5,8,0:0:0:0:
190,187,119401,1,8,0:0:0:0:
242,237,119495,1,0,0:0:0:0:
416,239,119683,1,2,0:0:0:0:
456,183,119776,1,0,0:0:0:0:
412,130,119870,1,8,0:1:0:0:
225,130,120058,2,0,L|166:223|166:223|108:317|108:317|155:242|155:242|225:131|225:131,2,220.4,4|0|2,0:0|0:0|0:0,0:0:0:0:
412,130,120621,2,0,L|412:219|412:219|431:349|431:349,1,220.4,10|8,0:1|0:0,0:0:0:0:
244,245,120996,6,0,L|212:328|212:328|127:227|127:227,1,220.4,2|4,0:0|0:0,0:0:0:0:
283,215,121371,2,0,L|337:286|337:286|400:171|400:171,1,220.4,8|2,0:1|0:0,0:0:0:0:
213,207,121746,2,0,B|165:294|165:294|168:194|168:194|191:97|191:97|244:229|244:229,1,440.8,2|10,1:0|1:0,0:0:0:0:
361,61,122308,1,0,0:0:0:0:
339,125,122401,1,2,3:0:0:0:
293,164,122496,2,0,L|227:224|227:224|176:345|176:345,1,220.4,0|4,0:0|0:0,0:0:0:0:
383,306,122871,6,0,B|373:179|373:179|324:61|324:61|266:175|266:175|187:276|187:276|255:369|255:369|306:265|306:265|351:158|351:158|383:319|383:319,2,511,8|0|10,1:0|0:0|1:0,0:0:0:0:
472,323,123808,2,0,L|414:229|414:229,1,110.2,10|10,1:0|1:0,0:0:0:0:
225,318,123996,6,0,B|200:386|200:386|165:323|165:323|139:256|139:256|110:145|110:145,1,330.6,4|0,0:2|0:0,0:0:0:0:
300,293,124371,2,0,B|376:178|376:178|430:51|430:51|458:187|458:187|411:317|411:317|345:195|345:195|263:83|263:83|181:194|181:194|77:358|77:358,1,1162.40004434204,8|2,0:0|0:0,0:0:0:0:
189,77,125308,1,12,0:0:0:0:
306,83,125496,1,0,0:0:0:0:
422,72,125683,1,0,3:0:0:0:
162,337,125871,6,0,B|134:212|134:212|163:88|163:88|213:206|213:206|294:305|294:305|226:212|226:212|166:114|166:114|132:4|132:4|162:166|162:166,2,511,4|2|8,3:0|0:0|0:0,0:0:0:0:
281,326,126808,1,2,0:2:0:0:
40,342,126996,2,0,B|15:250|15:250|14:155|14:155|45:65|45:65|138:184|138:184,1,435.900016628266,4|0,0:2|0:0,0:0:0:0:
326,286,127371,2,0,B|415:139|415:139|460:305|460:305|386:150|386:150|291:7|291:7|167:126|167:126|181:297|181:297|302:175|302:175|428:380|428:380,1,1443.2,8|0,0:0|2:0,0:0:0:0:
177,79,128308,2,0,L|198:165|198:165|182:295|182:295,1,220.4,14|0,0:0|0:0,0:0:0:0:
70,196,128683,1,0,3:0:0:0:
366,314,128871,6,0,L|372:225|372:225|383:94|383:94,1,220.4,0|8,0:0|0:0,0:0:0:0:
231,301,129246,2,0,L|217:213|217:213|214:82|214:82,1,220.4,0|0,0:0|3:0,0:0:0:0:
368,176,129621,1,8,0:0:0:0:
401,121,129714,1,8,0:0:0:0:
384,60,129808,1,0,3:0:0:0:
137,344,129996,6,0,B|84:216|84:216|90:78|90:78|152:202|152:202|219:323|219:323|308:217|308:217|341:83|341:83|277:205|277:205|172:368|172:368,1,1162.40004434204,4|10,0:2|0:0,0:0:0:0:
69,31,130933,1,0,0:0:0:0:
150,107,131121,2,0,L|189:187|189:187|267:293|267:293,1,220.4,0|8,0:0|0:0,0:0:0:0:
101,322,131496,2,0,B|52:235|52:235|31:138|31:138|57:42|57:42|132:162|132:162,1,440.8,0|4,0:0|3:1,0:0:0:0:
376,224,132058,6,0,B|419:348|419:348|393:219|393:219|356:93|356:93|241:241|241:241,1,581.200022171022,8|0,0:0|3:0,0:0:0:0:
334,145,132621,1,8,0:0:0:0:
403,162,132808,1,4,0:0:0:0:
215,196,132996,2,0,L|153:260|153:260|98:379|98:379,1,220.4,4|0,0:2|2:0,0:0:0:0:
354,291,133371,6,0,B|373:165|373:165|337:42|337:42|289:160|289:160|202:254|202:254|254:357|254:357|340:280|340:280|355:165|355:165|354:0|354:0,2,511,10|8|8,0:0|0:0|0:0,0:0:0:0:
110,298,134308,2,0,B|85:384|85:384|70:254|70:254,1,220.4,4|0,0:0|0:0,0:0:0:0:
348,182,134683,5,0,3:0:0:0:
421,181,134777,1,8,0:0:0:0:
348,182,134871,1,8,0:0:0:0:
277,188,134964,1,0,3:0:0:0:
348,182,135058,1,6,0:0:0:0:
178,197,135246,2,0,B|149:292|149:292|127:195|127:195|123:95|123:95|207:210|207:210,1,440.8,0|8,0:0|0:3,0:0:0:0:
133,50,135714,1,8,0:3:0:0:
55,61,135808,1,8,0:3:0:0:
301,338,135996,6,0,B|347:268|347:268|397:201|397:201|414:119|414:119|429:251|429:251,1,383.25,4|0,0:2|0:0,0:0:0:0:
206,314,136371,2,0,B|121:165|121:165|141:336|141:336|222:185|222:185|336:57|336:57|389:220|389:220|368:49|368:49|281:197|281:197|124:380|124:380,1,1443.2,12|2,0:0|0:0,0:0:0:0:
232,342,137308,2,0,L|220:254|220:254|221:123|221:123,1,220.4,12|0,0:0|0:0,0:0:0:0:
351,221,137683,1,0,3:0:0:0:
74,314,137871,6,0,B|151:212|151:212|186:89|186:89|145:210|145:210|67:311|67:311|113:205|113:205|181:111|181:111|160:225|160:225|74:365|74:365,2,511,2|2|8,3:0|0:2|3:0,0:0:0:0:
171,310,138808,1,6,0:0:0:0:
432,318,138996,2,0,B|468:230|468:230|454:136|454:136|434:43|434:43|347:166|347:166,1,435.900016628266,4|0,0:2|0:0,0:0:0:0:
147,341,139371,2,0,B|78:184|78:184|69:12|69:12|153:162|153:162|280:277|280:277|293:106|293:106|277:277|277:277|335:116|335:116|413:344|413:344,1,1443.2,8|2,0:0|0:0,0:0:0:0:
298,161,140308,1,14,0:0:0:0:
329,57,140496,2,0,L|373:134|373:134|446:243|446:243,1,220.4,0|4,0:0|3:0,0:0:0:0:
192,64,140871,6,0,B|113:165|113:165|76:287|76:287|27:169|27:169|32:41|32:41|32:156|32:156|53:270|53:270|83:381|83:381|192:258|192:258,2,511,0|2|8,0:0|0:3|0:0,0:0:0:0:
72,100,141808,1,4,3:0:0:0:
152,70,141902,1,0,0:0:0:0:
351,226,141996,2,0,B|324:327|324:327|273:235|273:235|200:160|200:160|145:71|145:71|144:176|144:176|131:280|131:280|131:385|131:385|148:239|148:239,1,881.6,4|8,0:2|0:0,0:0:0:0:
256,64,142933,2,0,L|255:153|255:153|256:284|256:284,1,220.4,4|2,3:1|0:0,0:0:0:0:
384,192,143308,1,8,0:0:0:0:
137,300,143496,6,0,B|48:194|48:194|5:63|5:63|10:201|10:201|36:337|36:337|135:240|135:240|211:125|211:125|283:7|283:7|306:200|306:200,1,1162.40004434204,0|0,2:0|2:0,0:0:0:0:
159,167,144433,1,0,3:0:0:0:
274,169,144621,2,0,L|319:246|319:246|391:356|391:356,1,220.4,8|4,0:0|0:0,0:0:0:0:
82,307,144996,6,0,B|82:179|82:179|94:52|94:52|148:168|148:168|234:263|234:263|190:370|190:370|109:288|109:288|69:180|69:180|82:16|82:16,2,511,4|14|12,0:2|0:0|0:2,0:0:0:0:
263,254,145933,2,0,B|293:332|293:332|341:264|341:264|364:184|364:184|344:53|344:53,1,383.25,4|0,0:0|0:0,0:0:0:0:
117,324,146308,2,0,L|113:224|113:224|111:124|111:124|99:25|99:25|101:167|101:167,1,440.8,12|4,0:0|3:0,0:0:0:0:
382,258,146871,2,0,L|399:345|399:345|397:214|397:214,1,220.4,8|6,0:0|0:2,0:0:0:0:
242,253,147246,2,0,L|247:342|247:342|242:211|242:211,1,220.4,2|2,0:2|3:0,0:0:0:0:
384,256,147621,1,8,0:3:0:0:
433,203,147714,1,8,0:3:0:0:
377,158,147808,1,4,3:3:0:0:
132,324,147996,6,0,L|115:249|115:249|134:174|134:174|135:97|135:97|141:20|141:20|150:97|150:97|116:167|116:167|123:244|123:244|131:363|131:363,1,661.2,4|0,0:2|0:0,0:0:0:0:
342,57,148746,2,0,L|298:134|298:134|225:243|225:243,1,220.4,10|0,0:0|0:0,0:0:0:0:
62,64,149121,2,0,L|102:143|102:143|179:249|179:249,1,220.4,0|8,0:0|0:0,0:0:0:0:
295,63,149496,2,0,L|344:137|344:137|412:249|412:249,1,220.4,4|0,0:0|3:0,0:0:0:0:
209,64,149871,2,0,B|119:160|119:160|65:280|65:280|42:151|42:151|95:331|95:331,1,581.200022171022,2|4,3:0|0:0,0:0:0:0:
189,209,150433,1,0,3:0:0:0:
439,339,150621,6,0,B|477:272|477:272|459:197|459:197|480:123|480:123|470:46|470:46|457:122|457:122|424:192|424:192|383:258|383:258|332:366|332:366,1,661.2,8|0,0:0|3:0,0:0:0:0:
128,64,151371,2,0,L|181:135|181:135|245:250|245:250,1,220.4,8|0,0:0|0:0,0:0:0:0:
408,71,151746,2,0,L|364:148|364:148|291:257|291:257,1,220.4,12|2,0:0|3:0,0:0:0:0:
175,70,152121,2,0,L|145:154|145:154|58:252|58:252,1,220.4,0|8,0:0|0:0,0:0:0:0:
261,71,152496,2,0,B|332:181|332:181|389:300|389:300|439:179|439:179|375:3|375:3,1,581.200022171022,6|4,0:0|0:0,0:0:0:0:
278,232,153058,1,10,0:0:0:0:
227,146,153246,1,0,0:0:0:0:
311,74,153433,1,0,3:0:0:0:
64,352,153621,6,0,B|32:281|32:281|36:204|36:204|54:129|54:129|71:54|71:54|102:125|102:125|135:195|135:195|201:235|201:235|249:345|249:345,1,661.2,8|0,0:0|3:0,0:0:0:0:
162,345,154371,2,0,B|114:258|114:258|79:165|79:165|37:75|37:75|86:208|86:208,1,440.8
162,322,154933,1,0,0:0:0:0:
282,304,155121,2,0,L|340:372|340:372|398:254|398:254,1,220.4,4|10,0:0|0:0,0:0:0:0:
139,312,155496,6,0,B|82:218|82:218|80:108|80:108|84:218|84:218|100:327|100:327|151:229|151:229|205:133|205:133|269:43|269:43|319:141|319:141|360:232|360:232|354:331|354:331|350:231|350:231|327:91|327:91,1,1322.4,4|8,0:0|0:0,0:0:0:0:
238,295,156714,1,8,0:0:0:0:
325,295,156808,1,10,0:3:0:0:
412,295,156902,1,8,0:3:0:0:
325,295,156996,6,0,B|252:190|252:190|173:90|173:90|132:211|132:211|110:337|110:337|99:210|99:210|139:89|139:89|218:189|218:189|290:294|290:294|365:191|365:191|400:68|400:68|441:189|441:189|427:316|427:316|376:199|376:199|291:103|291:103|233:217|233:217|155:318|155:318|91:207|91:207|83:79|83:79|91:206|91:206|52:328|52:328|107:213|107:213|152:94|152:94|253:16|253:16|311:130|311:130|364:233|364:233|426:330|426:330|429:215|429:215|405:52|405:52,1,3577,4|8,0:2|0:3,0:0:0:0:
205,67,159714,1,8,0:3:0:0:
39,81,159808,1,8,0:3:0:0:
314,317,159996,6,0,B|363:230|363:230|365:130|365:130|357:31|357:31|307:164|307:164,1,440.8,4|2,3:0|0:3,0:0:0:0:
130,298,160746,2,0,B|88:208|88:208|75:109|75:109|64:10|64:10|137:132|137:132,1,440.8,0|0,1:0|0:0,0:0:0:0:
313,126,161496,6,0,L|247:201|247:201|215:295|215:295|141:362|141:362|79:234|79:234,1,440.8,2|0,2:0|1:0,0:0:0:0:
256,128,162246,2,0,B|328:212|328:212|323:322|323:322|326:212|326:212|259:125|259:125|306:37|306:37|350:127|350:127|319:222|319:222|256:349|256:349,2,440.8,0|0|2,1:0|3:0|3:0,0:0:0:0:
184,133,163183,5,0,0:0:0:0:
121,71,163371,1,0,0:0:0:0:
184,133,163558,1,2,0:1:0:0:
259,135,163746,1,0,1:0:0:0:
335,91,163933,1,0,0:0:0:0:
259,135,164121,1,0,0:0:0:0:
184,133,164308,1,0,1:0:0:0:
116,79,164496,1,0,0:0:0:0:
232,79,164683,5,0,1:0:0:0:
339,122,164870,1,0,0:0:0:0:
160,128,165058,1,0,1:0:0:0:
267,171,165245,1,2,0:3:0:0:
87,190,165433,1,2,0:3:0:0:
194,233,165620,1,0,1:0:0:0:
369,233,165996,6,0,B|429:313|429:313|440:214|440:214|388:129|388:129|328:1|328:1,1,440.8,0|0,3:0|0:0,0:0:0:0:
151,114,166746,2,0,B|191:217|191:217|258:305|258:305|321:214|321:214|374:117|374:117|306:44|306:44|270:137|270:137|212:218|212:218|151:346|151:346,2,440.8,0|2|2,1:0|0:3|0:0,0:0:0:0:
380,137,168058,2,0,L|401:245|401:245|455:341|455:341|420:259|420:259|380:134|380:134,2,220.4,2|0|2,0:3|1:0|0:3,0:0:0:0:
259,136,168621,1,0,3:0:0:0:
380,135,168808,6,0,B|411:230|411:230|429:328|429:328|426:228|426:228|349:109|349:109,1,440.8,0|0,1:0|0:0,0:0:0:0:
253,252,169371,1,0,0:0:0:0:
276,149,169558,1,0,0:0:0:0:
383,142,169746,1,8,1:3:0:0:
276,149,169933,1,0,0:0:0:0:
180,101,170121,1,0,0:0:0:0:
136,21,170308,1,0,1:0:0:0:
175,98,170496,1,8,1:3:0:0:
276,149,170683,1,0,0:0:0:0:
370,148,170871,1,0,3:0:0:0:
160,148,171058,1,0,1:0:0:0:
160,128,171808,6,0,L|138:179|138:179|160:230|160:230|138:281|138:281|160:332|160:332,4,55.1,2|0|4|0|0,0:0|2:0|0:2|0:0|0:0,0:0:0:0:
417,312,172183,6,0,B|381:213|381:213|290:161|290:161|253:63|253:63|213:160|213:160|222:265|222:265|208:369|208:369|253:274|253:274|303:136|303:136,1,881.6,2|0,3:0|0:0,0:0:0:0:
241,60,173027,1,0,0:0:0:0:
132,78,173121,2,0,L|190:172|190:172,1,110.2
294,67,173308,2,0,L|236:160|236:160,1,110.2
132,78,173496,2,0,L|190:172|190:172,1,110.2,2|0,3:0|0:0,0:0:0:0:
294,67,173683,2,0,B|349:163|349:163|398:262|398:262|426:369|426:369|393:264|393:264|370:156|370:156|337:51|337:51|271:139|271:139|227:240|227:240|195:323|195:323|146:201|146:201,1,1102,8|0,0:0|0:0,0:0:0:0:
128,192,174714,1,4,3:0:0:0:
160,192,174808,1,0,3:0:0:0:
135,194,174902,1,10,0:0:0:0:
310,200,174996,1,4,0:0:0:0:
188,324,175371,6,0,B|127:242|127:242|115:141|115:141|162:50|162:50|199:145|199:145|281:205|281:205|314:301|314:301|337:202|337:202|273:58|273:58,1,871.800033256532,2|2,0:0|0:0,0:0:0:0:
212,320,176027,1,0,0:0:0:0:
353,317,176214,2,0,L|295:224|295:224,1,110.2,2|0,0:0|0:0,0:0:0:0:
188,231,176496,2,0,L|129:324,1,110.2,0|2,0:0|0:0,0:0:0:0:
282,324,176683,6,0,B|333:227|333:227|418:157|418:157|358:65|358:65|280:143|280:143|344:233|344:233|398:329|398:329|356:227|356:227|285:143|285:143|240:54|240:54|186:138|186:138|133:222|133:222|126:364|126:364,1,1322.4,10|4,0:0|0:3,0:0:0:0:
391,210,177996,6,0,L|335:305|335:305|274:213|274:213|324:140|324:140|391:27|391:27,2,220.4,4|2|2,0:0|0:0|0:0,0:0:0:0:
239,210,178558,2,0,L|195:311|195:311|122:228|122:228|193:143|193:143|239:43|239:43|177:134|177:134|122:230|122:230|176:301|176:301|239:186|239:186,4,220.4,8|2|2|2|2,0:0|0:0|0:0|0:3|0:3,0:0:0:0:
429,195,179496,6,0,L|372:289|372:289|312:382|312:382|369:314|369:314|429:197|429:197,2,220.4,6|0|2,0:0|0:0|0:3,0:0:0:0:
277,195,180058,2,0,L|221:290|221:290|160:382|160:382|190:298|190:298|277:200|277:200,2,220.4,10|0|2,0:0|0:0|3:0,0:0:0:0:
127,305,180621,2,0,B|72:383|72:383|52:290|52:290|19:201|19:201|104:76|104:76,1,435.900016628266,2|0,0:0|2:0,0:0:0:0:
351,113,180996,5,4,0:0:0:0:
403,129,181089,1,0,0:0:0:0:
409,184,181183,1,0,0:0:0:0:
361,211,181277,1,0,0:0:0:0:
274,222,181371,2,0,L|273:332|273:332,1,110.2,2|0,3:0|0:0,0:0:0:0:
366,286,181558,2,0,L|366:176|366:176,1,110.2,12|2,0:0|0:0,0:0:0:0:
284,227,181746,1,0,3:0:0:0:
362,226,181871,1,0,0:0:0:0:
428,227,181996,1,0,0:0:0:0:
231,308,182121,6,0,B|192:227|192:227|146:150|146:150|109:68|109:68|63:145|63:145|53:234|53:234|30:321|30:321|80:247|80:247|150:127|150:127,1,766.5,2|0,0:0|3:0,0:0:0:0:
226,120,182777,1,0,0:0:0:0:
302,120,182871,1,0,0:0:0:0:
226,120,182964,1,0,0:0:0:0:
149,120,183058,1,10,0:0:0:0:
72,120,183152,1,0,0:0:0:0:
148,120,183246,1,2,0:0:0:0:
226,120,183339,1,8,0:0:0:0:
149,120,183433,1,0,0:0:0:0:
225,120,183527,1,8,3:0:0:0:
302,120,183621,1,0,3:0:0:0:
226,120,183714,1,2,0:3:0:0:
302,120,183808,1,8,3:0:0:0:
378,120,183902,1,2,0:3:0:0:
134,112,183996,6,0,B|84:248|84:248|105:104|105:104|150:242|150:242|215:372|215:372|333:287|333:287|368:146|368:146|407:6|407:6|391:150|391:150|342:287|342:287|272:160|272:160|175:52|175:52|88:169|88:169|64:312|64:312|97:171|97:171|167:43|167:43|242:167|242:167|337:277|337:277|383:139|383:139|412:281|412:281|434:137|434:137|353:16|353:16|269:134|269:134|216:269|216:269|125:382|125:382|95:240|95:240|95:95|95:95|120:238|120:238|201:358|201:358|276:234|276:234|351:110|351:110|409:243|409:243|406:98|406:98|343:229|343:229|275:357|275:357|187:241|187:241|128:108|128:108|80:245|80:245|92:100|92:100|132:240|132:240|194:371|194:371|291:263|291:263|373:143|373:143|412:3|412:3|430:147|430:147|414:291|414:291|341:166|341:166|247:56|247:56|171:180|171:180|88:299|88:299|80:154|80:154|71:9|71:9|123:145|123:145|214:258|214:258|297:377|297:377|394:268|394:268|413:124|413:124|423:22|423:22|415:124|415:124|352:204|352:204|304:294|304:294|257:384|257:384|189:308|189:308|161:210|161:210|87:71|87:71,1,9008.60034365083,6|8,0:0|0:0,0:0:0:0:
263,134,189902,1,8,0:0:0:0:
416,64,189996,6,0,B|456:204|456:204|438:348|438:348|391:211|391:211|309:91|309:91|219:205|219:205|149:332|149:332|133:188|133:188|159:45|159:45|205:183|205:183|278:309|278:309|360:189|360:189|438:66|438:66|471:208|471:208|461:353|461:353|373:237|373:237|308:107|308:107|224:225|224:225|169:359|169:359|115:224|115:224|116:79|116:79|195:201|195:201|249:336|249:336|354:235|354:235|425:108|425:108|451:251|451:251|464:106|464:106|421:245|421:245|364:379|364:379|245:296|245:296|202:157|202:157|131:30|131:30|144:175|144:175|193:312|193:312|253:180|253:180|348:70|348:70|421:196|421:196|453:338|453:338|473:194|473:194|442:52|442:52|356:169|356:169|269:285|269:285|175:175|175:175|123:39|123:39|132:184|132:184|133:329|133:329|211:207|211:207|306:97|306:97|379:223|379:223|408:337|408:337|473:176|473:176,1,7265.00027713777,6|2,0:0|0:3,0:0:0:0:
136,290,194871,6,0,B|222:173|222:173|255:31|255:31|205:167|205:167|134:294|134:294|203:182|203:182|270:69|270:69|244:198|244:198|136:351|136:351,2,581.200022171022,14|6|10,0:0|0:0|1:3,0:0:0:0:
65,297,195808,2,0,L|153:181|153:181,1,145.300005542755,10|10,1:3|1:3,0:0:0:0:
339,353,195996,2,0,B|434:235|434:235|418:84|418:84|310:190|310:190|225:316|225:316|139:191|139:191|161:41|161:41|221:180|221:180|360:341|360:341,1,1274.72002431335,4|0,0:2|0:0,0:0:0:0:
261,76,196933,2,0,L|239:162|239:162|231:293|231:293,1,220.4,0|4,3:0|3:0,0:0:0:0:
88,153,197308,2,0,L|89:242|89:242|60:370|60:370,1,220.4,6|0,0:0|3:0,0:0:0:0:
181,277,197683,1,4,3:0:0:0:
423,335,197871,6,0,B|330:224|330:224|254:100|254:100|277:243|277:243|331:378|331:378|286:255|286:255|255:127|255:127|316:11|316:11|423:165|423:165,2,581.200022171022,2|4|2,0:0|3:0|0:0,0:0:0:0:
388,310,198808,1,4,3:0:0:0:
110,358,198996,2,0,B|66:274|66:274|38:183|38:183|47:88|47:88|128:215|128:215,1,435.900016628266,6|0,0:0|0:0,0:0:0:0:
362,289,199371,2,0,B|423:128|423:128|400:298|400:298|330:141|330:141|229:2|229:2|116:131|116:131|86:300|86:300|118:131|118:131|252:331|252:331,1,1443.2,0|0,3:0|3:0,0:0:0:0:
380,315,200308,1,4,0:0:0:0:
229,324,200496,1,2,0:0:0:0:
76,319,200683,1,4,0:2:0:0:
475,288,200871,6,0,L|381:143|381:143|251:29|251:29|155:173|155:173|33:295|33:295|117:163|117:163|252:84|252:84|315:227|315:227|475:381|475:381,2,690.711995520742,8|0|4,3:2|3:0|3:0,0:0:0:0:
182,343,201996,6,0,B|118:193|118:193|82:34|82:34|122:192|122:192|214:326|214:326|219:163|219:163|224:0|224:0|287:150|287:150|383:282|383:282|390:135|390:135|363:280|363:280|325:138|325:138|184:293|184:293,1,1954.2000186367,4|2,0:2|3:0,0:0:0:0:
295,69,203308,1,2,3:0:0:0:
114,65,203496,2,0,L|176:181|176:181|268:275|268:275|369:359|369:359|465:198|465:198,1,581.200022171022,4|0,0:0|3:0,0:0:0:0:
168,341,204058,6,0,B|93:233|93:233|47:110|47:110|65:240|65:240|177:90|177:90,1,581.200022171022,12|12,0:2|0:0,0:0:0:0:
294,205,204621,1,4,3:0:0:0:
177,208,204808,1,2,0:0:0:0:
329,210,204996,2,0,L|359:294|359:294|446:196|446:196,1,220.4,4|4,0:2|3:0,0:0:0:0:
167,319,205371,6,0,B|128:179|128:179|138:34|138:34|213:159|213:159|293:281|293:281|230:166|230:166|153:59|153:59|105:181|105:181|167:358|167:358,2,581.200022171022,6|4|4,0:0|3:0|3:0,0:0:0:0:
319,317,206308,2,0,B|409:221|409:221|456:98|456:98|479:227|479:227|381:68|381:68,1,581.200022171022,6|12,0:0|0:3,0:0:0:0:
131,307,206871,6,0,B|127:56|127:56|120:307|120:307|130:57|130:57|218:292|218:292|133:82|133:82|131:309|131:309|145:83|145:83|131:405|131:405,2,1002.40003823853,0|0|4,3:0|3:0|3:0,0:0:0:0:
126,309,207714,2,0,L|126:199|126:199|126:89|126:89,2,110.2,4|8|4,3:0|0:3|0:0,0:0:0:0:
300,314,207996,6,0,B|344:230|344:230|407:159|407:159|426:66|426:66|429:217|429:217,1,435.900016628266,6|0,0:2|0:0,0:0:0:0:
220,339,208371,2,0,B|100:217|100:217|75:47|75:47|145:204|145:204|246:343|246:343|365:220|365:220|424:59|424:59|387:227|387:227|231:43|231:43,1,1443.2,2|0,3:0|3:0,0:0:0:0:
334,326,209308,1,6,0:0:0:0:
220,330,209496,2,0,L|188:247|188:247|103:147|103:147,1,220.4,4|0,0:2|3:0,0:0:0:0:
352,332,209871,6,0,B|443:218|443:218|465:74|465:74|476:219|476:219|447:361|447:361|468:231|468:231|458:100|458:100|454:231|454:231|352:74|352:74,2,581.200022171022,2|0|2,3:0|3:0|0:0,0:0:0:0:
474,327,210808,2,0,L|410:265|410:265|363:142|363:142,1,220.4,0|4,3:0|0:0,0:0:0:0:
109,293,211183,6,0,B|59:129|59:129|155:271|155:271|258:134|258:134|346:281|346:281|375:112|375:112|319:274|319:274|207:144|207:144|219:385|219:385,1,1443.2,0|2,0:0|0:0,0:0:0:0:
331,95,212121,1,0,3:0:0:0:
446,90,212308,1,6,0:0:0:0:
331,95,212496,1,0,0:0:0:0:
446,90,212683,1,2,0:3:0:0:
166,351,212871,6,0,B|88:228|88:228|104:84|104:84|167:215|167:215|215:352|215:352|194:222|194:222|101:129|101:129|91:260|91:260|166:89|166:89,2,581.200022171022,4|4|4,3:0|3:0|3:0,0:0:0:0:
64,352,213808,1,8,0:3:0:0:
334,319,213996,2,0,B|386:165|386:165|391:2|391:2|337:156|337:156|225:275|225:275|157:127|157:127|50:5|50:5|32:167|32:167|42:330|42:330|77:203|77:203|207:59|207:59,1,1628.50001553058,6|0,0:2|3:0,0:0:0:0:
333,310,215121,2,0,L|372:230|372:230|450:124|450:124,1,220.4,2|4,3:0|0:0,0:0:0:0:
250,342,215496,6,0,B|192:261|192:261|167:164|167:164|177:65|177:65|218:201|218:201,1,440.8,2|4,0:0|3:0,0:0:0:0:
390,340,216058,2,0,B|405:241|405:241|381:144|381:144|325:62|325:62|262:189|262:189,1,440.8,12|12,0:2|0:2,0:0:0:0:
351,142,216621,1,4,3:0:0:0:
454,118,216808,1,4,0:0:0:0:
82,307,216996,6,0,B|56:164|56:164|110:29|110:29|183:155|183:155|229:293|229:293|219:162|219:162|140:57|140:57|84:176|84:176|82:363|82:363,2,581.200022171022,4|6|0,0:2|0:0|0:0,0:0:0:0:
230,311,217933,2,0,B|270:384|270:384|297:305|297:305|349:240|349:240|311:113|311:113,1,383.25,4|0,0:0|0:0,0:0:0:0:
117,324,218308,2,0,L|120:224|120:224|122:124|122:124|94:28|94:28|101:170|101:170,1,440.8,6|12,0:0|0:3,0:0:0:0:
478,311,218871,6,0,L|365:181|365:181|270:38|270:38|148:159|148:159|38:291|38:291|154:187|154:187|228:50|228:50|353:142|353:142|478:325|478:325,2,687.903989503419,4|4|10,3:0|3:0|0:0,0:0:0:0:
224,320,219808,1,10,0:0:0:0:
320,327,219996,6,0,B|370:238|370:238|400:140|400:140|372:42|372:42|323:131|323:131|264:214|264:214|192:286|192:286|176:185|176:185|203:30|203:30,1,871.800033256532,6|0,0:2|0:0,0:0:0:0:
398,313,220746,2,0,B|319:213|319:213|264:98|264:98|189:201|189:201|114:304|114:304|192:203|192:203|246:87|246:87|333:181|333:181|393:294|393:294|338:192|338:192|253:114|253:114|198:13|198:13|109:151|109:151,1,1533,8|4,0:3|3:0,0:0:0:0:
220,308,222058,1,8,0:0:0:0:
107,313,222246,2,0,L|153:237|153:237|224:126|224:126,1,220.4,4|2,0:0|0:0,0:0:0:0:
352,338,222621,6,0,B|293:255|293:255|280:154|280:154|327:63|327:63|356:161|356:161|415:244|415:244|469:331|469:331|476:229|476:229|359:108|359:108,1,871.799996930166,8|0,0:3|0:0,0:0:0:0:
180,321,223371,2,0,B|241:209|241:209|339:127|339:127|393:11|393:11|490:94|490:94|399:184|399:184|337:296|337:296|259:195|259:195|185:91|185:91|238:194|238:194|306:287|306:287|358:184|358:184|469:63|469:63,1,1533,10|6,0:0|0:0,0:0:0:0:
329,318,224683,1,2,3:0:0:0:
475,321,224871,2,0,L|429:245|429:245|358:134|358:134,1,220.4,6|8,0:0|0:0,0:0:0:0:
252,316,225246,2,0,L|222:232|222:232|135:134|135:134,1,220.4,0|0,0:0|3:0,0:0:0:0:
448,352,225621,6,0,B|452:269|452:269|467:188|467:188|451:107|451:107|425:29|425:29|373:93|373:93|334:166|334:166|315:246|315:246|263:310|263:310|306:374|306:374|355:314|355:314|379:240|379:240|425:178|425:178|447:104|447:104|446:27|446:27|450:104|450:104|448:224|448:224,2,661.2,8|4|8,0:3|3:0|0:0,0:0:0:0:
350,322,226933,1,2,0:3:0:0:
230,304,227121,2,0,L|200:220|200:220|114:121|114:121,1,220.4,4|12,0:0|0:2,0:0:0:0:
373,312,227496,6,0,B|396:204|396:204|423:97|423:97|429:207|429:207|390:310|390:310|361:204|361:204|315:104|315:104|234:29|234:29|193:131|193:131|157:224|157:224|163:323|163:323|154:224|154:224|185:86|185:86,1,1322.4,0|8,0:0|0:3,0:0:0:0:
274,295,228714,1,8,0:3:0:0:
187,295,228808,1,8,0:0:0:0:
100,295,228902,1,8,0:0:0:0:
187,295,228996,6,0,B|269:197|269:197|319:79|319:79|376:193|376:193|433:307|433:307|405:182|405:182|374:58|374:58|310:168|310:168|222:260|222:260|160:371|160:371|134:246|134:246|69:136|69:136|83:9|83:9|162:110|162:110|212:228|212:228|285:333|285:333|357:227|357:227|411:111|411:111|405:239|405:239|444:361|444:361|435:234|435:234|399:111|399:111|361:233|361:233|268:321|268:321|201:212|201:212|156:106|156:106|81:18|81:18|74:133|74:133|107:294|107:294,1,3577,4|8,0:2|0:3,0:0:0:0:
279,63,231714,1,8,0:3:0:0:
452,61,231808,1,4,3:0:0:0:
99,348,231996,6,0,B|92:220|92:220|146:104|146:104|209:215|209:215|263:331|263:331|212:227|212:227|144:133|144:133|84:34|84:34|99:198|99:198,2,511,4|10|8,0:2|0:0|0:0,0:0:0:0:
209,338,232933,1,2,0:0:0:0:
81,350,233121,2,0,L|87:261|87:261|80:130|80:130,1,220.4,2|10,0:0|0:0,0:0:0:0:
275,351,233496,2,0,B|214:285|214:285|182:201|182:201|142:121|142:121|81:55|81:55|63:143|63:143|73:232|73:232|62:321|62:321|98:187|98:187,1,766.5,0|8,0:0|0:0,0:0:0:0:
197,53,234246,1,0,2:0:0:0:
95,67,234433,1,0,3:0:0:0:
60,203,234621,1,8,0:0:0:0:
134,323,234808,1,0,0:0:0:0:
320,330,234996,6,0,B|360:270|360:270|376:200|376:200|412:138|412:138|386:27|386:27,1,330.6,6|0,0:0|0:0,0:0:0:0:
281,245,235371,2,0,B|252:311|252:311|216:374|216:374|201:304|201:304|201:190|201:190,1,330.6,10|0,0:0|0:0,0:0:0:0:
289,187,235746,2,0,B|271:296|271:296|268:186|268:186|215:89|215:89|147:2|147:2|191:91|191:91|263:160|263:160|300:252|300:252|289:110|289:110,2,440.8,8|0|0,0:0|2:0|0:0,0:0:0:0:
172,192,236683,1,0,3:0:0:0:
289,187,236871,2,0,B|291:287|291:287|255:380|255:380|236:282|236:282|147:172|147:172,1,440.8,2|0,0:3|2:0,0:0:0:0:
395,284,237433,2,0,B|408:383|408:383|378:288|378:288|357:191|357:191|269:79|269:79,1,440.8,2|10,0:0|3:0,0:0:0:0:
192,160,237902,1,4,3:0:0:0:
384,160,237996,5,4,0:2:0:0:
169,85,238371,1,8,0:0:0:0:
126,188,238558,1,0,0:0:0:0:
190,280,238746,1,8,0:0:0:0:
302,277,238933,1,0,3:0:0:0:
190,280,239121,1,0,2:0:0:0:
126,188,239308,1,8,0:0:0:0:
286,330,239496,6,0,B|344:230|344:230|388:123|388:123|406:9|406:9|399:173|399:173,1,511,0|4,0:0|3:0,0:0:0:0:
277,123,240058,2,0,L|228:222|228:222|188:325|188:325|214:240|214:240|277:125|277:125,2,220.4,12|0|0,0:0|2:0|3:0,0:0:0:0:
397,122,240621,2,0,L|337:188|337:188|280:306|280:306,1,220.4,8|2,0:0|0:0,0:0:0:0:
160,136,240996,6,0,B|93:265|93:265|106:120|106:120|179:246|179:246|232:381|232:381|167:267|167:267|99:154|99:154|70:26|70:26|160:190|160:190,2,581.200022171022,4|12|12,0:2|0:2|0:2,0:0:0:0:
266,135,241933,1,4,3:1:0:0:
152,143,242121,2,0,B|109:233|109:233|110:333|110:333|150:242|150:242|215:116|215:116,1,440.8,2|0,0:3|2:0,0:0:0:0:
285,297,242589,1,8,3:0:0:0:
214,299,242683,1,8,0:3:0:0:
471,291,242871,6,0,L|349:173|349:173|256:32|256:32|146:161|146:161|41:293|41:293|122:163|122:163|252:83|252:83|344:205|344:205|471:382|471:382,2,676.671977284571,4|2|10,3:0|0:3|0:3,0:0:0:0:
216,297,243808,1,6,0:0:0:0:
312,298,243996,6,0,L|313:375|313:375|313:298|313:298|333:223|333:223|311:149|311:149|321:72|321:72|326:149|326:149|306:224|306:224|321:343|321:343,1,661.2,6|0,0:2|3:0,0:0:0:0:
131,96,244746,2,0,L|181:170|181:170|248:283|248:283,1,220.4,10|0,0:0|3:0,0:0:0:0:
377,116,245121,2,0,L|326:189|326:189|261:303|261:303,1,220.4,2|8,0:3|0:0,0:0:0:0:
94,99,245496,2,0,L|124:183|124:183|211:282|211:282,1,220.4,2|0,0:0|3:0,0:0:0:0:
377,116,245871,2,0,L|349:201|349:201|261:299|261:299,1,220.4,4|8,3:0|0:0,0:0:0:0:
167,93,246246,2,0,L|123:171|123:171|51:281|51:281,1,220.4,6|0,0:0|3:0,0:0:0:0:
265,330,246621,6,0,B|307:251|307:251|382:202|382:202|409:116|409:116|449:36|449:36|488:117|488:117|489:207|489:207|441:283|441:283|394:152|394:152,1,766.5,10|4,0:0|3:0,0:0:0:0:
221,129,247371,2,0,B|259:227|259:227|332:302|332:302|385:212|385:212|443:124|443:124|397:30|397:30|342:119|342:119|309:219|309:219|223:338|223:338,1,881.6,8|2,0:0|0:3,0:0:0:0:
474,111,248496,2,0,L|380:233|380:233|260:329|260:329|196:189|196:189|41:34|41:34,1,679.47999740799,4|6,0:0|0:0,0:0:0:0:
158,111,249058,2,0,L|206:186|206:186|275:298|275:298,1,220.4,8|0,0:0|2:0,0:0:0:0:
157,111,249433,1,4,3:0:0:0:
448,352,249621,6,0,B|466:277|466:277|467:200|467:200|452:124|452:124|441:47|441:47|419:121|419:121|363:175|363:175|316:236|316:236|263:343|263:343,1,661.2,8|4,0:3|3:0,0:0:0:0:
332,165,250371,2,0,B|242:261|242:261|178:375|178:375|163:245|163:245|241:75|241:75,1,581.200022171022
350,322,250933,1,4,3:0:0:0:
230,304,251121,2,0,L|195:386|195:386|114:283|114:283,1,220.4,6|12,0:0|0:2,0:0:0:0:
373,312,251496,6,0,B|411:209|411:209|428:100|428:100|411:209|411:209|402:319|402:319|363:216|363:216|282:141|282:141|226:46|226:46|193:151|193:151|173:249|173:249|131:339|131:339|151:241|151:241|185:103|185:103,1,1322.4,2|8,0:0|0:0,0:0:0:0:
274,295,252714,1,8,0:0:0:0:
187,295,252808,1,8,0:0:0:0:
100,295,252902,1,8,0:0:0:0:
187,241,252996,6,0,B|229:343|229:343|300:259|300:259|349:160|349:160|372:52|372:52|385:161|385:161|359:268|359:268|312:367|312:367|265:267|265:267|213:180|213:180|162:93|162:93|144:193|144:193|124:292|124:292|137:191|137:191|139:90|139:90|185:180|185:180|239:313|239:313,1,1735.65,6|2,0:2|0:0,0:0:0:0:
337,310,254683,1,0,3:0:0:0:
452,300,254871,1,8,0:0:0:0:
337,310,255058,1,4,0:2:0:0:
221,266,255246,2,0,L|158:329|158:329|104:209|104:209,1,220.4,0|8,0:0|3:0,0:0:0:0:
0,268,255621,1,8,0:3:0:0:
256,192,255808,12,0,255831,0:0:0:0:
